<?xml version="1.0" standalone="no"?>
<!DOCTYPE svg PUBLIC "-//W3C//DTD SVG 1.1//EN" "http://www.w3.org/Graphics/SVG/1.1/DTD/svg11.dtd" >
<svg>
<metadata>
Created by FontForge 20090914 at Mon Nov 19 10:47:45 2012
 By www-data
Copyright &#194;&#169; 1988, 1990, 1993, 2003 Linotype Library GmbH, www.linotype.com. All rights reserved. Copyright &#194;&#169; 1988, 1990, 1993 Adobe Systems Incorporated. All Rights Reserved.
</metadata>
<defs>
<font id="HelveticaNeueLTPro-Lt" horiz-adv-x="556" >
  <font-face 
    font-family="HelveticaNeueLT Pro 45 Lt"
    font-weight="300"
    font-stretch="normal"
    units-per-em="1000"
    panose-1="2 11 4 3 2 2 2 2 2 4"
    ascent="714"
    descent="-286"
    x-height="516"
    cap-height="714"
    bbox="-166 -214 1050 967"
    underline-thickness="50"
    underline-position="-50"
    unicode-range="U+000D-U+FB02"
  />
<missing-glyph horiz-adv-x="512" 
d="M222 117h56v67h-56v-67zM225 234l46 -0.000976562c0 34.667 2 58.667 6 72c4 12.667 18.333 30 43 52c24.667 22.667 41.334 42.667 50.001 60s13 37.333 13 60c0 39.333 -11.667 71 -35 95s-53 36 -89 36c-37.333 0 -68 -11.333 -92 -34s-38.333 -57 -43 -103l50 -8
c7.33301 63.333 34.666 95 81.999 95c20.667 0 38.5 -8.16699 53.5 -24.5s22.5 -36.5 22.5 -60.5c0 -13.333 -3.16699 -25.666 -9.5 -36.999s-19.833 -26.666 -40.5 -45.999c-20.667 -20.667 -36 -40.334 -46 -59.001c-8.66699 -16.667 -13 -43.667 -13 -81zM462 49.999
h-412v617h412v-617zM512 717.999h-512v-718h512v718z" />
    <glyph glyph-name="IJ" unicode="IJ" horiz-adv-x="727" 
d="M77 0v714h68v-714h-68zM587 228l0.00292969 485.998h68v-515c0 -74 -15.833 -128.167 -47.5 -162.5s-85.167 -51.5 -160.5 -51.5c-132.667 0 -199 81.333 -199 244h68c0 -2 0.166992 -8.5 0.5 -19.5s0.666016 -18.833 0.999023 -23.5s1.16602 -12.667 2.49902 -24
s3 -19.833 5 -25.5l8 -23c3.33301 -9.66699 7.16602 -17.167 11.499 -22.5s10 -11.666 17 -18.999s14.833 -12.666 23.5 -15.999s18.667 -6.33301 30 -9s24 -4 38 -4c52 0 87.333 13.833 106 41.5s28 75.5 28 143.5z" />
    <glyph glyph-name="ij" unicode="ij" horiz-adv-x="373" 
d="M61 613v101h63v-101h-63zM61 0v516h63v-516h-63zM249 613v101h63v-101h-63zM249 -63l-0.00292969 578.998h63v-564c0 -95.333 -36.667 -143 -110 -143c-5.33301 0 -12.666 0.333008 -21.999 1s-16.666 1 -21.999 1v52c14.667 -1.33301 26 -1.66602 34 -0.999023
c22.667 0 37.834 6.33301 45.501 19s11.5 31.334 11.5 56.001z" />
    <glyph glyph-name="napostrophe" unicode="&#x22;n" horiz-adv-x="555" 
d="M77 0v516h63v-89h2c12 30.667 33.333 55.667 64 75s64.334 29 101.001 29c69.333 0 118.166 -16.833 146.499 -50.5s42.5 -83.167 42.5 -148.5v-332h-63v322c0 104 -43.667 156 -131 156c-49.333 0 -88.333 -16.5 -117 -49.5s-43.667 -75.5 -45 -127.5v-301h-63zM22 805
h86v-80c0 -46 -28.667 -70.333 -86 -73v28c24 4.66699 37 16 39 34h-39v91z" />
    <glyph glyph-name="fi" unicode="fi" horiz-adv-x="444" 
d="M320 613v101h63v-101h-63zM94 0l-0.000976562 463h-88v53h88v47c0 49.333 9 86.833 27 112.5s50.667 38.5 98 38.5c17.333 0 35 -1.33301 53 -4v-54c-18.667 3.33301 -34 5 -46 5c-13.333 0 -24.5 -1.83301 -33.5 -5.5s-15.833 -8 -20.5 -13s-8.16699 -12.667 -10.5 -23
s-3.66602 -19 -3.99902 -26s-0.5 -17.833 -0.5 -32.5v-45h102v-53h-102v-463h-63zM319.999 0v516h63v-516h-63z" />
    <glyph glyph-name="fl" unicode="fl" horiz-adv-x="444" 
d="M320 0v714h63v-714h-63zM94 0l-0.000976562 463h-88v53h88v47c0 49.333 9 86.833 27 112.5s50.667 38.5 98 38.5c17.333 0 35 -1.33301 53 -4v-54c-18.667 3.33301 -34 5 -46 5c-13.333 0 -24.5 -1.83301 -33.5 -5.5s-15.833 -8 -20.5 -13s-8.16699 -12.667 -10.5 -23
s-3.66602 -19 -3.99902 -26s-0.5 -17.833 -0.5 -32.5v-45h102v-53h-102v-463h-63z" />
    <glyph glyph-name=".notdef" horiz-adv-x="512" 
d="M222 117h56v67h-56v-67zM225 234l46 -0.000976562c0 34.667 2 58.667 6 72c4 12.667 18.333 30 43 52c24.667 22.667 41.334 42.667 50.001 60s13 37.333 13 60c0 39.333 -11.667 71 -35 95s-53 36 -89 36c-37.333 0 -68 -11.333 -92 -34s-38.333 -57 -43 -103l50 -8
c7.33301 63.333 34.666 95 81.999 95c20.667 0 38.5 -8.16699 53.5 -24.5s22.5 -36.5 22.5 -60.5c0 -13.333 -3.16699 -25.666 -9.5 -36.999s-19.833 -26.666 -40.5 -45.999c-20.667 -20.667 -36 -40.334 -46 -59.001c-8.66699 -16.667 -13 -43.667 -13 -81zM462 49.999
h-412v617h412v-617zM512 717.999h-512v-718h512v718z" />
    <glyph glyph-name=".null" horiz-adv-x="500" 
 />
    <glyph glyph-name=".null" horiz-adv-x="500" 
 />
    <glyph glyph-name="CR" unicode="&#xd;" horiz-adv-x="0" 
 />
    <glyph glyph-name="space" unicode=" " horiz-adv-x="278" 
 />
    <glyph glyph-name="exclam" unicode="!" horiz-adv-x="241" 
d="M163 0h-84v106h84v-106zM102 178l-15 323v213h68v-213l-15 -323h-38z" />
    <glyph glyph-name="quotedbl" unicode="&#x22;" horiz-adv-x="370" 
d="M220 471v243h63v-243h-63zM87 471v243h63v-243h-63z" />
    <glyph glyph-name="numbersign" unicode="#" 
d="M364 424h-141l-22 -156h141zM497 268v-45h-111l-31 -223h-50l31 223h-141l-31 -223h-50l31 223h-110v45h116l22 156h-110v45h116l31 222h50l-31 -222h141l31 222h50l-31 -222h105v-45h-111l-22 -156h105z" />
    <glyph glyph-name="dollar" unicode="$" 
d="M29 228l63.0049 -0.00292969c0.666992 -114 55.667 -177.333 165 -190v296c-32.667 6.66699 -59.834 14 -81.501 22s-43.167 19.333 -64.5 34s-37.333 34 -48 58s-16 52.667 -16 86c0 58.667 20.167 105.834 60.5 141.501s90.166 53.5 149.499 53.5v78h39v-78
c60 0 110.667 -20.167 152 -60.5s61.333 -92.5 60 -156.5h-63c-0.666992 50 -14.667 89.833 -42 119.5s-63 44.5 -107 44.5v-288c34 -7.33301 62.667 -15 86 -23s47.166 -19.5 71.499 -34.5s42.666 -34.667 54.999 -59s18.5 -53.166 18.5 -86.499
c0 -62.667 -22.833 -111.667 -68.5 -147s-99.834 -53 -162.501 -53v-85h-39v86c-77.333 7.33301 -134 30.333 -170 69s-55.333 96.334 -58 173.001zM257.005 396.997l-0.00292969 279c-43.333 0 -78.666 -12.333 -105.999 -37s-41 -62 -41 -112
c0 -22 3.66699 -40.667 11 -56s19.333 -27.833 36 -37.5s31.334 -16.667 44.001 -21s31.334 -9.5 56.001 -15.5zM296.002 325.997l-0.000976562 -288.003c46.667 0 86.334 12.167 119.001 36.5s49 60.833 49 109.5c0 22.667 -4.66699 42.334 -14 59.001
s-23.333 30.334 -42 41.001s-36 18.834 -52 24.501s-36 11.5 -60 17.5z" />
    <glyph glyph-name="percent" unicode="%" horiz-adv-x="889" 
d="M228 706c54 0 94 -17.167 120 -51.5s39 -80.166 39 -137.499s-13 -103.166 -39 -137.499s-66 -51.5 -120 -51.5s-94 17.167 -120 51.5s-39 80.166 -39 137.499s13 103.166 39 137.499s66 51.5 120 51.5zM667 318c-26.667 0 -48.334 -8 -65.001 -24s-27.667 -34 -33 -54
s-8 -42.333 -8 -67c0 -24 2.66699 -46 8 -66s16.333 -37.833 33 -53.5s38.334 -23.5 65.001 -23.5c37.333 0 64.333 14.333 81 43s25 62 25 100c0 38.667 -8.33301 72.5 -25 101.5s-43.667 43.5 -81 43.5zM667 363c54 0 94 -17.167 120 -51.5s39 -80.166 39 -137.499
s-13 -103.166 -39 -137.499s-66 -51.5 -120 -51.5s-94 17.167 -120 51.5s-39 80.166 -39 137.499s13 103.166 39 137.499s66 51.5 120 51.5zM190 -34l453 759h47l-452 -759h-48zM228 661c-26.667 0 -48.334 -8 -65.001 -24s-27.667 -34 -33 -54s-8 -42.333 -8 -67
c0 -24 2.66699 -46 8 -66s16.333 -37.833 33 -53.5s38.334 -23.5 65.001 -23.5c37.333 0 64.333 14.333 81 43s25 62 25 100c0 38.667 -8.33301 72.5 -25 101.5s-43.667 43.5 -81 43.5z" />
    <glyph glyph-name="ampersand" unicode="&#x26;" horiz-adv-x="611" 
d="M284 661c-27.333 0 -49.998 -8.16699 -67.998 -24.5s-27 -38.833 -27 -67.5c0 -15.333 5.16699 -33 15.5 -53s19.666 -35.5 27.999 -46.5s20.5 -25.833 36.5 -44.5c21.333 14 38.666 26.333 51.999 37s26.333 25.667 39 45s19 40 19 62c0 28.667 -9 51.167 -27 67.5
s-40.667 24.5 -68 24.5zM541.002 0l-76.002 93.002c-57.333 -72 -127.333 -108 -210 -108c-63.333 0 -115.166 17.667 -155.499 53s-60.5 84.333 -60.5 147c0 78.667 58.333 149.334 175 212.001l-16.5 21l-18.5 23.5c-3.33301 4.33301 -8.66602 11.666 -15.999 21.999
s-12.5 18.833 -15.5 25.5l-10.5 24c-4 9.33301 -6.83301 18.666 -8.5 27.999s-2.5 18.666 -2.5 27.999c0 42.667 15.167 77.5 45.5 104.5s67.833 40.5 112.5 40.5s82.167 -13.5 112.5 -40.5s45.5 -61.833 45.5 -104.5c0 -40 -12.167 -73.833 -36.5 -101.5
s-58.833 -55.5 -103.5 -83.5l156 -188c14 28.667 21 68.667 21 120h63c0 -62 -14 -119 -42 -171l120 -145h-79zM426 140.002l-178 216.001c-97.333 -52 -146 -111 -146 -177c0 -40.667 15.5 -74.334 46.5 -101.001s67.167 -40 108.5 -40c64.667 0 121 34 169 102z" />
    <glyph glyph-name="quotesingle" unicode="'" horiz-adv-x="278" 
d="M108 471v243h63v-243h-63z" />
    <glyph glyph-name="parenleft" unicode="(" horiz-adv-x="241" 
d="M242 -191l-50.001 -0.00292969c-47.333 78.667 -82.666 153.834 -105.999 225.501s-35 148.834 -35 231.501c0 163.333 47 317.666 141 462.999h50c-85.333 -137.333 -128 -299.333 -128 -486c0 -71.333 11.667 -146.166 35 -224.499s54.333 -148.166 93 -209.499z" />
    <glyph glyph-name="parenright" unicode=")" horiz-adv-x="241" 
d="M-1 729h50.001c47.333 -78.667 82.666 -153.834 105.999 -225.501s35 -148.834 35 -231.501c0 -163.333 -47 -317.666 -141 -462.999h-50c85.333 137.333 128 299.333 128 486c0 70.667 -11.667 144.334 -35 221.001s-54.333 147.667 -93 213z" />
    <glyph glyph-name="asterisk" unicode="*" horiz-adv-x="352" 
d="M142 556l-115 39l14 37l115 -41v123h39v-123l115 41l15 -37l-118 -39l72 -98l-32 -23l-73 100l-73 -100l-32 23z" />
    <glyph glyph-name="plus" unicode="+" horiz-adv-x="600" 
d="M274 278v225h53v-225h225v-53h-225v-225h-53v225h-225v53h225z" />
    <glyph glyph-name="comma" unicode="," horiz-adv-x="278" 
d="M97 106h83.998v-107c0 -31.333 -7.66699 -60 -23 -86s-37 -42.667 -65 -50v43c14.667 5.33301 26.334 18 35.001 38s12.334 38.667 11.001 56h-42v106z" />
    <glyph glyph-name="hyphen" unicode="-" horiz-adv-x="370" 
d="M310 246h-250v58h250v-58z" />
    <glyph glyph-name="period" unicode="." horiz-adv-x="278" 
d="M181 0h-84v106h84v-106z" />
    <glyph glyph-name="slash" unicode="/" horiz-adv-x="333" 
d="M41 -15h-54l308 744h51z" />
    <glyph glyph-name="zero" unicode="0" 
d="M278 706c39.333 0 73.833 -7.5 103.5 -22.5s53.167 -34 70.5 -57s31.5 -51 42.5 -84s18.333 -65 22 -96s5.5 -64.5 5.5 -100.5s-1.83301 -69.667 -5.5 -101s-11 -63.5 -22 -96.5s-25.167 -61 -42.5 -84s-40.833 -42 -70.5 -57s-64.167 -22.5 -103.5 -22.5
s-73.833 7.5 -103.5 22.5s-53.167 34 -70.5 57s-31.5 51 -42.5 84s-18.333 65 -22 96s-5.5 64.5 -5.5 100.5s1.83301 69.667 5.5 101s11 63.5 22 96.5s25.167 61 42.5 84s40.833 42 70.5 57s64.167 22.5 103.5 22.5zM278 653c-120.667 0 -181 -102.333 -181 -307
c0 -205.333 60.333 -308 181 -308s181 102.667 181 308c0 204.667 -60.333 307 -181 307z" />
    <glyph glyph-name="one" unicode="1" 
d="M97 520l0.00195312 45c27.333 0.666992 48 1.66699 62 3s30.167 4.33301 48.5 9s32.166 11.667 41.499 21s18.166 22.333 26.499 39s14.5 37.667 18.5 63h51v-700h-63v520h-185z" />
    <glyph glyph-name="two" unicode="2" 
d="M497 58l-0.000976562 -57.998h-461c0.666992 39.333 8.83398 75 24.501 107s36.667 59.667 63 83s53 44.166 80 62.499l90 61.5c33 22.667 59.5 44 79.5 64c38.667 38.667 58 82.667 58 132c0 44 -15.167 78.833 -45.5 104.5s-67.5 38.5 -111.5 38.5
c-54 0 -94.167 -18.5 -120.5 -55.5s-38.833 -83.5 -37.5 -139.5h-63c-1.33301 74.667 17.167 134.667 55.5 180s94.5 68 168.5 68c63.333 0 115.333 -17.167 156 -51.5s61 -82.833 61 -145.5c0 -53.333 -15.667 -99.333 -47 -138s-74.333 -75.667 -129 -111
c-4.66699 -3.33301 -19.5 -12.833 -44.5 -28.5s-43.667 -28 -56 -37s-27.833 -21.333 -46.5 -37s-33 -31.834 -43 -48.501s-16.667 -33.667 -20 -51h389z" />
    <glyph glyph-name="three" unicode="3" 
d="M33 223l63.001 0.00292969c-2.66699 -56 11.833 -100.833 43.5 -134.5s75.5 -50.5 131.5 -50.5c48.667 0 90.667 13.833 126 41.5s53 65.5 53 113.5s-15.667 84.667 -47 110s-71.666 38 -120.999 38h-53v53h53c36.667 0 69.5 10.833 98.5 32.5s43.5 53.167 43.5 94.5
c0 44 -14.333 77 -43 99s-65.334 33 -110.001 33c-51.333 0 -91 -16.333 -119 -49s-41.333 -75.334 -40 -128.001h-63c0 67.333 20.167 122.5 60.5 165.5s93.833 64.5 160.5 64.5c60 0 111.167 -15.167 153.5 -45.5s63.5 -74.5 63.5 -132.5
c0 -38.667 -10.333 -71.834 -31 -99.501s-49.667 -46.167 -87 -55.5v-2c45.333 -7.33301 80.666 -26.333 105.999 -57s38 -69.334 38 -116.001c0 -66 -23.167 -118 -69.5 -156s-103.5 -57 -171.5 -57c-74 0 -133.667 21.333 -179 64s-65.333 100.667 -60 174z" />
    <glyph glyph-name="four" unicode="4" 
d="M87 227h266v381h-2zM30 174v61l324 465h57v-473h105v-53h-105v-174h-58v174h-323z" />
    <glyph glyph-name="five" unicode="5" 
d="M36 200l63 -0.000976562c1.33301 -48 18.166 -87 50.499 -117s72.833 -45 121.5 -45c52.667 0 95 18.667 127 56s48 82.333 48 135c0 52 -16.833 95.333 -50.5 130s-76.5 52 -128.5 52c-67.333 0 -119.333 -27.667 -156 -83h-54l68 363h350v-58h-306l-45 -232l2 -2
c17.333 20 39.333 35.833 66 47.5s54 17.5 82 17.5c71.333 0 128.333 -22.5 171 -67.5s64 -103.167 64 -174.5c0 -67.333 -23.667 -123.666 -71 -168.999s-104.666 -68 -171.999 -68c-66 0 -120.5 19.5 -163.5 58.5s-65.167 91.167 -66.5 156.5z" />
    <glyph glyph-name="six" unicode="6" 
d="M505 523l-63 0.000976562c-5.33301 39.333 -21 70.833 -47 94.5s-59 35.5 -99 35.5c-38.667 0 -71.5 -10 -98.5 -30s-47 -46.833 -60 -80.5s-22 -66.667 -27 -99s-7.5 -66.833 -7.5 -103.5h2c16.667 34.667 41.834 62.667 75.501 84s70.5 32 110.5 32
c69.333 0 125.166 -21.833 167.499 -65.5s63.5 -99.834 63.5 -168.501s-22.167 -125.334 -66.5 -170.001s-101.166 -67 -170.499 -67c-86 0 -148.333 28.333 -187 85s-58 152.334 -58 287.001c0 22 1.16699 45 3.5 69s8.66602 53.667 18.999 89s23.833 66.333 40.5 93
s41.167 49.667 73.5 69s70.166 29 113.499 29c128.667 0 200.334 -61 215.001 -183zM290 403.001c-53.333 0 -95.668 -17.501 -127.001 -52.501s-47 -79.167 -47 -132.5s14.5 -96.666 43.5 -129.999s72.833 -50 131.5 -50c48.667 0 88.834 17.5 120.501 52.5
s47.5 77.5 47.5 127.5c0 52.667 -15.167 96.667 -45.5 132s-71.5 53 -123.5 53z" />
    <glyph glyph-name="seven" unicode="7" 
d="M51 633l-0.00195312 58.002h450v-58c-21.333 -22 -42 -45.167 -62 -69.5s-43.5 -57.333 -70.5 -99s-50.333 -84.334 -70 -128.001s-37.167 -95.167 -52.5 -154.5s-24.666 -120 -27.999 -182h-68c8 119.333 33.833 227.166 77.5 323.499s113.834 199.5 210.501 309.5h-387
z" />
    <glyph glyph-name="eight" unicode="8" 
d="M278 401c41.333 -1.33301 76.498 9.33203 105.498 31.999s43.5 55.334 43.5 98.001c0 38.667 -13.833 68.667 -41.5 90s-63.5 32 -107.5 32c-41.333 0 -76.666 -10.833 -105.999 -32.5s-44 -51.5 -44 -89.5c0 -44 14.833 -77 44.5 -99s64.834 -32.333 105.501 -31z
M489.998 530.998c0 -38 -9.99805 -70.502 -29.998 -97.502s-48 -45.833 -84 -56.5v-2c45.333 -9.33301 80.5 -29.666 105.5 -60.999s37.5 -70.666 37.5 -117.999c0 -67.333 -22.833 -119.333 -68.5 -156s-103.167 -55 -172.5 -55s-126.833 18.333 -172.5 55
s-68.5 88.667 -68.5 156c1.33301 46.667 14.666 86.167 39.999 118.5s59.333 52.5 102 60.5v2c-76 24 -114 75.333 -114 154c0 56 21 99.167 63 129.5s91.667 45.5 149 45.5s107.166 -15.167 149.499 -45.5s63.5 -73.5 63.5 -129.5zM278 37.9961
c52.667 0 95.5 13.334 128.5 40.001s49.5 66 49.5 118c0 48 -17.333 85.667 -52 113s-76.667 40.333 -126 39c-50.667 1.33301 -93 -11.334 -127 -38.001s-51 -64.667 -51 -114c0 -50.667 16.667 -89.667 50 -117s76 -41 128 -41z" />
    <glyph glyph-name="nine" unicode="9" 
d="M51 168l63 -0.000976562c5.33301 -39.333 21 -70.833 47 -94.5s59 -35.5 99 -35.5c38.667 0 71.5 10 98.5 30s47 46.833 60 80.5s22 66.667 27 99s7.5 66.833 7.5 103.5h-2c-16.667 -34.667 -41.834 -62.667 -75.501 -84s-70.5 -32 -110.5 -32
c-69.333 0 -125.166 21.833 -167.499 65.5s-63.5 99.834 -63.5 168.501s22.167 125.334 66.5 170.001s101.166 67 170.499 67c86 0 148.333 -28.333 187 -85s58 -152.334 58 -287.001c0 -22 -1.16699 -45 -3.5 -69s-8.66602 -53.667 -18.999 -89s-23.833 -66.333 -40.5 -93
s-41.167 -49.667 -73.5 -69s-70.166 -29 -113.499 -29c-128.667 0 -200.334 61 -215.001 183zM266 287.999c53.333 0 95.668 17.501 127.001 52.501s47 79.167 47 132.5s-14.5 96.666 -43.5 129.999s-72.833 50 -131.5 50c-48.667 0 -88.834 -17.5 -120.501 -52.5
s-47.5 -77.5 -47.5 -127.5c0 -52.667 15.167 -96.667 45.5 -132s71.5 -53 123.5 -53z" />
    <glyph glyph-name="colon" unicode=":" horiz-adv-x="278" 
d="M181 0h-84v106h84v-106zM181 394h-84v106h84v-106z" />
    <glyph glyph-name="semicolon" unicode=";" horiz-adv-x="278" 
d="M181 394h-84v106h84v-106zM97 106h83.998v-107c0 -31.333 -7.66699 -60 -23 -86s-37 -42.667 -65 -50v43c14.667 5.33301 26.334 18 35.001 38s12.334 38.667 11.001 56h-42v106z" />
    <glyph glyph-name="less" unicode="&#x3c;" horiz-adv-x="600" 
d="M554 47v-55l-508 234v54l508 234v-55l-446 -206z" />
    <glyph glyph-name="equal" unicode="=" horiz-adv-x="600" 
d="M552 181v-53h-503v53h503zM552 378v-53h-503v53h503z" />
    <glyph glyph-name="greater" unicode="&#x3e;" horiz-adv-x="600" 
d="M46 47l446 206l-446 206v55l508 -234v-54l-508 -234v55z" />
    <glyph glyph-name="question" unicode="?" horiz-adv-x="537" 
d="M231 0v106h84v-106h-84zM117 494l-62.998 0.000976562c0 71.333 20 128.333 60 171s95.667 64 167 64c57.333 0 105.5 -16.833 144.5 -50.5s58.5 -78.5 58.5 -134.5c0 -34.667 -7.33301 -64.834 -22 -90.501s-36.334 -52.167 -65.001 -79.5l-31 -30.5l-24.5 -24
c-2.33301 -2.33301 -7.33301 -8.5 -15 -18.5s-11.667 -17 -12 -21s-2 -11.833 -5 -23.5s-4.5 -22.667 -4.5 -33s-0.333008 -25.166 -1 -44.499h-63c-1.33301 56.667 5.66699 99 21 127s46.666 63.333 93.999 106c43.333 40.667 65 83.667 65 129
c0 39.333 -14 71.666 -42 96.999s-61.667 38 -101 38c-52.667 0 -93 -17 -121 -51s-41.333 -77.667 -40 -131z" />
    <glyph glyph-name="at" unicode="@" horiz-adv-x="800" 
d="M614 544l-95.9971 -288.002c-16.667 -55.333 -12.334 -83 12.999 -83c43.333 0 82.333 26.833 117 80.5s52 109.5 52 167.5c0 80 -27.333 143.833 -82 191.5s-122 71.5 -202 71.5c-92 0 -167.667 -31.833 -227 -95.5s-89 -142.167 -89 -235.5
c0 -90.667 30.333 -167.167 91 -229.5s136.334 -93.5 227.001 -93.5c49.333 0 97.5 12 144.5 36s84.833 56.333 113.5 97h51c-30 -54 -73.333 -97.167 -130 -129.5s-116.334 -48.5 -179.001 -48.5c-107.333 0 -196 35.833 -266 107.5s-105 160.834 -105 267.501
c0 104 35.5 191.5 106.5 262.5s157.833 106.5 260.5 106.5c97.333 0 178.166 -29 242.499 -87s96.5 -132.667 96.5 -224c0 -78 -24.167 -145.833 -72.5 -203.5s-101.5 -86.5 -159.5 -86.5c-18 0 -33.167 5.83301 -45.5 17.5s-19.5 28.167 -21.5 49.5h-2
c-42.667 -44 -85 -66 -127 -66c-40 0 -72 14 -96 42s-36 62.333 -36 103c0 46.667 9.66699 91.834 29 135.501s47.5 80.167 84.5 109.5s78.167 44 123.5 44c49.333 0 84.666 -28 105.999 -84l25 65h53zM426.003 509.998c-47.333 0 -87.5 -25.499 -120.5 -76.499
s-49.5 -102.5 -49.5 -154.5c0 -29.333 7.66699 -52.833 23 -70.5s35.333 -26.5 60 -26.5c42.667 0 81 27 115 81s51 105.333 51 154c0 23.333 -8.33301 44.666 -25 63.999s-34.667 29 -54 29z" />
    <glyph glyph-name="A" unicode="A" horiz-adv-x="630" 
d="M316 646l-143 -366h281zM-7 0l288 714h76l280 -714h-73l-87 222h-325l-86 -222h-73z" />
    <glyph glyph-name="B" unicode="B" horiz-adv-x="667" 
d="M140 656v-255h234c52 0 91.833 11.333 119.5 34s41.5 51.667 41.5 87c0 89.333 -53.667 134 -161 134h-234zM72 0l0.000976562 714.001h302c43.333 0 81.166 -5 113.499 -15s59.666 -28.667 81.999 -56s33.5 -62 33.5 -104c0 -38 -11.5 -72.167 -34.5 -102.5
s-52.833 -49.5 -89.5 -57.5v-2c46 -6 82.667 -24.833 110 -56.5s41 -70.834 41 -117.501c0 -16.667 -1.33301 -32.5 -4 -47.5s-9.16699 -32.5 -19.5 -52.5s-24.166 -37.167 -41.499 -51.5s-42.5 -26.5 -75.5 -36.5s-71.5 -15 -115.5 -15h-302zM140.001 343.001v-284.999h234
c125.333 0 188 49 188 147c0 45.333 -16.167 79.666 -48.5 102.999s-78.833 35 -139.5 35h-234z" />
    <glyph glyph-name="C" unicode="C" horiz-adv-x="704" 
d="M662 498l-68.001 -0.000976562c-12 54 -38.167 96.333 -78.5 127s-87.166 46 -140.499 46c-45.333 0 -85.666 -9 -120.999 -27s-63.5 -42 -84.5 -72s-36.833 -63.167 -47.5 -99.5s-16 -74.833 -16 -115.5s5.33301 -79.167 16 -115.5s26.5 -69.5 47.5 -99.5
s49.167 -54 84.5 -72s75.666 -27 120.999 -27c64 0 116.5 21.667 157.5 65s64.833 98 71.5 164h68c-9.33301 -88.667 -40.333 -158.667 -93 -210s-120.667 -77 -204 -77c-54.667 0 -103.834 10.167 -147.501 30.5s-79 47.833 -106 82.5s-47.667 74 -62 118
s-21.5 91 -21.5 141s7.16699 97 21.5 141s35 83.333 62 118s62.333 62.167 106 82.5s92.834 30.5 147.501 30.5c72 0 135.5 -20.667 190.5 -62s87.167 -97.666 96.5 -168.999z" />
    <glyph glyph-name="D" unicode="D" horiz-adv-x="685" 
d="M72 0v714h247c218.667 -5.33301 328 -124.333 328 -357s-109.333 -351.667 -328 -357h-247zM140 656v-598h145c103.333 0 178.166 23.333 224.499 70s69.5 123 69.5 229s-23.167 182.333 -69.5 229s-121.166 70 -224.499 70h-145z" />
    <glyph glyph-name="E" unicode="E" horiz-adv-x="593" 
d="M72 0v714h493v-58h-425v-258h398v-58h-398v-282h430v-58h-498z" />
    <glyph glyph-name="F" unicode="F" horiz-adv-x="537" 
d="M72 0v714h453v-58h-385v-258h342v-58h-342v-340h-68z" />
    <glyph glyph-name="G" unicode="G" horiz-adv-x="741" 
d="M682 363l0.00390625 -363h-49l-9 130h-2c-22.667 -48.667 -55.834 -85 -99.501 -109s-92.834 -36 -147.501 -36s-103.834 10.167 -147.501 30.5s-79 47.833 -106 82.5s-47.667 74 -62 118s-21.5 91 -21.5 141s7.16699 97 21.5 141s35 83.333 62 118
s62.333 62.167 106 82.5s92.834 30.5 147.501 30.5c77.333 0 143 -20.5 197 -61.5s87.667 -99.5 101 -175.5h-68c-4.66699 44.667 -28.334 85.667 -71.001 123s-95.667 56 -159 56c-45.333 0 -85.666 -9 -120.999 -27s-63.5 -42 -84.5 -72s-36.833 -63.167 -47.5 -99.5
s-16 -74.833 -16 -115.5s5.33301 -79.167 16 -115.5s26.5 -69.5 47.5 -99.5s49.167 -54 84.5 -72s75.666 -27 120.999 -27c77.333 0 138.166 24.333 182.499 73s65.833 111.667 64.5 189h-243v58h303z" />
    <glyph glyph-name="H" unicode="H" horiz-adv-x="704" 
d="M72 0v714h68v-310h424v310h68v-714h-68v346h-424v-346h-68z" />
    <glyph glyph-name="I" unicode="I" horiz-adv-x="222" 
d="M77 0v714h68v-714h-68z" />
    <glyph glyph-name="J" unicode="J" horiz-adv-x="500" 
d="M360 228l0.00292969 485.998h68v-515c0 -74 -15.833 -128.167 -47.5 -162.5s-85.167 -51.5 -160.5 -51.5c-132.667 0 -199 81.333 -199 244h68c0 -2 0.166992 -8.5 0.5 -19.5s0.666016 -18.833 0.999023 -23.5s1.16602 -12.667 2.49902 -24s3 -19.833 5 -25.5l8 -23
c3.33301 -9.66699 7.16602 -17.167 11.499 -22.5s10 -11.666 17 -18.999s14.833 -12.666 23.5 -15.999s18.667 -6.33301 30 -9s24 -4 38 -4c52 0 87.333 13.833 106 41.5s28 75.5 28 143.5z" />
    <glyph glyph-name="K" unicode="K" horiz-adv-x="648" 
d="M72 0v714h68v-384l415 384h92l-319 -295l334 -419h-88l-297 372l-137 -127v-245h-68z" />
    <glyph glyph-name="L" unicode="L" horiz-adv-x="537" 
d="M72 0v714h68v-656h400v-58h-468z" />
    <glyph glyph-name="M" unicode="M" horiz-adv-x="833" 
d="M70 0v714h100l247 -626l246 626h100v-714h-68v617h-2l-244 -617h-64l-245 617h-2v-617h-68z" />
    <glyph glyph-name="N" unicode="N" horiz-adv-x="704" 
d="M71 0v714h76l416 -604h2v604h68v-714h-76l-416 604h-2v-604h-68z" />
    <glyph glyph-name="O" unicode="O" horiz-adv-x="741" 
d="M102 357c0 -40.667 5.33301 -79.167 16 -115.5s26.5 -69.5 47.5 -99.5s49.167 -54 84.5 -72s75.666 -27 120.999 -27s85.666 9 120.999 27s63.333 42 84 72s36.334 63.167 47.001 99.5s16 74.833 16 115.5s-5.33301 79.167 -16 115.5s-26.334 69.5 -47.001 99.5
s-48.667 54 -84 72s-75.666 27 -120.999 27s-85.666 -9 -120.999 -27s-63.5 -42 -84.5 -72s-36.833 -63.167 -47.5 -99.5s-16 -74.833 -16 -115.5zM34 357c0 50 7.16699 97 21.5 141s35 83.333 62 118s62.333 62.167 106 82.5s92.834 30.5 147.501 30.5
c72 0 133.833 -17.667 185.5 -53s89.667 -80.5 114 -135.5s36.5 -116.167 36.5 -183.5s-12.167 -128.5 -36.5 -183.5s-62.333 -100.167 -114 -135.5s-113.5 -53 -185.5 -53c-54.667 0 -103.834 10.167 -147.501 30.5s-79 47.833 -106 82.5s-47.667 74 -62 118
s-21.5 91 -21.5 141z" />
    <glyph glyph-name="P" unicode="P" horiz-adv-x="630" 
d="M140 656v-292h234c49.333 0 88.166 12.333 116.499 37s42.5 61 42.5 109s-14.167 84.333 -42.5 109s-67.166 37 -116.499 37h-234zM72 0v714h317c64.667 0 116.167 -18 154.5 -54s57.5 -86 57.5 -150s-19.167 -114 -57.5 -150s-89.833 -54 -154.5 -54h-249v-306h-68z" />
    <glyph glyph-name="Q" unicode="Q" horiz-adv-x="741" 
d="M701 -4l-34 -42.001l-111 84c-49.333 -35.333 -111 -53 -185 -53c-54.667 0 -103.834 10.167 -147.501 30.5s-79 47.833 -106 82.5s-47.667 74 -62 118s-21.5 91 -21.5 141s7.16699 97 21.5 141s35 83.333 62 118s62.333 62.167 106 82.5s92.834 30.5 147.501 30.5
c72 0 133.833 -17.667 185.5 -53s89.667 -80.5 114 -135.5s36.5 -116.167 36.5 -183.5c0 -119.333 -36 -213.666 -108 -282.999zM444 191.999l104 -79c60.667 56.667 91 138 91 244c0 40.667 -5.33301 79.167 -16 115.5s-26.334 69.5 -47.001 99.5s-48.667 54 -84 72
s-75.666 27 -120.999 27s-85.666 -9 -120.999 -27s-63.5 -42 -84.5 -72s-36.833 -63.167 -47.5 -99.5s-16 -74.833 -16 -115.5s5.33301 -79.167 16 -115.5s26.5 -69.5 47.5 -99.5s49.167 -54 84.5 -72s75.666 -27 120.999 -27c50.667 0 94.667 11.667 132 35l-94 71z" />
    <glyph glyph-name="R" unicode="R" horiz-adv-x="667" 
d="M140 656v-281h254c43.333 0 79.833 12.667 109.5 38s44.5 59 44.5 101c0 44.667 -13 79.5 -39 104.5s-64.333 37.5 -115 37.5h-254zM72 0l0.00488281 714.002h327c62.667 0 114.5 -15.667 155.5 -47s61.5 -77.666 61.5 -138.999c0 -46.667 -12 -86.334 -36 -119.001
s-58.333 -53.667 -103 -63v-2c44 -6 75.167 -22.5 93.5 -49.5s28.833 -64.167 31.5 -111.5c0 -2 0.5 -13 1.5 -33s2 -34.667 3 -44s2.5 -22.333 4.5 -39s5 -30.334 9 -41.001s9 -19.334 15 -26.001h-75c-4 6 -7.16699 14.333 -9.5 25s-4 20.167 -5 28.5s-1.83301 19 -2.5 32
s-1.33398 21.5 -2.00098 25.5c-1.33301 25.333 -2.83301 45.833 -4.5 61.5s-5.33398 34 -11.001 55s-13.334 37.333 -23.001 49s-23.334 21.5 -41.001 29.5s-38.834 11.667 -63.501 11h-258v-317h-68z" />
    <glyph glyph-name="S" unicode="S" horiz-adv-x="630" 
d="M36 235l68 -0.000976562c-2.66699 -128 75 -192 233 -192c27.333 0 54.833 4.5 82.5 13.5s52.334 25.167 74.001 48.5s32.5 51 32.5 83c0 62.667 -49 105.667 -147 129l-159 39c-49.333 12.667 -88.5 31.667 -117.5 57s-43.5 63.666 -43.5 114.999
c0 20 3.66699 40.5 11 61.5s19.333 42.5 36 64.5s42.167 40 76.5 54s75.166 21 122.499 21c75.333 0 138.166 -19.333 188.499 -58s75.5 -93.334 75.5 -164.001h-68c-2.66699 52 -22.5 92.333 -59.5 121s-82.167 43 -135.5 43c-52 0 -94.833 -11.333 -128.5 -34
s-50.5 -58.667 -50.5 -108c0 -56.667 36 -93 108 -109l174 -43c58 -15.333 103.333 -37.166 136 -65.499s49 -69.166 49 -122.499c0 -13.333 -1.16699 -26.833 -3.5 -40.5s-9 -31 -20 -52s-25.5 -39.167 -43.5 -54.5s-44.833 -28.666 -80.5 -39.999s-77.5 -17 -125.5 -17
c-89.333 0 -160.166 20.833 -212.499 62.5s-76.5 104.167 -72.5 187.5z" />
    <glyph glyph-name="T" unicode="T" 
d="M-5 656v58h566v-58h-249v-656h-68v656h-249z" />
    <glyph glyph-name="U" unicode="U" horiz-adv-x="685" 
d="M65 257l-0.000976562 457h68v-442c0 -80 17.667 -138.167 53 -174.5s87.333 -54.5 156 -54.5s120.834 18.167 156.501 54.5s53.5 94.5 53.5 174.5v442h68v-457c0 -80 -22.833 -145.333 -68.5 -196s-115.5 -76 -209.5 -76c-93.333 0 -162.833 25.5 -208.5 76.5
s-68.5 116.167 -68.5 195.5z" />
    <glyph glyph-name="V" unicode="V" horiz-adv-x="593" 
d="M258 0l-265 714h73l232 -639h2l230 639h72l-265 -714h-79z" />
    <glyph glyph-name="W" unicode="W" horiz-adv-x="907" 
d="M198 0l-198 714h73l162 -625h2l174 625h85l175 -625h2l163 625h68l-197 -714h-72l-181 639h-2l-180 -639h-74z" />
    <glyph glyph-name="X" unicode="X" horiz-adv-x="574" 
d="M245 368l-242 346h80l202 -299l209 299h76l-244 -348l258 -366h-82l-217 315l-220 -315h-77z" />
    <glyph glyph-name="Y" unicode="Y" horiz-adv-x="611" 
d="M271 0v294l-281 420h81l235 -362l234 362h81l-282 -420v-294h-68z" />
    <glyph glyph-name="Z" unicode="Z" horiz-adv-x="574" 
d="M37 656v58h514v-60l-470 -596h480v-58h-556v60l470 596h-438z" />
    <glyph glyph-name="bracketleft" unicode="[" horiz-adv-x="241" 
d="M237 -191h-161v920h161v-53h-98v-814h98v-53z" />
    <glyph glyph-name="backslash" unicode="\" horiz-adv-x="333" 
d="M346 -15h-54l-305 744h51z" />
    <glyph glyph-name="bracketright" unicode="]" horiz-adv-x="241" 
d="M4 729h161v-920h-161v53h98v814h-98v53z" />
    <glyph glyph-name="asciicircum" unicode="^" horiz-adv-x="600" 
d="M102 238h-58l230 453h52l230 -453h-57l-200 390z" />
    <glyph glyph-name="underscore" unicode="_" horiz-adv-x="500" 
d="M500 -125h-500v50h500v-50z" />
    <glyph glyph-name="grave" unicode="`" horiz-adv-x="185" 
d="M101 588l-132 141h78l105 -141h-51z" />
    <glyph glyph-name="a" unicode="a" horiz-adv-x="519" 
d="M117 358l-62.999 0.00292969c3.33301 58.667 23.5 102.167 60.5 130.5s86.5 42.5 148.5 42.5c126.667 0 190 -55.333 190 -166v-274c0 -25.333 12.333 -38 37 -38c7.33301 0 14 1.33301 20 4v-53c-13.333 -2.66699 -27 -4 -41 -4c-29.333 0 -49 7.5 -59 22.5
s-15 37.5 -15 67.5h-2c-24.667 -36.667 -50.5 -63.334 -77.5 -80.001s-63.833 -25 -110.5 -25c-50.667 0 -92.167 12.667 -124.5 38s-48.5 63 -48.5 113c0 18.667 2.66699 35.5 8 50.5s11.5 27.667 18.5 38s18 19.666 33 27.999s27.833 14.666 38.5 18.999
s26.834 8.5 48.501 12.5s38.167 6.83301 49.5 8.5s29.666 3.83398 54.999 6.50098l26 3c29.333 2.66699 50.166 8.5 62.499 17.5s18.5 26.5 18.5 52.5c0 39.333 -12 66.833 -36 82.5s-57 23.5 -99 23.5c-41.333 0 -74.333 -9.83301 -99 -29.5s-37.667 -49.834 -39 -90.501z
M390.001 200.003v82.001h-2c-5.33301 -10 -23 -17.667 -53 -23c-11.333 -2 -29.333 -4.83301 -54 -8.5s-43.667 -6.66699 -57 -9s-29.5 -6.33301 -48.5 -12s-33.333 -11.834 -43 -18.501s-18.334 -16.167 -26.001 -28.5s-11.5 -26.5 -11.5 -42.5
c0 -30.667 11.333 -55.334 34 -74.001s49.667 -28 81 -28c50.667 0 93.334 14.833 128.001 44.5s52 68.834 52 117.501z" />
    <glyph glyph-name="b" unicode="b" horiz-adv-x="574" 
d="M60 0v714h63v-296h2c12.667 35.333 35.667 63 69 83s70 30 110 30c74.667 0 132 -26 172 -78s60 -117 60 -195s-20 -143 -60 -195s-97.333 -78 -172 -78c-42 0 -79.5 10 -112.5 30s-56.833 47.667 -71.5 83h-2v-98h-58zM473 258c0 38 -5.5 73 -16.5 105
s-29.667 59.167 -56 81.5s-58.5 33.5 -96.5 33.5c-61.333 0 -106.833 -21.5 -136.5 -64.5s-44.5 -94.833 -44.5 -155.5s14.833 -112.5 44.5 -155.5s75.167 -64.5 136.5 -64.5c38 0 70.167 11.167 96.5 33.5s45 49.5 56 81.5s16.5 67 16.5 105z" />
    <glyph glyph-name="c" unicode="c" horiz-adv-x="519" 
d="M487 354l-62.998 0.00195312c-18 82.667 -66.667 124 -146 124c-56.667 0 -101 -21.833 -133 -65.5s-48 -95.167 -48 -154.5s16 -110.833 48 -154.5s76.333 -65.5 133 -65.5c38.667 0 72.334 14 101.001 42s45 63 49 105h63
c-8.66699 -62.667 -31.834 -111.667 -69.501 -147s-85.5 -53 -143.5 -53c-76 0 -135.667 26.167 -179 78.5s-65 117.166 -65 194.499s21.667 142.166 65 194.499s103 78.5 179 78.5c57.333 0 104.666 -15 141.999 -45s59.666 -74 66.999 -132z" />
    <glyph glyph-name="d" unicode="d" horiz-adv-x="574" 
d="M514 714l-0.000976562 -714h-58v98h-2c-13.333 -33.333 -37.666 -60.5 -72.999 -81.5s-72.333 -31.5 -111 -31.5c-74.667 0 -132 26 -172 78s-60 117 -60 195s20 143 60 195s97.333 78 172 78c40 0 76.667 -10 110 -30s56.333 -47.667 69 -83h2v296h63zM100.999 258
c0 -38 5.5 -73 16.5 -105s29.667 -59.167 56 -81.5s58.5 -33.5 96.5 -33.5c61.333 0 106.833 21.5 136.5 64.5s44.5 94.833 44.5 155.5s-14.833 112.5 -44.5 155.5s-75.167 64.5 -136.5 64.5c-38 0 -70.167 -11.167 -96.5 -33.5s-45 -49.5 -56 -81.5s-16.5 -67 -16.5 -105z
" />
    <glyph glyph-name="e" unicode="e" horiz-adv-x="519" 
d="M97 294h334c-1.33301 50 -17 93.167 -47 129.5s-69 54.5 -117 54.5c-48.667 0 -87.667 -17.833 -117 -53.5s-47 -79.167 -53 -130.5zM494 241l-397.001 0.00292969c0 -52.667 14.5 -99.667 43.5 -141s71.167 -62 126.5 -62c86 0 140 44 162 132h63
c-28.667 -123.333 -103.667 -185 -225 -185c-77.333 0 -135.5 25.667 -174.5 77s-58.5 116.666 -58.5 195.999c0 48 7.66699 91.833 23 131.5s41.166 73.167 77.499 100.5s80.5 41 132.5 41c52.667 0 96.834 -14.333 132.501 -43s60.834 -64.334 75.501 -107.001
s21 -89.334 19 -140.001z" />
    <glyph glyph-name="f" unicode="f" horiz-adv-x="259" 
d="M259 516l-0.000976562 -53h-102v-463h-63v463h-88v53h88v47c0 49.333 9 86.833 27 112.5s50.667 38.5 98 38.5c17.333 0 35 -1.33301 53 -4v-54c-18.667 3.33301 -34 5 -46 5c-13.333 0 -24.5 -1.83301 -33.5 -5.5s-15.833 -8 -20.5 -13s-8.16699 -12.667 -10.5 -23
s-3.66602 -19 -3.99902 -26s-0.5 -17.833 -0.5 -32.5v-45h102z" />
    <glyph glyph-name="g" unicode="g" 
d="M496 516l-0.000976562 -474c0 -80.667 -18 -142.167 -54 -184.5s-94.333 -63.5 -175 -63.5c-56.667 0 -105.5 13.167 -146.5 39.5s-63.5 65.166 -67.5 116.499h63c6 -35.333 23 -61.333 51 -78s61.333 -25 100 -25c57.333 0 99.333 16.333 126 49s40 81.334 40 146.001
v70h-2c-14.667 -32.667 -36.5 -58.5 -65.5 -77.5s-61.833 -28.5 -98.5 -28.5c-78.667 0 -137.167 24.333 -175.5 73s-57.5 112.667 -57.5 192c0 74 20.833 135.833 62.5 185.5s98.5 74.5 170.5 74.5c36.667 0 69.834 -9.83301 99.501 -29.5s51.167 -44.5 64.5 -74.5h2v89h63
zM266.999 59c52 0 92.667 20.167 122 60.5s44 88.5 44 144.5c0 57.333 -13.833 107.333 -41.5 150s-69.167 64 -124.5 64c-56 0 -98.333 -20.833 -127 -62.5s-43 -92.167 -43 -151.5c0 -56.667 14.5 -105 43.5 -145s71.167 -60 126.5 -60z" />
    <glyph glyph-name="h" unicode="h" horiz-adv-x="537" 
d="M59 0v714h63v-287h2c12 30.667 33.333 55.667 64 75s64.334 29 101.001 29c69.333 0 118.166 -16.833 146.499 -50.5s42.5 -83.167 42.5 -148.5v-332h-63v322c0 104 -43.667 156 -131 156c-49.333 0 -88.333 -16.5 -117 -49.5s-43.667 -75.5 -45 -127.5v-301h-63z" />
    <glyph glyph-name="i" unicode="i" horiz-adv-x="185" 
d="M61 613v101h63v-101h-63zM61 0v516h63v-516h-63z" />
    <glyph glyph-name="j" unicode="j" horiz-adv-x="185" 
d="M61 613v101h63v-101h-63zM61 -63l-0.00292969 578.998h63v-564c0 -95.333 -36.667 -143 -110 -143c-5.33301 0 -12.666 0.333008 -21.999 1s-16.666 1 -21.999 1v52c14.667 -1.33301 26 -1.66602 34 -0.999023c22.667 0 37.834 6.33301 45.501 19
s11.5 31.334 11.5 56.001z" />
    <glyph glyph-name="k" unicode="k" horiz-adv-x="500" 
d="M60 0v714h63v-448l286 250h84l-220 -191l235 -325h-79l-204 281l-102 -85v-196h-63z" />
    <glyph glyph-name="l" unicode="l" horiz-adv-x="185" 
d="M61 0v714h63v-714h-63z" />
    <glyph glyph-name="m" unicode="m" horiz-adv-x="833" 
d="M60 0v516h58v-87h3c35.333 68 91.666 102 168.999 102c35.333 0 66.5 -8.66699 93.5 -26s45.167 -42.333 54.5 -75c14.667 32.667 36.834 57.667 66.501 75s62.167 26 97.5 26c114 0 171 -60.333 171 -181v-350h-63v347c0 44 -9.33301 76.833 -28 98.5s-50 32.5 -94 32.5
c-93.333 0 -140 -62 -140 -186v-292h-63v350c0 85.333 -36 128 -108 128c-51.333 0 -89.833 -17.333 -115.5 -52s-38.5 -80.667 -38.5 -138v-288h-63z" />
    <glyph glyph-name="n" unicode="n" horiz-adv-x="537" 
d="M59 0v516h63v-89h2c12 30.667 33.333 55.667 64 75s64.334 29 101.001 29c69.333 0 118.166 -16.833 146.499 -50.5s42.5 -83.167 42.5 -148.5v-332h-63v322c0 104 -43.667 156 -131 156c-49.333 0 -88.333 -16.5 -117 -49.5s-43.667 -75.5 -45 -127.5v-301h-63z" />
    <glyph glyph-name="o" unicode="o" 
d="M278 478c-56.667 0 -101 -21.833 -133 -65.5s-48 -95.167 -48 -154.5s16 -110.833 48 -154.5s76.333 -65.5 133 -65.5s101 21.833 133 65.5s48 95.167 48 154.5s-16 110.833 -48 154.5s-76.333 65.5 -133 65.5zM278 531c76 0 135.667 -26.167 179 -78.5
s65 -117.166 65 -194.499s-21.667 -142.166 -65 -194.499s-103 -78.5 -179 -78.5s-135.667 26.167 -179 78.5s-65 117.166 -65 194.499s21.667 142.166 65 194.499s103 78.5 179 78.5z" />
    <glyph glyph-name="p" unicode="p" horiz-adv-x="574" 
d="M60 -191v707h58v-98h2c14.667 35.333 38.5 63 71.5 83s70.5 30 112.5 30c74.667 0 132 -26 172 -78s60 -117 60 -195s-20 -143 -60 -195s-97.333 -78 -172 -78c-40 0 -76.667 9.83301 -110 29.5s-56.333 47.5 -69 83.5h-2v-289h-63zM473 258c0 38 -5.5 73 -16.5 105
s-29.667 59.167 -56 81.5s-58.5 33.5 -96.5 33.5c-120.667 0 -181 -73.333 -181 -220c0 -60.667 14.833 -112.5 44.5 -155.5s75.167 -64.5 136.5 -64.5c38 0 70.167 11.167 96.5 33.5s45 49.5 56 81.5s16.5 67 16.5 105z" />
    <glyph glyph-name="q" unicode="q" horiz-adv-x="574" 
d="M514 516l0.000976562 -707h-63v289h-2c-12.667 -36 -35.667 -63.833 -69 -83.5s-70 -29.5 -110 -29.5c-74.667 0 -132 26 -172 78s-60 117 -60 195s20 143 60 195s97.333 78 172 78c38.667 0 75.667 -10.5 111 -31.5s59.666 -48.167 72.999 -81.5h2v98h58zM101.001 258
c0 -38 5.5 -73 16.5 -105s29.667 -59.167 56 -81.5s58.5 -33.5 96.5 -33.5c61.333 0 106.833 21.5 136.5 64.5s44.5 94.833 44.5 155.5s-14.833 112.5 -44.5 155.5s-75.167 64.5 -136.5 64.5c-38 0 -70.167 -11.167 -96.5 -33.5s-45 -49.5 -56 -81.5s-16.5 -67 -16.5 -105z
" />
    <glyph glyph-name="r" unicode="r" horiz-adv-x="315" 
d="M60 0v516.001h58v-121h2c16 42.667 41 75.167 75 97.5s74 32.5 120 30.5v-63c-56 2.66699 -102 -13.833 -138 -49.5s-54 -80.834 -54 -135.501v-275h-63z" />
    <glyph glyph-name="s" unicode="s" horiz-adv-x="481" 
d="M432 365h-63.001c-1.33301 37.333 -14.666 65.5 -39.999 84.5s-57 28.5 -95 28.5c-32.667 0 -61.167 -7.16699 -85.5 -21.5s-36.5 -36.833 -36.5 -67.5c0 -40 35.667 -69 107 -87l84 -19c41.333 -6 76.166 -21 104.499 -45s42.5 -56.667 42.5 -98
c0 -51.333 -20.833 -90 -62.5 -116s-89.834 -39 -144.501 -39c-130.667 0 -201.334 60.667 -212.001 182h63c2.66699 -41.333 17.834 -73.166 45.501 -95.499s63.167 -33.5 106.5 -33.5c36 0 68.5 8.16699 97.5 24.5s43.5 40.833 43.5 73.5c0 27.333 -10 47.666 -30 60.999
s-47.667 24.333 -83 33l-81 18c-47.333 12 -83.166 28 -107.499 48s-36.5 50 -36.5 90c0 48.667 19.333 85 58 109s84 36 136 36c54 0 98.333 -14.167 133 -42.5s53.334 -69.5 56.001 -123.5z" />
    <glyph glyph-name="t" unicode="t" horiz-adv-x="296" 
d="M160 671l-0.000976562 -154.999h105v-53h-105v-348c0 -22.667 3.33301 -39.334 10 -50.001s20.334 -16.667 41.001 -18c18 0 36 1 54 3v-54c-6 0 -15.333 -0.333008 -28 -1s-22 -1 -28 -1c-42 0 -71.333 8.33301 -88 25s-24.667 47 -24 91v353h-90v53h90v155h63z" />
    <glyph glyph-name="u" unicode="u" horiz-adv-x="537" 
d="M478 516v-515.999h-58v93h-2c-16 -34 -40 -60.5 -72 -79.5s-67.333 -28.5 -106 -28.5c-120.667 0 -181 65.333 -181 196v335h63v-336c1.33301 -48 12.5 -83.667 33.5 -107s55.833 -35 104.5 -35c50.667 0 89.167 20.167 115.5 60.5s39.5 89.166 39.5 146.499v271h63z" />
    <glyph glyph-name="v" unicode="v" horiz-adv-x="463" 
d="M201 0l-199 516h70l162 -453h2l160 453h65l-193 -516h-67z" />
    <glyph glyph-name="w" unicode="w" horiz-adv-x="741" 
d="M174 0l-166 516h67l132 -442h2l126 442h71l126 -442h2l132 442h67l-166 -516h-69l-127 434h-2l-126 -434h-69z" />
    <glyph glyph-name="x" unicode="x" horiz-adv-x="481" 
d="M1 0l200 268l-185 248h79l147 -196l144 196h79l-186 -247l201 -269h-80l-162 217l-159 -217h-78z" />
    <glyph glyph-name="y" unicode="y" horiz-adv-x="463" 
d="M208 2l-205.998 514h67l170 -440l159 440h63l-224 -595c-19.333 -45.333 -37.333 -75.333 -54 -90s-44 -22 -82 -22c-25.333 1.33301 -41.333 3 -48 5v53c16.667 -3.33301 31 -5 43 -5c13.333 0 24.666 1.66699 33.999 5s17.5 9.5 24.5 18.5s12.167 16.833 15.5 23.5
s8.66602 18 15.999 34z" />
    <glyph glyph-name="z" unicode="z" horiz-adv-x="463" 
d="M432 471l-341 -418h355v-53h-431v51l337 412h-314v53h394v-45z" />
    <glyph glyph-name="braceleft" unicode="{" horiz-adv-x="333" 
d="M293 -191h-50c-28 0 -49.667 11.167 -65 33.5s-23 52.833 -23 91.5v148c0 106.667 -24 160 -72 160v53c48 0 72 53.333 72 160v149c0 38.667 7.66699 69.167 23 91.5s37 33.5 65 33.5h50v-53h-20c-18.667 0 -32.5 -9.83301 -41.5 -29.5s-13.5 -44.167 -13.5 -73.5v-141
c0 -25.333 -2.83301 -48.5 -8.5 -69.5s-13 -37.833 -22 -50.5s-16.5 -22 -22.5 -28s-11.667 -10.667 -17 -14v-2c5.33301 -3.33301 11 -8 17 -14s13.5 -15.333 22.5 -28s16.333 -29.5 22 -50.5s8.5 -44.167 8.5 -69.5v-141c0 -30 4.5 -54.667 13.5 -74s22.833 -29 41.5 -29
h20v-53z" />
    <glyph glyph-name="bar" unicode="|" horiz-adv-x="222" 
d="M85 -214v1000h53v-1000h-53z" />
    <glyph glyph-name="braceright" unicode="}" horiz-adv-x="333" 
d="M40 729h50c28 0 49.667 -11.167 65 -33.5s23 -52.833 23 -91.5v-148c0 -106.667 24 -160 72 -160v-53c-48 0 -72 -53.333 -72 -160v-149c0 -38.667 -7.66699 -69.167 -23 -91.5s-37 -33.5 -65 -33.5h-50v53h20c18.667 0 32.5 9.66699 41.5 29s13.5 44 13.5 74v141
c0 25.333 2.83301 48.5 8.5 69.5s13 37.833 22 50.5s16.5 22 22.5 28s11.667 10.667 17 14v2c-5.33301 3.33301 -11 8 -17 14s-13.5 15.333 -22.5 28s-16.333 29.5 -22 50.5s-8.5 44.167 -8.5 69.5v141c0 29.333 -4.5 53.833 -13.5 73.5s-22.833 29.5 -41.5 29.5h-20v53z
" />
    <glyph glyph-name="asciitilde" unicode="~" horiz-adv-x="600" 
d="M495 315l36.001 -36c-18 -27.333 -36.333 -48.5 -55 -63.5s-42 -22.5 -70 -22.5s-64.667 11 -110 33c-46.667 21.333 -82.334 32 -107.001 32c-34.667 0 -62.667 -23 -84 -69l-36 36c28 57.333 69.667 86 125 86c27.333 0 65.666 -10.667 114.999 -32
c50.667 -22 83.334 -33 98.001 -33c18 0 33.5 6 46.5 18s26.833 29 41.5 51z" />
    <glyph glyph-name="uni00A0" unicode="&#xa0;" horiz-adv-x="278" 
 />
    <glyph glyph-name="exclamdown" unicode="&#xa1;" horiz-adv-x="241" 
d="M79 516h84v-106h-84v106zM140 338l15 -323v-206h-68v206l15 323h38z" />
    <glyph glyph-name="cent" unicode="&#xa2;" 
d="M507 354h-63c-17.333 80 -62.333 121.333 -135 124v-440c36 1.33301 67.167 16 93.5 44s41.5 62.333 45.5 103h63c-8 -60 -30 -107.833 -66 -143.5s-81.333 -54.5 -136 -56.5v-101h-39v102c-67.333 6 -120.166 34.833 -158.499 86.5s-57.5 113.5 -57.5 185.5
c0 72.667 19.167 134.5 57.5 185.5s91.166 79.5 158.499 85.5v89h39v-87c54 -1.33301 99 -17.333 135 -48s57 -73.667 63 -129zM270 39v436.999c-48.667 -7.33301 -86.334 -32 -113.001 -74s-40 -90 -40 -144s13.333 -102.167 40 -144.5s64.334 -67.166 113.001 -74.499z
" />
    <glyph glyph-name="sterling" unicode="&#xa3;" 
d="M46 330l0.00195312 31.9971h63c-36.667 58 -55 111.667 -55 161c0 67.333 22.167 118.5 66.5 153.5s98.166 52.5 161.499 52.5c74 0 131.5 -21 172.5 -63s60.833 -100 59.5 -174h-63c0 56 -14.5 100.667 -43.5 134s-70.833 50 -125.5 50
c-45.333 0 -84.166 -13.5 -116.499 -40.5s-48.5 -65.833 -48.5 -116.5c0 -20.667 2.83301 -39.167 8.5 -55.5s14.167 -34.166 25.5 -53.499s19.666 -35.333 24.999 -48h160v-32h-142c16 -25.333 24 -57.666 24 -96.999c0 -65.333 -36.667 -126 -110 -182l2 -2
c38.667 20 71 30 97 30c35.333 0 69.333 -6.66699 102 -20c35.333 -14 64 -21 86 -21c42.667 0 81 18.667 115 56l32 -48c-46 -40.667 -94.667 -61 -146 -61c-29.333 0 -64.5 6.83301 -105.5 20.5s-74.833 20.5 -101.5 20.5c-8 0 -15.833 -0.5 -23.5 -1.5
s-13.834 -2.16699 -18.501 -3.5s-10.5 -3.66602 -17.5 -6.99902s-12 -5.83301 -15 -7.5s-8.83301 -5.16699 -17.5 -10.5l-18 -11l-36 54c34.667 29.333 62 58.5 82 87.5s30 61.833 30 98.5c0 38.667 -9.33301 73.667 -28 105h-81z" />
    <glyph glyph-name="currency" unicode="&#xa4;" 
d="M94 346c0 -53.333 18 -98.333 54 -135s79.667 -55 131 -55s95 18.333 131 55s54 81.667 54 135s-18 98.333 -54 135s-79.667 55 -131 55s-95 -18.333 -131 -55s-54 -81.667 -54 -135zM29 136l57 57c-36.667 45.333 -55 96.333 -55 153c0 58.667 18 110 54 154l-56 56
l38 38l56 -56c44 37.333 96 56 156 56c56.667 0 107.667 -18.333 153 -55l55 55l38 -38l-54 -54c37.333 -46 56 -98 56 -156s-18.667 -110 -56 -156l54 -54l-38 -38l-55 55c-42.667 -36.667 -93.667 -55 -153 -55c-58 0 -110 18.667 -156 56l-56 -56z" />
    <glyph glyph-name="yen" unicode="&#xa5;" 
d="M110 304v45h106l-210 365h72l199 -365l201 365h69l-211 -365h109v-45h-131l-6 -10v-73h137v-45h-137v-176h-63v176h-135v45h135v73l-6 10h-129z" />
    <glyph glyph-name="brokenbar" unicode="&#xa6;" horiz-adv-x="222" 
d="M85 411v250h53v-250h-53zM85 -89v250h53v-250h-53z" />
    <glyph glyph-name="section" unicode="&#xa7;" 
d="M511 231c0 -32 -10.167 -60.167 -30.5 -84.5s-46.5 -42.833 -78.5 -55.5c33.333 -29.333 50 -65.666 50 -108.999c0 -44 -16.833 -78.833 -50.5 -104.5s-73.167 -38.5 -118.5 -38.5c-57.333 0 -102.5 15.333 -135.5 46s-49.5 74.334 -49.5 131.001h63
c-1.33301 -34.667 9 -64 31 -88s50.333 -36 85 -36c31.333 0 57.833 7.5 79.5 22.5s32.5 37.167 32.5 66.5c0 27.333 -11.833 52.333 -35.5 75s-52.334 42.5 -86.001 59.5l-101 53.5c-33.667 18.667 -62.334 42.334 -86.001 71.001s-35.5 61 -35.5 97
c0 32 10.167 60.167 30.5 84.5s46.5 42.833 78.5 55.5c-33.333 29.333 -50 65.666 -50 108.999c0 44 16.833 78.833 50.5 104.5s73.167 38.5 118.5 38.5c57.333 0 102.5 -15.333 135.5 -46s49.5 -74.334 49.5 -131.001h-63c1.33301 34.667 -9 64 -31 88s-50.333 36 -85 36
c-31.333 0 -57.833 -7.5 -79.5 -22.5s-32.5 -37.167 -32.5 -66.5c0 -27.333 11.833 -52.333 35.5 -75s52.334 -42.5 86.001 -59.5l101 -53.5c33.667 -18.667 62.334 -42.334 86.001 -71.001s35.5 -61 35.5 -97zM448 230c0 24.667 -10.002 48.332 -30.002 70.999
s-41.833 40.834 -65.5 54.501l-88 48.5c-35 18.667 -59.833 33 -74.5 43c-54.667 -22.667 -82 -58.667 -82 -108c0 -23.333 9.83301 -46.333 29.5 -69s41.334 -41 65.001 -55l87.5 -49.5c34.667 -19 59.334 -33.5 74.001 -43.5c56 23.333 84 59.333 84 108z" />
    <glyph glyph-name="dieresis" unicode="&#xa8;" horiz-adv-x="185" 
d="M38 610h-68v101h68v-101zM215 610h-68v101h68v-101z" />
    <glyph glyph-name="copyright" unicode="&#xa9;" horiz-adv-x="800" 
d="M594 435l-51 -0.00195312c-6 30.667 -20.833 55.834 -44.5 75.501s-53.167 29.834 -88.5 30.501c-52 0 -92.5 -17.167 -121.5 -51.5s-43.5 -78.5 -43.5 -132.5s14.5 -98.167 43.5 -132.5s69.5 -51.5 121.5 -51.5c35.333 0 64.833 9.83301 88.5 29.5
s38.5 45.167 44.5 76.5h51c-6 -47.333 -26.167 -84.333 -60.5 -111s-75.833 -40 -124.5 -40c-66.667 0 -119.5 21.333 -158.5 64s-58.5 97.667 -58.5 165s19.5 122.333 58.5 165s91.833 64 158.5 64c48.667 0 90.167 -13.333 124.5 -40s54.5 -63.667 60.5 -111zM714 356.998
c0 89.333 -30 164.833 -90 226.5s-134.667 92.5 -224 92.5c-90 0 -164.833 -30.667 -224.5 -92s-89.5 -137 -89.5 -227s29.833 -165.667 89.5 -227s134.5 -92 224.5 -92c89.333 0 164 30.833 224 92.5s90 137.167 90 226.5zM772 356.998
c0 -104.667 -35.667 -192.834 -107 -264.501s-159.666 -107.5 -264.999 -107.5s-193.666 35.833 -264.999 107.5s-107 159.834 -107 264.501s35.667 192.834 107 264.501s159.666 107.5 264.999 107.5s193.666 -35.833 264.999 -107.5s107 -159.834 107 -264.501z" />
    <glyph glyph-name="ordfeminine" unicode="&#xaa;" horiz-adv-x="311" 
d="M54 597l-47.001 -0.000976562c4 72.667 50.667 109 140 109c85.333 0 128 -33.333 128 -100v-172c1.33301 -15.333 9.66602 -23 24.999 -23c4.66699 0 9 1 13 3v-34c-14 -2 -23 -3 -27 -3c-19.333 0 -32.166 4.33301 -38.499 13s-9.5 23 -9.5 43h-2
c-27.333 -43.333 -68.333 -65 -123 -65c-36 0 -64.667 7.83301 -86 23.5s-32 39.834 -32 72.501c0 17.333 3.5 32.166 10.5 44.499s14.833 21.833 23.5 28.5s22 12.334 40 17.001s32.5 7.66699 43.5 9s28.167 3 51.5 5c4.66699 0.666992 8.33398 1 11.001 1
c19.333 2 33 5 41 9s12 11.333 12 22c0 44.667 -29.333 67 -88 67c-24.667 0 -45 -6 -61 -18s-24.333 -29.333 -25 -52zM227.999 501.999l0.000976562 47h-2c-0.666992 -2 -2.5 -3.83301 -5.5 -5.5s-5.83301 -2.83398 -8.5 -3.50098s-6.33398 -1.5 -11.001 -2.5
s-7.66699 -1.83301 -9 -2.5l-33.5 -5c-13.667 -2 -24.334 -3.66699 -32.001 -5s-16.667 -3.16602 -27 -5.49902s-18.333 -4.83301 -24 -7.5s-11.5 -6 -17.5 -10s-10.167 -9 -12.5 -15s-3.5 -13 -3.5 -21c0 -16.667 7.33301 -30.667 22 -42s30.334 -17 47.001 -17
c32 0 59.5 8.66699 82.5 26s34.5 40.333 34.5 69z" />
    <glyph glyph-name="guillemotleft" unicode="&#xab;" horiz-adv-x="426" 
d="M193 119l-133 125v62l133 125v-67l-94 -89l94 -89v-67zM354 119l-133 125v62l133 125v-67l-94 -89l94 -89v-67z" />
    <glyph glyph-name="logicalnot" unicode="&#xac;" horiz-adv-x="600" 
d="M499 111v214h-450v53h503v-267h-53z" />
    <glyph glyph-name="uni00AD" unicode="&#xad;" horiz-adv-x="370" 
d="M310 246h-250v58h250v-58z" />
    <glyph glyph-name="registered" unicode="&#xae;" horiz-adv-x="800" 
d="M318 378h70c16.667 0 29.667 0.166992 39 0.5s20.5 1.83301 33.5 4.5s23 6.66699 30 12s13.167 12.833 18.5 22.5s8 21.5 8 35.5c0 49.333 -34 74 -102 74h-97v-149zM318 333v-191h-53v430h165c93.333 0 140 -39.667 140 -119c0 -66.667 -36 -106.667 -108 -120l128 -191
h-62l-121 191h-89zM400 676c-90 0 -164.833 -30.667 -224.5 -92s-89.5 -137 -89.5 -227s29.833 -165.667 89.5 -227s134.5 -92 224.5 -92c89.333 0 164 30.833 224 92.5s90 137.167 90 226.5s-30 164.833 -90 226.5s-134.667 92.5 -224 92.5zM400 729
c105.333 0 193.666 -35.833 264.999 -107.5s107 -159.834 107 -264.501s-35.667 -192.834 -107 -264.501s-159.666 -107.5 -264.999 -107.5s-193.666 35.833 -264.999 107.5s-107 159.834 -107 264.501s35.667 192.834 107 264.501s159.666 107.5 264.999 107.5z" />
    <glyph glyph-name="macron" unicode="&#xaf;" horiz-adv-x="185" 
d="M257 638h-329v45h329v-45z" />
    <glyph glyph-name="degree" unicode="&#xb0;" horiz-adv-x="400" 
d="M95 562c0 -29.333 10.167 -54.166 30.5 -74.499s45.166 -30.5 74.499 -30.5s54.166 10.167 74.499 30.5s30.5 45.166 30.5 74.499s-10.167 54.166 -30.5 74.499s-45.166 30.5 -74.499 30.5s-54.166 -10.167 -74.499 -30.5s-30.5 -45.166 -30.5 -74.499zM56 562
c0 40 14.002 73.998 42.002 101.998s62 42 102 42c39.333 0 73.166 -14.167 101.499 -42.5s42.5 -62.166 42.5 -101.499c0 -40 -14 -74 -42 -102s-62 -42 -102 -42c-40.667 0 -74.834 13.833 -102.501 41.5s-41.5 61.834 -41.5 102.501z" />
    <glyph glyph-name="plusminus" unicode="&#xb1;" horiz-adv-x="600" 
d="M49 0v53h503v-53h-503zM274 323v180h53v-180h225v-53h-225v-180h-53v180h-224v53h224z" />
    <glyph glyph-name="twosuperior" unicode="&#xb2;" horiz-adv-x="333" 
d="M71 553l-47 0.000976562c-1.33301 47.333 10.667 84.666 36 111.999s63.333 41 114 41c44 0 79.333 -10.667 106 -32s40 -52.333 40 -93c0 -32 -10.167 -59.5 -30.5 -82.5s-48.5 -45.167 -84.5 -66.5c-5.33301 -3.33301 -17.333 -10.333 -36 -21
s-33.167 -19.5 -43.5 -26.5s-21.333 -17.167 -33 -30.5s-19.5 -27 -23.5 -41h248v-39h-302c0.666992 30 9.16699 57 25.5 81s34.666 42.5 54.999 55.5l73.5 46.5c28.667 18 50.334 34 65.001 48c26 24.667 39 51.334 39 80.001c0 25.333 -10 45.333 -30 60
s-44.333 22 -73 22c-34 0 -59 -10.833 -75 -32.5s-24 -48.834 -24 -81.501z" />
    <glyph glyph-name="threesuperior" unicode="&#xb3;" horiz-adv-x="333" 
d="M135 478l-0.00195312 38.998h35c24 0 45.5 6.33301 64.5 19s28.5 31 28.5 55c0 24.667 -9.33301 43.5 -28 56.5s-42 19.5 -70 19.5c-32 0 -56.833 -9.5 -74.5 -28.5s-26.167 -43.833 -25.5 -74.5h-47c0.666992 42.667 13.834 77 39.501 103s61.5 39 107.5 39
c40.667 0 75 -9.5 103 -28.5s42 -46.5 42 -82.5c0 -23.333 -6.66699 -43.333 -20 -60s-32.333 -27.667 -57 -33v-2c30 -4 53.167 -15.167 69.5 -33.5s24.5 -41.5 24.5 -69.5c0 -41.333 -15.333 -73.666 -46 -96.999s-69 -35 -115 -35c-50.667 0 -90.5 12.833 -119.5 38.5
s-41.833 61.834 -38.5 108.501h47c-1.33301 -32 7.83398 -58 27.501 -78s47.167 -30 82.5 -30c30.667 0 57.5 8.16699 80.5 24.5s34.5 38.166 34.5 65.499c0 26.667 -10.333 47.334 -31 62.001s-47 22 -79 22h-35z" />
    <glyph glyph-name="acute" unicode="&#xb4;" horiz-adv-x="185" 
d="M216 731l-132 -141h-51l105 141h78z" />
    <glyph glyph-name="mu" unicode="&#xb5;" horiz-adv-x="537" 
d="M478 516v-515.999h-58v93h-2c-16 -34 -40 -60.5 -72 -79.5s-67.333 -28.5 -106 -28.5c-46.667 0 -85.667 11.667 -117 35v-211h-64v707h63v-336c1.33301 -48 12.5 -83.667 33.5 -107s55.833 -35 104.5 -35c50.667 0 89.167 20.167 115.5 60.5s39.5 89.166 39.5 146.499
v271h63z" />
    <glyph glyph-name="paragraph" unicode="&#xb6;" horiz-adv-x="600" 
d="M273 -177v505c-58 0 -107 18.5 -147 55.5s-60 81.833 -60 134.5c0 63.333 19.5 111.833 58.5 145.5s93.833 50.5 164.5 50.5h230v-891h-63v838h-120v-838h-63z" />
    <glyph glyph-name="periodcentered" unicode="&#xb7;" horiz-adv-x="278" 
d="M139 375c16 0 29.833 -6 41.5 -18s17.5 -26 17.5 -42c0 -15.333 -6 -28.833 -18 -40.5s-25.667 -17.5 -41 -17.5c-16 0 -29.833 6 -41.5 18s-17.5 26 -17.5 42c0 15.333 6 28.833 18 40.5s25.667 17.5 41 17.5z" />
    <glyph glyph-name="cedilla" unicode="&#xb8;" horiz-adv-x="185" 
d="M91 0h34.998l-44 -54c14.667 3.33301 31.334 4.33301 50.001 3c44 -7.33301 66 -29.333 66 -66c0 -28 -11.167 -49.333 -33.5 -64s-47.833 -22 -76.5 -22c-35.333 0 -66.666 7 -93.999 21l14 32c22.667 -9.33301 49 -14 79 -14c35.333 0 53 14.333 53 43
c0 11.333 -4.16699 20.5 -12.5 27.5s-18.5 10.5 -30.5 10.5c-22 0 -39 -2.66699 -51 -8l-16 15z" />
    <glyph glyph-name="onesuperior" unicode="&#xb9;" horiz-adv-x="333" 
d="M35 584l0.000976562 39c22.667 0.666992 39.167 1.66699 49.5 3s22 4.33301 35 9s22.667 12 29 22s11.166 23.333 14.499 40h40v-423h-47v310h-121z" />
    <glyph glyph-name="ordmasculine" unicode="&#xba;" horiz-adv-x="334" 
d="M167 407c36.667 0 65.334 13 86.001 39s31 56.333 31 91s-10.333 65 -31 91s-49.334 39 -86.001 39s-65.334 -13 -86.001 -39s-31 -56.333 -31 -91s10.333 -65 31 -91s49.334 -39 86.001 -39zM162 368c-50 0 -89 16 -117 48s-42 72.333 -42 121s14 89 42 121
s67 48 117 48c54 0 95.667 -15.833 125 -47.5s44 -72.167 44 -121.5s-14.667 -89.833 -44 -121.5s-71 -47.5 -125 -47.5z" />
    <glyph glyph-name="guillemotright" unicode="&#xbb;" horiz-adv-x="426" 
d="M72 119v67l94 89l-94 89v67l133 -125v-62zM233 119v67l94 89l-94 89v67l133 -125v-62z" />
    <glyph glyph-name="onequarter" unicode="&#xbc;" horiz-adv-x="834" 
d="M640 355l-162 -216h164v216h-2zM642 0v100h-210v39l213 284h44v-284h68v-39h-68v-100h-47zM48 584l0.000976562 39c22.667 0.666992 39.167 1.66699 49.5 3s22 4.33301 35 9s22.667 12 29 22s11.166 23.333 14.499 40h40v-423h-47v310h-121zM133.001 -34l453 759h47
l-452 -759h-48z" />
    <glyph glyph-name="onehalf" unicode="&#xbd;" horiz-adv-x="834" 
d="M536 279l-47 0.000976562c-1.33301 47.333 10.667 84.666 36 111.999s63.333 41 114 41c44 0 79.333 -10.667 106 -32s40 -52.333 40 -93c0 -32 -10.167 -59.5 -30.5 -82.5s-48.5 -45.167 -84.5 -66.5c-5.33301 -3.33301 -17.333 -10.333 -36 -21
s-33.167 -19.5 -43.5 -26.5s-21.333 -17.167 -33 -30.5s-19.5 -27 -23.5 -41h248v-39h-302c0.666992 30 9.16699 57 25.5 81s34.666 42.5 54.999 55.5l73.5 46.5c28.667 18 50.334 34 65.001 48c26 24.667 39 51.334 39 80.001c0 25.333 -10 45.333 -30 60
s-44.333 22 -73 22c-34 0 -59 -10.833 -75 -32.5s-24 -48.834 -24 -81.501zM48 584.001l0.000976562 39c22.667 0.666992 39.167 1.66699 49.5 3s22 4.33301 35 9s22.667 12 29 22s11.166 23.333 14.499 40h40v-423h-47v310h-121zM133.001 -33.999l453 759h47l-452 -759h-48
z" />
    <glyph glyph-name="threequarters" unicode="&#xbe;" horiz-adv-x="834" 
d="M640 355l-162 -216h164v216h-2zM642 0v100h-210v39l213 284h44v-284h68v-39h-68v-100h-47zM173 -34l453 759h47l-452 -759h-48zM135 478l-0.00195312 38.998h35c24 0 45.5 6.33301 64.5 19s28.5 31 28.5 55c0 24.667 -9.33301 43.5 -28 56.5s-42 19.5 -70 19.5
c-32 0 -56.833 -9.5 -74.5 -28.5s-26.167 -43.833 -25.5 -74.5h-47c0.666992 42.667 13.834 77 39.501 103s61.5 39 107.5 39c40.667 0 75 -9.5 103 -28.5s42 -46.5 42 -82.5c0 -23.333 -6.66699 -43.333 -20 -60s-32.333 -27.667 -57 -33v-2
c30 -4 53.167 -15.167 69.5 -33.5s24.5 -41.5 24.5 -69.5c0 -41.333 -15.333 -73.666 -46 -96.999s-69 -35 -115 -35c-50.667 0 -90.5 12.833 -119.5 38.5s-41.833 61.834 -38.5 108.501h47c-1.33301 -32 7.83398 -58 27.501 -78s47.167 -30 82.5 -30
c30.667 0 57.5 8.16699 80.5 24.5s34.5 38.166 34.5 65.499c0 26.667 -10.333 47.334 -31 62.001s-47 22 -79 22h-35z" />
    <glyph glyph-name="questiondown" unicode="&#xbf;" horiz-adv-x="537" 
d="M307 516v-106h-84v106h84zM421 29l62.999 -0.000976562c0 -72 -20 -129.167 -60 -171.5s-95.667 -63.5 -167 -63.5c-57.333 0 -105.5 16.833 -144.5 50.5s-58.5 78.5 -58.5 134.5c0 34.667 7.33301 64.834 22 90.501s36.334 52.167 65.001 79.5l31 30.5l24.5 24
c2.33301 2.33301 7.33301 8.5 15 18.5s11.667 17 12 21s2 11.833 5 23.5s4.5 22.667 4.5 33s0.333008 25.166 1 44.499h63c0.666992 -30.667 -0.5 -56.167 -3.5 -76.5s-10.5 -39.833 -22.5 -58.5s-23.333 -33.667 -34 -45s-29 -29 -55 -53
c-43.333 -40.667 -65 -83.667 -65 -129c0 -39.333 14 -71.666 42 -96.999s61.667 -38 101 -38c52.667 0 93 17 121 51s41.333 77.667 40 131z" />
    <glyph glyph-name="Agrave" unicode="&#xc0;" horiz-adv-x="630" 
d="M316 646l-143 -366h281zM-7 0l288 714h76l280 -714h-73l-87 222h-325l-86 -222h-73zM307 778l-132 141h78l105 -141h-51z" />
    <glyph glyph-name="Aacute" unicode="&#xc1;" horiz-adv-x="630" 
d="M316 646l-143 -366h281zM-7 0l288 714h76l280 -714h-73l-87 222h-325l-86 -222h-73zM464 921l-132 -141h-51l105 141h78z" />
    <glyph glyph-name="Acircumflex" unicode="&#xc2;" horiz-adv-x="630" 
d="M316 646l-143 -366h281zM-7 0l288 714h76l280 -714h-73l-87 222h-325l-86 -222h-73zM351 920l114 -141h-65l-86 102l-88 -102h-58l114 141h69z" />
    <glyph glyph-name="Atilde" unicode="&#xc3;" horiz-adv-x="630" 
d="M316 646l-143 -366h281zM-7 0l288 714h76l280 -714h-73l-87 222h-325l-86 -222h-73zM436 900l38.001 0.000976562c-4.66699 -26 -14.167 -48.333 -28.5 -67s-33.833 -28 -58.5 -28c-19.333 0 -44.333 7.66699 -75 23s-51.667 23 -63 23c-25.333 0 -42 -17 -50 -51h-39
c2.66699 25.333 12 47.666 28 66.999s36.333 29 61 29c20.667 0 45.667 -7.33301 75 -22s49.333 -22 60 -22c25.333 0 42.666 16 51.999 48z" />
    <glyph glyph-name="Adieresis" unicode="&#xc4;" horiz-adv-x="630" 
d="M316 646l-143 -366h281zM-7 0l288 714h76l280 -714h-73l-87 222h-325l-86 -222h-73zM262 800h-68v101h68v-101zM439 800h-68v101h68v-101z" />
    <glyph glyph-name="Aring" unicode="&#xc5;" horiz-adv-x="630" 
d="M316 646l-143 -366h281zM-7 0l288 714h76l280 -714h-73l-87 222h-325l-86 -222h-73zM250 860c0 -19.333 6.5 -35.5 19.5 -48.5s29.167 -19.5 48.5 -19.5s35.5 6.5 48.5 19.5s19.5 29.167 19.5 48.5s-6.5 35.5 -19.5 48.5s-29.167 19.5 -48.5 19.5s-35.5 -6.5 -48.5 -19.5
s-19.5 -29.167 -19.5 -48.5zM211 860c0 29.333 10.5 54.5 31.5 75.5s46.167 31.5 75.5 31.5s54.5 -10.5 75.5 -31.5s31.5 -46.167 31.5 -75.5s-10.5 -54.5 -31.5 -75.5s-46.167 -31.5 -75.5 -31.5s-54.5 10.5 -75.5 31.5s-31.5 46.167 -31.5 75.5z" />
    <glyph glyph-name="AE" unicode="&#xc6;" horiz-adv-x="907" 
d="M216 284h229v372h-40zM513 340v-282h371v-58h-439v226h-259l-116 -226h-77l374 714h513v-58h-367v-258h344v-58h-344z" />
    <glyph glyph-name="Ccedilla" unicode="&#xc7;" horiz-adv-x="704" 
d="M662 498l-68.0039 -0.000976562c-12 54 -38.167 96.333 -78.5 127s-87.166 46 -140.499 46c-45.333 0 -85.666 -9 -120.999 -27s-63.5 -42 -84.5 -72s-36.833 -63.167 -47.5 -99.5s-16 -74.833 -16 -115.5s5.33301 -79.167 16 -115.5s26.5 -69.5 47.5 -99.5
s49.167 -54 84.5 -72s75.666 -27 120.999 -27c64 0 116.5 21.667 157.5 65s64.833 98 71.5 164h68c-9.33301 -88.667 -40.333 -158.667 -93 -210s-120.667 -77 -204 -77h-1l-32 -39c14.667 3.33301 31.334 4.33301 50.001 3c44 -7.33301 66 -29.333 66 -66
c0 -28 -11.167 -49.333 -33.5 -64s-47.833 -22 -76.5 -22c-35.333 0 -66.666 7 -93.999 21l14 32c22.667 -9.33301 49 -14 79 -14c35.333 0 53 14.333 53 43c0 11.333 -4.16699 20.5 -12.5 27.5s-18.5 10.5 -30.5 10.5c-22 0 -39 -2.66699 -51 -8l-16 15l50 63
c-40.667 2.66699 -78.334 12 -113.001 28c-61.333 30 -108.166 75.5 -140.499 136.5s-48.5 129.5 -48.5 205.5c0 50 7.16699 97 21.5 141s35 83.333 62 118s62.333 62.167 106 82.5s92.834 30.5 147.501 30.5c72 0 135.5 -20.667 190.5 -62s87.167 -97.666 96.5 -168.999z
" />
    <glyph glyph-name="Egrave" unicode="&#xc8;" horiz-adv-x="593" 
d="M72 0v714h493v-58h-425v-258h398v-58h-398v-282h430v-58h-498zM316 778l-132 141h78l105 -141h-51z" />
    <glyph glyph-name="Eacute" unicode="&#xc9;" horiz-adv-x="593" 
d="M72 0v714h493v-58h-425v-258h398v-58h-398v-282h430v-58h-498zM463 921l-132 -141h-51l105 141h78z" />
    <glyph glyph-name="Ecircumflex" unicode="&#xca;" horiz-adv-x="593" 
d="M72 0v714h493v-58h-425v-258h398v-58h-398v-282h430v-58h-498zM355 920l114 -141h-65l-86 102l-88 -102h-58l114 141h69z" />
    <glyph glyph-name="Edieresis" unicode="&#xcb;" horiz-adv-x="593" 
d="M72 0v714h493v-58h-425v-258h398v-58h-398v-282h430v-58h-498zM263 800h-68v101h68v-101zM440 800h-68v101h68v-101z" />
    <glyph glyph-name="Igrave" unicode="&#xcc;" horiz-adv-x="222" 
d="M77 0v714h68v-714h-68zM94 778l-132 141h78l105 -141h-51z" />
    <glyph glyph-name="Iacute" unicode="&#xcd;" horiz-adv-x="222" 
d="M77 0v714h68v-714h-68zM260 921l-132 -141h-51l105 141h78z" />
    <glyph glyph-name="Icircumflex" unicode="&#xce;" horiz-adv-x="222" 
d="M77 0v714h68v-714h-68zM146 920l114 -141h-65l-86 102l-88 -102h-58l114 141h69z" />
    <glyph glyph-name="Idieresis" unicode="&#xcf;" horiz-adv-x="222" 
d="M77 0v714h68v-714h-68zM57 800h-68v101h68v-101zM234 800h-68v101h68v-101z" />
    <glyph glyph-name="Eth" unicode="&#xd0;" horiz-adv-x="685" 
d="M72 393v321h247c218.667 -5.33301 328 -124.333 328 -357s-109.333 -351.667 -328 -357h-247v348h-72v45h72zM140 656v-263h236v-45h-236v-290h145c103.333 0 178.166 23.333 224.499 70s69.5 123 69.5 229s-23.167 182.333 -69.5 229s-121.166 70 -224.499 70h-145z" />
    <glyph glyph-name="Ntilde" unicode="&#xd1;" horiz-adv-x="704" 
d="M71 0v714h76l416 -604h2v604h68v-714h-76l-416 604h-2v-604h-68zM478 900l38.001 0.000976562c-4.66699 -26 -14.167 -48.333 -28.5 -67s-33.833 -28 -58.5 -28c-19.333 0 -44.333 7.66699 -75 23s-51.667 23 -63 23c-25.333 0 -42 -17 -50 -51h-39
c2.66699 25.333 12 47.666 28 66.999s36.333 29 61 29c20.667 0 45.667 -7.33301 75 -22s49.333 -22 60 -22c25.333 0 42.666 16 51.999 48z" />
    <glyph glyph-name="Ograve" unicode="&#xd2;" horiz-adv-x="741" 
d="M102 357c0 -40.667 5.33301 -79.167 16 -115.5s26.5 -69.5 47.5 -99.5s49.167 -54 84.5 -72s75.666 -27 120.999 -27s85.666 9 120.999 27s63.333 42 84 72s36.334 63.167 47.001 99.5s16 74.833 16 115.5s-5.33301 79.167 -16 115.5s-26.334 69.5 -47.001 99.5
s-48.667 54 -84 72s-75.666 27 -120.999 27s-85.666 -9 -120.999 -27s-63.5 -42 -84.5 -72s-36.833 -63.167 -47.5 -99.5s-16 -74.833 -16 -115.5zM34 357c0 50 7.16699 97 21.5 141s35 83.333 62 118s62.333 62.167 106 82.5s92.834 30.5 147.501 30.5
c72 0 133.833 -17.667 185.5 -53s89.667 -80.5 114 -135.5s36.5 -116.167 36.5 -183.5s-12.167 -128.5 -36.5 -183.5s-62.333 -100.167 -114 -135.5s-113.5 -53 -185.5 -53c-54.667 0 -103.834 10.167 -147.501 30.5s-79 47.833 -106 82.5s-47.667 74 -62 118
s-21.5 91 -21.5 141zM371 778l-132 141h78l105 -141h-51z" />
    <glyph glyph-name="Oacute" unicode="&#xd3;" horiz-adv-x="741" 
d="M102 357c0 -40.667 5.33301 -79.167 16 -115.5s26.5 -69.5 47.5 -99.5s49.167 -54 84.5 -72s75.666 -27 120.999 -27s85.666 9 120.999 27s63.333 42 84 72s36.334 63.167 47.001 99.5s16 74.833 16 115.5s-5.33301 79.167 -16 115.5s-26.334 69.5 -47.001 99.5
s-48.667 54 -84 72s-75.666 27 -120.999 27s-85.666 -9 -120.999 -27s-63.5 -42 -84.5 -72s-36.833 -63.167 -47.5 -99.5s-16 -74.833 -16 -115.5zM34 357c0 50 7.16699 97 21.5 141s35 83.333 62 118s62.333 62.167 106 82.5s92.834 30.5 147.501 30.5
c72 0 133.833 -17.667 185.5 -53s89.667 -80.5 114 -135.5s36.5 -116.167 36.5 -183.5s-12.167 -128.5 -36.5 -183.5s-62.333 -100.167 -114 -135.5s-113.5 -53 -185.5 -53c-54.667 0 -103.834 10.167 -147.501 30.5s-79 47.833 -106 82.5s-47.667 74 -62 118
s-21.5 91 -21.5 141zM528 921l-132 -141h-51l105 141h78z" />
    <glyph glyph-name="Ocircumflex" unicode="&#xd4;" horiz-adv-x="741" 
d="M102 357c0 -40.667 5.33301 -79.167 16 -115.5s26.5 -69.5 47.5 -99.5s49.167 -54 84.5 -72s75.666 -27 120.999 -27s85.666 9 120.999 27s63.333 42 84 72s36.334 63.167 47.001 99.5s16 74.833 16 115.5s-5.33301 79.167 -16 115.5s-26.334 69.5 -47.001 99.5
s-48.667 54 -84 72s-75.666 27 -120.999 27s-85.666 -9 -120.999 -27s-63.5 -42 -84.5 -72s-36.833 -63.167 -47.5 -99.5s-16 -74.833 -16 -115.5zM34 357c0 50 7.16699 97 21.5 141s35 83.333 62 118s62.333 62.167 106 82.5s92.834 30.5 147.501 30.5
c72 0 133.833 -17.667 185.5 -53s89.667 -80.5 114 -135.5s36.5 -116.167 36.5 -183.5s-12.167 -128.5 -36.5 -183.5s-62.333 -100.167 -114 -135.5s-113.5 -53 -185.5 -53c-54.667 0 -103.834 10.167 -147.501 30.5s-79 47.833 -106 82.5s-47.667 74 -62 118
s-21.5 91 -21.5 141zM407 920l114 -141h-65l-86 102l-88 -102h-58l114 141h69z" />
    <glyph glyph-name="Otilde" unicode="&#xd5;" horiz-adv-x="741" 
d="M102 357c0 -40.667 5.33301 -79.167 16 -115.5s26.5 -69.5 47.5 -99.5s49.167 -54 84.5 -72s75.666 -27 120.999 -27s85.666 9 120.999 27s63.333 42 84 72s36.334 63.167 47.001 99.5s16 74.833 16 115.5s-5.33301 79.167 -16 115.5s-26.334 69.5 -47.001 99.5
s-48.667 54 -84 72s-75.666 27 -120.999 27s-85.666 -9 -120.999 -27s-63.5 -42 -84.5 -72s-36.833 -63.167 -47.5 -99.5s-16 -74.833 -16 -115.5zM34 357c0 50 7.16699 97 21.5 141s35 83.333 62 118s62.333 62.167 106 82.5s92.834 30.5 147.501 30.5
c72 0 133.833 -17.667 185.5 -53s89.667 -80.5 114 -135.5s36.5 -116.167 36.5 -183.5s-12.167 -128.5 -36.5 -183.5s-62.333 -100.167 -114 -135.5s-113.5 -53 -185.5 -53c-54.667 0 -103.834 10.167 -147.501 30.5s-79 47.833 -106 82.5s-47.667 74 -62 118
s-21.5 91 -21.5 141zM491 900l38.001 0.000976562c-4.66699 -26 -14.167 -48.333 -28.5 -67s-33.833 -28 -58.5 -28c-20 0 -45 7.66699 -75 23s-51 23 -63 23c-25.333 0 -42 -17 -50 -51h-39c2.66699 25.333 12 47.666 28 66.999s36.333 29 61 29
c20.667 0 45.667 -7.33301 75 -22s49.333 -22 60 -22c25.333 0 42.666 16 51.999 48z" />
    <glyph glyph-name="Odieresis" unicode="&#xd6;" horiz-adv-x="741" 
d="M102 357c0 -40.667 5.33301 -79.167 16 -115.5s26.5 -69.5 47.5 -99.5s49.167 -54 84.5 -72s75.666 -27 120.999 -27s85.666 9 120.999 27s63.333 42 84 72s36.334 63.167 47.001 99.5s16 74.833 16 115.5s-5.33301 79.167 -16 115.5s-26.334 69.5 -47.001 99.5
s-48.667 54 -84 72s-75.666 27 -120.999 27s-85.666 -9 -120.999 -27s-63.5 -42 -84.5 -72s-36.833 -63.167 -47.5 -99.5s-16 -74.833 -16 -115.5zM34 357c0 50 7.16699 97 21.5 141s35 83.333 62 118s62.333 62.167 106 82.5s92.834 30.5 147.501 30.5
c72 0 133.833 -17.667 185.5 -53s89.667 -80.5 114 -135.5s36.5 -116.167 36.5 -183.5s-12.167 -128.5 -36.5 -183.5s-62.333 -100.167 -114 -135.5s-113.5 -53 -185.5 -53c-54.667 0 -103.834 10.167 -147.501 30.5s-79 47.833 -106 82.5s-47.667 74 -62 118
s-21.5 91 -21.5 141zM314 800h-68v101h68v-101zM491 800h-68v101h68v-101z" />
    <glyph glyph-name="multiply" unicode="&#xd7;" horiz-adv-x="600" 
d="M262 251l-188 189l37 37l189 -189l189 189l37 -37l-189 -189l189 -189l-37 -37l-189 188l-189 -188l-37 37z" />
    <glyph glyph-name="Oslash" unicode="&#xd8;" horiz-adv-x="741" 
d="M672 719l25.999 -22.999l-73 -81c54.667 -66.667 82 -152.667 82 -258c0 -67.333 -12.167 -128.5 -36.5 -183.5s-62.333 -100.167 -114 -135.5s-113.5 -53 -185.5 -53c-94.667 0 -171.667 29.667 -231 89l-76 -86l-27 25l79 88c-54.667 67.333 -82 152.666 -82 255.999
c0 50 7.16699 97 21.5 141s35 83.333 62 118s62.333 62.167 106 82.5s92.834 30.5 147.501 30.5c93.333 0 170 -29.333 230 -88zM159.999 150.001l397.998 443c-47.333 52 -109.666 78 -186.999 78c-45.333 0 -85.666 -9 -120.999 -27s-63.5 -42 -84.5 -72
s-36.833 -63.167 -47.5 -99.5s-16 -74.833 -16 -115.5c0 -82.667 19.333 -151.667 58 -207zM579.997 565.001l-397 -443c47.333 -52.667 110 -79 188 -79c45.333 0 85.666 9 120.999 27s63.333 42 84 72s36.334 63.167 47.001 99.5s16 74.833 16 115.5
c0 84 -19.667 153.333 -59 208z" />
    <glyph glyph-name="Ugrave" unicode="&#xd9;" horiz-adv-x="685" 
d="M65 257l-0.000976562 457h68v-442c0 -80 17.667 -138.167 53 -174.5s87.333 -54.5 156 -54.5s120.834 18.167 156.501 54.5s53.5 94.5 53.5 174.5v442h68v-457c0 -80 -22.833 -145.333 -68.5 -196s-115.5 -76 -209.5 -76c-93.333 0 -162.833 25.5 -208.5 76.5
s-68.5 116.167 -68.5 195.5zM345.999 778l-132 141h78l105 -141h-51z" />
    <glyph glyph-name="Uacute" unicode="&#xda;" horiz-adv-x="685" 
d="M65 257l-0.000976562 457h68v-442c0 -80 17.667 -138.167 53 -174.5s87.333 -54.5 156 -54.5s120.834 18.167 156.501 54.5s53.5 94.5 53.5 174.5v442h68v-457c0 -80 -22.833 -145.333 -68.5 -196s-115.5 -76 -209.5 -76c-93.333 0 -162.833 25.5 -208.5 76.5
s-68.5 116.167 -68.5 195.5zM496.999 921l-132 -141h-51l105 141h78z" />
    <glyph glyph-name="Ucircumflex" unicode="&#xdb;" horiz-adv-x="685" 
d="M65 257l-0.000976562 457h68v-442c0 -80 17.667 -138.167 53 -174.5s87.333 -54.5 156 -54.5s120.834 18.167 156.501 54.5s53.5 94.5 53.5 174.5v442h68v-457c0 -80 -22.833 -145.333 -68.5 -196s-115.5 -76 -209.5 -76c-93.333 0 -162.833 25.5 -208.5 76.5
s-68.5 116.167 -68.5 195.5zM376.999 920l114 -141h-65l-86 102l-88 -102h-58l114 141h69z" />
    <glyph glyph-name="Udieresis" unicode="&#xdc;" horiz-adv-x="685" 
d="M65 257l-0.000976562 457h68v-442c0 -80 17.667 -138.167 53 -174.5s87.333 -54.5 156 -54.5s120.834 18.167 156.501 54.5s53.5 94.5 53.5 174.5v442h68v-457c0 -80 -22.833 -145.333 -68.5 -196s-115.5 -76 -209.5 -76c-93.333 0 -162.833 25.5 -208.5 76.5
s-68.5 116.167 -68.5 195.5zM287.999 800h-68v101h68v-101zM464.999 800h-68v101h68v-101z" />
    <glyph glyph-name="Yacute" unicode="&#xdd;" horiz-adv-x="611" 
d="M271 0v294l-281 420h81l235 -362l234 362h81l-282 -420v-294h-68zM461 921l-132 -141h-51l105 141h78z" />
    <glyph glyph-name="Thorn" unicode="&#xde;" horiz-adv-x="630" 
d="M140 539v-292h234c49.333 0 88.166 12.333 116.499 37s42.5 61 42.5 109s-14.167 84.333 -42.5 109s-67.166 37 -116.499 37h-234zM72 0v714h68v-117h249c64.667 0 116.167 -18 154.5 -54s57.5 -86 57.5 -150s-19.167 -114 -57.5 -150s-89.833 -54 -154.5 -54h-249v-189
h-68z" />
    <glyph glyph-name="germandbls" unicode="&#xdf;" horiz-adv-x="537" 
d="M61 0l0.00195312 535.002c0 64 17.833 112.333 53.5 145s84.167 49 145.5 49c56 0 102.667 -15.667 140 -47s56 -74.333 56 -129c0 -36.667 -10 -68.834 -30 -96.501s-47.667 -45.5 -83 -53.5v-2c46.667 -4 83.167 -23.833 109.5 -59.5s39.5 -77.5 39.5 -125.5
c0 -70.667 -20.5 -125.334 -61.5 -164.001s-94.5 -58.667 -160.5 -60h-25c-4.66699 0 -13 0.666992 -25 2v55c14 -2.66699 29.667 -4 47 -4c45.333 0 83.666 13.167 114.999 39.5s47 66.5 47 120.5c0 34 -4.83301 62 -14.5 84s-24.5 38.667 -44.5 50s-41.5 19 -64.5 23
s-51.5 6 -85.5 6v53c115.333 0 173 43.333 173 130c0 36.667 -12.833 66.667 -38.5 90s-56.834 35 -93.501 35c-48.667 0 -83.667 -12 -105 -36s-32 -60.667 -32 -110v-530h-63z" />
    <glyph glyph-name="agrave" unicode="&#xe0;" horiz-adv-x="519" 
d="M117 358l-62.999 0.00292969c3.33301 58.667 23.5 102.167 60.5 130.5s86.5 42.5 148.5 42.5c126.667 0 190 -55.333 190 -166v-274c0 -25.333 12.333 -38 37 -38c7.33301 0 14 1.33301 20 4v-53c-13.333 -2.66699 -27 -4 -41 -4c-29.333 0 -49 7.5 -59 22.5
s-15 37.5 -15 67.5h-2c-24.667 -36.667 -50.5 -63.334 -77.5 -80.001s-63.833 -25 -110.5 -25c-50.667 0 -92.167 12.667 -124.5 38s-48.5 63 -48.5 113c0 18.667 2.66699 35.5 8 50.5s11.5 27.667 18.5 38s18 19.666 33 27.999s27.833 14.666 38.5 18.999
s26.834 8.5 48.501 12.5s38.167 6.83301 49.5 8.5s29.666 3.83398 54.999 6.50098l26 3c29.333 2.66699 50.166 8.5 62.499 17.5s18.5 26.5 18.5 52.5c0 39.333 -12 66.833 -36 82.5s-57 23.5 -99 23.5c-41.333 0 -74.333 -9.83301 -99 -29.5s-37.667 -49.834 -39 -90.501z
M390.001 200.003v82.001h-2c-5.33301 -10 -23 -17.667 -53 -23c-11.333 -2 -29.333 -4.83301 -54 -8.5s-43.667 -6.66699 -57 -9s-29.5 -6.33301 -48.5 -12s-33.333 -11.834 -43 -18.501s-18.334 -16.167 -26.001 -28.5s-11.5 -26.5 -11.5 -42.5
c0 -30.667 11.333 -55.334 34 -74.001s49.667 -28 81 -28c50.667 0 93.334 14.833 128.001 44.5s52 68.834 52 117.501zM258.001 588.004l-132 141h78l105 -141h-51z" />
    <glyph glyph-name="aacute" unicode="&#xe1;" horiz-adv-x="519" 
d="M117 358l-62.999 0.00292969c3.33301 58.667 23.5 102.167 60.5 130.5s86.5 42.5 148.5 42.5c126.667 0 190 -55.333 190 -166v-274c0 -25.333 12.333 -38 37 -38c7.33301 0 14 1.33301 20 4v-53c-13.333 -2.66699 -27 -4 -41 -4c-29.333 0 -49 7.5 -59 22.5
s-15 37.5 -15 67.5h-2c-24.667 -36.667 -50.5 -63.334 -77.5 -80.001s-63.833 -25 -110.5 -25c-50.667 0 -92.167 12.667 -124.5 38s-48.5 63 -48.5 113c0 18.667 2.66699 35.5 8 50.5s11.5 27.667 18.5 38s18 19.666 33 27.999s27.833 14.666 38.5 18.999
s26.834 8.5 48.501 12.5s38.167 6.83301 49.5 8.5s29.666 3.83398 54.999 6.50098l26 3c29.333 2.66699 50.166 8.5 62.499 17.5s18.5 26.5 18.5 52.5c0 39.333 -12 66.833 -36 82.5s-57 23.5 -99 23.5c-41.333 0 -74.333 -9.83301 -99 -29.5s-37.667 -49.834 -39 -90.501z
M390.001 200.003v82.001h-2c-5.33301 -10 -23 -17.667 -53 -23c-11.333 -2 -29.333 -4.83301 -54 -8.5s-43.667 -6.66699 -57 -9s-29.5 -6.33301 -48.5 -12s-33.333 -11.834 -43 -18.501s-18.334 -16.167 -26.001 -28.5s-11.5 -26.5 -11.5 -42.5
c0 -30.667 11.333 -55.334 34 -74.001s49.667 -28 81 -28c50.667 0 93.334 14.833 128.001 44.5s52 68.834 52 117.501zM410.001 731.004l-132 -141h-51l105 141h78z" />
    <glyph glyph-name="acircumflex" unicode="&#xe2;" horiz-adv-x="519" 
d="M117 358l-62.999 0.00292969c3.33301 58.667 23.5 102.167 60.5 130.5s86.5 42.5 148.5 42.5c126.667 0 190 -55.333 190 -166v-274c0 -25.333 12.333 -38 37 -38c7.33301 0 14 1.33301 20 4v-53c-13.333 -2.66699 -27 -4 -41 -4c-29.333 0 -49 7.5 -59 22.5
s-15 37.5 -15 67.5h-2c-24.667 -36.667 -50.5 -63.334 -77.5 -80.001s-63.833 -25 -110.5 -25c-50.667 0 -92.167 12.667 -124.5 38s-48.5 63 -48.5 113c0 18.667 2.66699 35.5 8 50.5s11.5 27.667 18.5 38s18 19.666 33 27.999s27.833 14.666 38.5 18.999
s26.834 8.5 48.501 12.5s38.167 6.83301 49.5 8.5s29.666 3.83398 54.999 6.50098l26 3c29.333 2.66699 50.166 8.5 62.499 17.5s18.5 26.5 18.5 52.5c0 39.333 -12 66.833 -36 82.5s-57 23.5 -99 23.5c-41.333 0 -74.333 -9.83301 -99 -29.5s-37.667 -49.834 -39 -90.501z
M390.001 200.003v82.001h-2c-5.33301 -10 -23 -17.667 -53 -23c-11.333 -2 -29.333 -4.83301 -54 -8.5s-43.667 -6.66699 -57 -9s-29.5 -6.33301 -48.5 -12s-33.333 -11.834 -43 -18.501s-18.334 -16.167 -26.001 -28.5s-11.5 -26.5 -11.5 -42.5
c0 -30.667 11.333 -55.334 34 -74.001s49.667 -28 81 -28c50.667 0 93.334 14.833 128.001 44.5s52 68.834 52 117.501zM294.001 730.004l114 -141h-65l-86 102l-88 -102h-58l114 141h69z" />
    <glyph glyph-name="atilde" unicode="&#xe3;" horiz-adv-x="519" 
d="M117 358l-62.999 0.00292969c3.33301 58.667 23.5 102.167 60.5 130.5s86.5 42.5 148.5 42.5c126.667 0 190 -55.333 190 -166v-274c0 -25.333 12.333 -38 37 -38c7.33301 0 14 1.33301 20 4v-53c-13.333 -2.66699 -27 -4 -41 -4c-29.333 0 -49 7.5 -59 22.5
s-15 37.5 -15 67.5h-2c-24.667 -36.667 -50.5 -63.334 -77.5 -80.001s-63.833 -25 -110.5 -25c-50.667 0 -92.167 12.667 -124.5 38s-48.5 63 -48.5 113c0 18.667 2.66699 35.5 8 50.5s11.5 27.667 18.5 38s18 19.666 33 27.999s27.833 14.666 38.5 18.999
s26.834 8.5 48.501 12.5s38.167 6.83301 49.5 8.5s29.666 3.83398 54.999 6.50098l26 3c29.333 2.66699 50.166 8.5 62.499 17.5s18.5 26.5 18.5 52.5c0 39.333 -12 66.833 -36 82.5s-57 23.5 -99 23.5c-41.333 0 -74.333 -9.83301 -99 -29.5s-37.667 -49.834 -39 -90.501z
M390.001 200.003v82.001h-2c-5.33301 -10 -23 -17.667 -53 -23c-11.333 -2 -29.333 -4.83301 -54 -8.5s-43.667 -6.66699 -57 -9s-29.5 -6.33301 -48.5 -12s-33.333 -11.834 -43 -18.501s-18.334 -16.167 -26.001 -28.5s-11.5 -26.5 -11.5 -42.5
c0 -30.667 11.333 -55.334 34 -74.001s49.667 -28 81 -28c50.667 0 93.334 14.833 128.001 44.5s52 68.834 52 117.501zM377.001 710.004l38.001 0.000976562c-4.66699 -26 -14.167 -48.333 -28.5 -67s-33.833 -28 -58.5 -28c-20 0 -45 7.66699 -75 23s-51 23 -63 23
c-25.333 0 -42 -17 -50 -51h-39c2.66699 25.333 12 47.666 28 66.999s36.333 29 61 29c20.667 0 45.667 -7.33301 75 -22s49.333 -22 60 -22c25.333 0 42.666 16 51.999 48z" />
    <glyph glyph-name="adieresis" unicode="&#xe4;" horiz-adv-x="519" 
d="M117 358l-62.999 0.00292969c3.33301 58.667 23.5 102.167 60.5 130.5s86.5 42.5 148.5 42.5c126.667 0 190 -55.333 190 -166v-274c0 -25.333 12.333 -38 37 -38c7.33301 0 14 1.33301 20 4v-53c-13.333 -2.66699 -27 -4 -41 -4c-29.333 0 -49 7.5 -59 22.5
s-15 37.5 -15 67.5h-2c-24.667 -36.667 -50.5 -63.334 -77.5 -80.001s-63.833 -25 -110.5 -25c-50.667 0 -92.167 12.667 -124.5 38s-48.5 63 -48.5 113c0 18.667 2.66699 35.5 8 50.5s11.5 27.667 18.5 38s18 19.666 33 27.999s27.833 14.666 38.5 18.999
s26.834 8.5 48.501 12.5s38.167 6.83301 49.5 8.5s29.666 3.83398 54.999 6.50098l26 3c29.333 2.66699 50.166 8.5 62.499 17.5s18.5 26.5 18.5 52.5c0 39.333 -12 66.833 -36 82.5s-57 23.5 -99 23.5c-41.333 0 -74.333 -9.83301 -99 -29.5s-37.667 -49.834 -39 -90.501z
M390.001 200.003v82.001h-2c-5.33301 -10 -23 -17.667 -53 -23c-11.333 -2 -29.333 -4.83301 -54 -8.5s-43.667 -6.66699 -57 -9s-29.5 -6.33301 -48.5 -12s-33.333 -11.834 -43 -18.501s-18.334 -16.167 -26.001 -28.5s-11.5 -26.5 -11.5 -42.5
c0 -30.667 11.333 -55.334 34 -74.001s49.667 -28 81 -28c50.667 0 93.334 14.833 128.001 44.5s52 68.834 52 117.501zM204.001 610.004h-68v101h68v-101zM381.001 610.004h-68v101h68v-101z" />
    <glyph glyph-name="aring" unicode="&#xe5;" horiz-adv-x="519" 
d="M117 358l-62.999 0.00292969c3.33301 58.667 23.5 102.167 60.5 130.5s86.5 42.5 148.5 42.5c126.667 0 190 -55.333 190 -166v-274c0 -25.333 12.333 -38 37 -38c7.33301 0 14 1.33301 20 4v-53c-13.333 -2.66699 -27 -4 -41 -4c-29.333 0 -49 7.5 -59 22.5
s-15 37.5 -15 67.5h-2c-24.667 -36.667 -50.5 -63.334 -77.5 -80.001s-63.833 -25 -110.5 -25c-50.667 0 -92.167 12.667 -124.5 38s-48.5 63 -48.5 113c0 18.667 2.66699 35.5 8 50.5s11.5 27.667 18.5 38s18 19.666 33 27.999s27.833 14.666 38.5 18.999
s26.834 8.5 48.501 12.5s38.167 6.83301 49.5 8.5s29.666 3.83398 54.999 6.50098l26 3c29.333 2.66699 50.166 8.5 62.499 17.5s18.5 26.5 18.5 52.5c0 39.333 -12 66.833 -36 82.5s-57 23.5 -99 23.5c-41.333 0 -74.333 -9.83301 -99 -29.5s-37.667 -49.834 -39 -90.501z
M390.001 200.003v82.001h-2c-5.33301 -10 -23 -17.667 -53 -23c-11.333 -2 -29.333 -4.83301 -54 -8.5s-43.667 -6.66699 -57 -9s-29.5 -6.33301 -48.5 -12s-33.333 -11.834 -43 -18.501s-18.334 -16.167 -26.001 -28.5s-11.5 -26.5 -11.5 -42.5
c0 -30.667 11.333 -55.334 34 -74.001s49.667 -28 81 -28c50.667 0 93.334 14.833 128.001 44.5s52 68.834 52 117.501zM189.001 680.004c0 -19.333 6.5 -35.5 19.5 -48.5s29.167 -19.5 48.5 -19.5s35.5 6.5 48.5 19.5s19.5 29.167 19.5 48.5s-6.5 35.5 -19.5 48.5
s-29.167 19.5 -48.5 19.5s-35.5 -6.5 -48.5 -19.5s-19.5 -29.167 -19.5 -48.5zM150.001 680.004c0 29.333 10.5 54.5 31.5 75.5s46.167 31.5 75.5 31.5s54.5 -10.5 75.5 -31.5s31.5 -46.167 31.5 -75.5s-10.5 -54.5 -31.5 -75.5s-46.167 -31.5 -75.5 -31.5
s-54.5 10.5 -75.5 31.5s-31.5 46.167 -31.5 75.5z" />
    <glyph glyph-name="ae" unicode="&#xe6;" horiz-adv-x="870" 
d="M841 241h-388c-4 -58 8.66699 -106.333 38 -145s72.666 -58 129.999 -58c82 0 133 43 153 129h63c-13.333 -58.667 -39.333 -103.667 -78 -135s-87.667 -47 -147 -47c-95.333 0 -158.333 43.333 -189 130h-2c-5.33301 -27.333 -19.666 -51.166 -42.999 -71.499
s-50.166 -35.166 -80.499 -44.499s-61.166 -14 -92.499 -14c-50.667 0 -92.167 12.667 -124.5 38s-48.5 63 -48.5 113c0 18.667 2.66699 35.5 8 50.5s11.5 27.667 18.5 38s18 19.666 33 27.999s27.833 14.666 38.5 18.999s26.834 8.5 48.501 12.5s38.167 6.83301 49.5 8.5
s29.666 3.83398 54.999 6.50098l26 3c29.333 2.66699 50.166 8.5 62.499 17.5s18.5 26.5 18.5 52.5c0 39.333 -12 66.833 -36 82.5s-57 23.5 -99 23.5c-41.333 0 -74.333 -9.83301 -99 -29.5s-37.667 -49.834 -39 -90.501h-63c3.33301 58.667 23.5 102.167 60.5 130.5
s86.5 42.5 148.5 42.5c104 0 161.333 -35.667 172 -107h2c12.667 34 36.167 60.333 70.5 79s71.166 28 110.499 28c40.667 0 76 -7.83301 106 -23.5s53.167 -37.5 69.5 -65.5s28.333 -58.5 36 -91.5s11.5 -69.5 11.5 -109.5zM390 200v82.001h-2
c-5.33301 -10 -23 -17.667 -53 -23c-11.333 -2 -29.333 -4.83301 -54 -8.5s-43.667 -6.66699 -57 -9s-29.5 -6.33301 -48.5 -12s-33.333 -11.834 -43 -18.501s-18.334 -16.167 -26.001 -28.5s-11.5 -26.5 -11.5 -42.5c0 -30.667 11.333 -55.334 34 -74.001
s49.667 -28 81 -28c50.667 0 93.334 14.833 128.001 44.5s52 68.834 52 117.501zM453 294.001h325.001c0 49.333 -15.167 92.333 -45.5 129s-69.5 55 -117.5 55c-50 0 -89.833 -18 -119.5 -54s-43.834 -79.333 -42.501 -130z" />
    <glyph glyph-name="ccedilla" unicode="&#xe7;" horiz-adv-x="519" 
d="M487 354l-63.0029 0.00195312c-18 82.667 -66.667 124 -146 124c-56.667 0 -101 -21.833 -133 -65.5s-48 -95.167 -48 -154.5s16 -110.833 48 -154.5s76.333 -65.5 133 -65.5c38.667 0 72.334 14 101.001 42s45 63 49 105h63
c-9.33301 -63.333 -32.666 -112.333 -69.999 -147s-83.333 -52.334 -138 -53.001l-32 -39c14.667 3.33301 31.334 4.33301 50.001 3c44 -7.33301 66 -29.333 66 -66c0 -28 -11.167 -49.333 -33.5 -64s-47.833 -22 -76.5 -22c-35.333 0 -66.666 7 -93.999 21l14 32
c22.667 -9.33301 49 -14 79 -14c35.333 0 53 14.333 53 43c0 11.333 -4.16699 20.5 -12.5 27.5s-18.5 10.5 -30.5 10.5c-22 0 -39 -2.66699 -51 -8l-16 15l50 63c-29.333 3.33301 -54.666 10 -75.999 20c-44.667 22 -79 55 -103 99s-36 94.667 -36 152
c0 77.333 21.667 142.166 65 194.499s103 78.5 179 78.5c57.333 0 104.666 -15 141.999 -45s59.666 -74 66.999 -132z" />
    <glyph glyph-name="egrave" unicode="&#xe8;" horiz-adv-x="519" 
d="M97 294h334c-1.33301 50 -17 93.167 -47 129.5s-69 54.5 -117 54.5c-48.667 0 -87.667 -17.833 -117 -53.5s-47 -79.167 -53 -130.5zM494 241l-397.001 0.00292969c0 -52.667 14.5 -99.667 43.5 -141s71.167 -62 126.5 -62c86 0 140 44 162 132h63
c-28.667 -123.333 -103.667 -185 -225 -185c-77.333 0 -135.5 25.667 -174.5 77s-58.5 116.666 -58.5 195.999c0 48 7.66699 91.833 23 131.5s41.166 73.167 77.499 100.5s80.5 41 132.5 41c52.667 0 96.834 -14.333 132.501 -43s60.834 -64.334 75.501 -107.001
s21 -89.334 19 -140.001zM264.999 588.003l-132 141h78l105 -141h-51z" />
    <glyph glyph-name="eacute" unicode="&#xe9;" horiz-adv-x="519" 
d="M97 294h334c-1.33301 50 -17 93.167 -47 129.5s-69 54.5 -117 54.5c-48.667 0 -87.667 -17.833 -117 -53.5s-47 -79.167 -53 -130.5zM494 241l-397.001 0.00292969c0 -52.667 14.5 -99.667 43.5 -141s71.167 -62 126.5 -62c86 0 140 44 162 132h63
c-28.667 -123.333 -103.667 -185 -225 -185c-77.333 0 -135.5 25.667 -174.5 77s-58.5 116.666 -58.5 195.999c0 48 7.66699 91.833 23 131.5s41.166 73.167 77.499 100.5s80.5 41 132.5 41c52.667 0 96.834 -14.333 132.501 -43s60.834 -64.334 75.501 -107.001
s21 -89.334 19 -140.001zM416.999 731.003l-132 -141h-51l105 141h78z" />
    <glyph glyph-name="ecircumflex" unicode="&#xea;" horiz-adv-x="519" 
d="M97 294h334c-1.33301 50 -17 93.167 -47 129.5s-69 54.5 -117 54.5c-48.667 0 -87.667 -17.833 -117 -53.5s-47 -79.167 -53 -130.5zM494 241l-397.001 0.00292969c0 -52.667 14.5 -99.667 43.5 -141s71.167 -62 126.5 -62c86 0 140 44 162 132h63
c-28.667 -123.333 -103.667 -185 -225 -185c-77.333 0 -135.5 25.667 -174.5 77s-58.5 116.666 -58.5 195.999c0 48 7.66699 91.833 23 131.5s41.166 73.167 77.499 100.5s80.5 41 132.5 41c52.667 0 96.834 -14.333 132.501 -43s60.834 -64.334 75.501 -107.001
s21 -89.334 19 -140.001zM302.999 730.003l114 -141h-65l-86 102l-88 -102h-58l114 141h69z" />
    <glyph glyph-name="edieresis" unicode="&#xeb;" horiz-adv-x="519" 
d="M97 294h334c-1.33301 50 -17 93.167 -47 129.5s-69 54.5 -117 54.5c-48.667 0 -87.667 -17.833 -117 -53.5s-47 -79.167 -53 -130.5zM494 241l-397.001 0.00292969c0 -52.667 14.5 -99.667 43.5 -141s71.167 -62 126.5 -62c86 0 140 44 162 132h63
c-28.667 -123.333 -103.667 -185 -225 -185c-77.333 0 -135.5 25.667 -174.5 77s-58.5 116.666 -58.5 195.999c0 48 7.66699 91.833 23 131.5s41.166 73.167 77.499 100.5s80.5 41 132.5 41c52.667 0 96.834 -14.333 132.501 -43s60.834 -64.334 75.501 -107.001
s21 -89.334 19 -140.001zM213.999 610.003h-68v101h68v-101zM390.999 610.003h-68v101h68v-101z" />
    <glyph glyph-name="igrave" unicode="&#xec;" horiz-adv-x="185" 
d="M124 0h-63v516h63v-516zM74 588l-132 141h78l105 -141h-51z" />
    <glyph glyph-name="iacute" unicode="&#xed;" horiz-adv-x="185" 
d="M124 0h-63v516h63v-516zM242 731l-132 -141h-51l105 141h78z" />
    <glyph glyph-name="icircumflex" unicode="&#xee;" horiz-adv-x="185" 
d="M124 0h-63v516h63v-516zM128 730l114 -141h-65l-86 102l-88 -102h-58l114 141h69z" />
    <glyph glyph-name="idieresis" unicode="&#xef;" horiz-adv-x="185" 
d="M124 0h-63v516h63v-516zM39 610h-68v101h68v-101zM216 610h-68v101h68v-101z" />
    <glyph glyph-name="eth" unicode="&#xf0;" 
d="M135 596l100 56c-39.333 25.333 -70.333 43.666 -93 54.999l36 35c46 -24.667 80.667 -46 104 -64l114 64l33 -32l-109 -61c130.667 -106 196 -236.333 196 -391c0 -79.333 -20.833 -144.666 -62.5 -195.999s-102.5 -77 -182.5 -77
c-77.333 0 -136.166 24.5 -176.499 73.5s-60.5 112.5 -60.5 190.5c0 72.667 21.167 133.667 63.5 183s100.166 74 173.499 74c64 0 108.333 -13.333 133 -40h2c-30.667 58 -75 110.333 -133 157l-105 -59zM276 453c-60.667 0 -105.669 -19.168 -135.002 -57.501
s-44 -87.5 -44 -147.5c0 -59.333 14.833 -109.166 44.5 -149.499s73.834 -60.5 132.501 -60.5c57.333 0 101.5 19.333 132.5 58s46.5 90 46.5 154c0 56 -14.667 103.833 -44 143.5s-73.666 59.5 -132.999 59.5z" />
    <glyph glyph-name="ntilde" unicode="&#xf1;" horiz-adv-x="537" 
d="M59 0v516h63v-89h2c12 30.667 33.333 55.667 64 75s64.334 29 101.001 29c69.333 0 118.166 -16.833 146.499 -50.5s42.5 -83.167 42.5 -148.5v-332h-63v322c0 104 -43.667 156 -131 156c-49.333 0 -88.333 -16.5 -117 -49.5s-43.667 -75.5 -45 -127.5v-301h-63zM387 710
l38.001 0.000976562c-4.66699 -26 -14.167 -48.333 -28.5 -67s-33.833 -28 -58.5 -28c-20 0 -45 7.66699 -75 23s-51 23 -63 23c-25.333 0 -42 -17 -50 -51h-39c2.66699 25.333 12 47.666 28 66.999s36.333 29 61 29c20.667 0 45.667 -7.33301 75 -22s49.333 -22 60 -22
c25.333 0 42.666 16 51.999 48z" />
    <glyph glyph-name="ograve" unicode="&#xf2;" 
d="M278 478c-56.667 0 -101 -21.833 -133 -65.5s-48 -95.167 -48 -154.5s16 -110.833 48 -154.5s76.333 -65.5 133 -65.5s101 21.833 133 65.5s48 95.167 48 154.5s-16 110.833 -48 154.5s-76.333 65.5 -133 65.5zM278 531c76 0 135.667 -26.167 179 -78.5
s65 -117.166 65 -194.499s-21.667 -142.166 -65 -194.499s-103 -78.5 -179 -78.5s-135.667 26.167 -179 78.5s-65 117.166 -65 194.499s21.667 142.166 65 194.499s103 78.5 179 78.5zM278 588l-132 141h78l105 -141h-51z" />
    <glyph glyph-name="oacute" unicode="&#xf3;" 
d="M278 478c-56.667 0 -101 -21.833 -133 -65.5s-48 -95.167 -48 -154.5s16 -110.833 48 -154.5s76.333 -65.5 133 -65.5s101 21.833 133 65.5s48 95.167 48 154.5s-16 110.833 -48 154.5s-76.333 65.5 -133 65.5zM278 531c76 0 135.667 -26.167 179 -78.5
s65 -117.166 65 -194.499s-21.667 -142.166 -65 -194.499s-103 -78.5 -179 -78.5s-135.667 26.167 -179 78.5s-65 117.166 -65 194.499s21.667 142.166 65 194.499s103 78.5 179 78.5zM431 731l-132 -141h-51l105 141h78z" />
    <glyph glyph-name="ocircumflex" unicode="&#xf4;" 
d="M278 478c-56.667 0 -101 -21.833 -133 -65.5s-48 -95.167 -48 -154.5s16 -110.833 48 -154.5s76.333 -65.5 133 -65.5s101 21.833 133 65.5s48 95.167 48 154.5s-16 110.833 -48 154.5s-76.333 65.5 -133 65.5zM278 531c76 0 135.667 -26.167 179 -78.5
s65 -117.166 65 -194.499s-21.667 -142.166 -65 -194.499s-103 -78.5 -179 -78.5s-135.667 26.167 -179 78.5s-65 117.166 -65 194.499s21.667 142.166 65 194.499s103 78.5 179 78.5zM314 730l114 -141h-65l-86 102l-88 -102h-58l114 141h69z" />
    <glyph glyph-name="otilde" unicode="&#xf5;" 
d="M278 478c-56.667 0 -101 -21.833 -133 -65.5s-48 -95.167 -48 -154.5s16 -110.833 48 -154.5s76.333 -65.5 133 -65.5s101 21.833 133 65.5s48 95.167 48 154.5s-16 110.833 -48 154.5s-76.333 65.5 -133 65.5zM278 531c76 0 135.667 -26.167 179 -78.5
s65 -117.166 65 -194.499s-21.667 -142.166 -65 -194.499s-103 -78.5 -179 -78.5s-135.667 26.167 -179 78.5s-65 117.166 -65 194.499s21.667 142.166 65 194.499s103 78.5 179 78.5zM399 710l38.001 0.000976562c-4.66699 -26 -14.167 -48.333 -28.5 -67
s-33.833 -28 -58.5 -28c-20 0 -45 7.66699 -75 23s-51 23 -63 23c-25.333 0 -42 -17 -50 -51h-39c2.66699 25.333 12 47.666 28 66.999s36.333 29 61 29c20.667 0 45.667 -7.33301 75 -22s49.333 -22 60 -22c25.333 0 42.666 16 51.999 48z" />
    <glyph glyph-name="odieresis" unicode="&#xf6;" 
d="M278 478c-56.667 0 -101 -21.833 -133 -65.5s-48 -95.167 -48 -154.5s16 -110.833 48 -154.5s76.333 -65.5 133 -65.5s101 21.833 133 65.5s48 95.167 48 154.5s-16 110.833 -48 154.5s-76.333 65.5 -133 65.5zM278 531c76 0 135.667 -26.167 179 -78.5
s65 -117.166 65 -194.499s-21.667 -142.166 -65 -194.499s-103 -78.5 -179 -78.5s-135.667 26.167 -179 78.5s-65 117.166 -65 194.499s21.667 142.166 65 194.499s103 78.5 179 78.5zM225 610h-68v101h68v-101zM402 610h-68v101h68v-101z" />
    <glyph glyph-name="divide" unicode="&#xf7;" horiz-adv-x="600" 
d="M244 50c0 15.333 5.49902 28.5 16.499 39.5s24.167 16.5 39.5 16.5s28.5 -5.5 39.5 -16.5s16.5 -24.167 16.5 -39.5c0 -14 -5.66699 -26.833 -17 -38.5s-24 -17.5 -38 -17.5c-15.333 0 -28.666 5.5 -39.999 16.5s-17 24.167 -17 39.5zM243.999 453
c0 15.333 5.49902 28.5 16.499 39.5s24.167 16.5 39.5 16.5s28.5 -5.5 39.5 -16.5s16.5 -24.167 16.5 -39.5c0 -14 -5.66699 -26.833 -17 -38.5s-24 -17.5 -38 -17.5c-15.333 0 -28.666 5.5 -39.999 16.5s-17 24.167 -17 39.5zM551.998 225h-503v53h503v-53z" />
    <glyph glyph-name="oslash" unicode="&#xf8;" 
d="M500 519l22 -20l-54 -59c36 -50.667 54 -111.334 54 -182.001c0 -77.333 -21.667 -142.166 -65 -194.499s-103 -78.5 -179 -78.5c-70 0 -126 22.667 -168 68l-59 -64l-22 20l61 67c-37.333 48.667 -56 109.334 -56 182.001c0 77.333 21.667 142.166 65 194.499
s103 78.5 179 78.5c71.333 0 128 -22.667 170 -68zM424 392l-272.999 -295c31.333 -39.333 73.666 -59 126.999 -59c56.667 0 101 21.833 133 65.5s48 95.167 48 154.5c0 51.333 -11.667 96 -35 134zM133.001 123l273 295c-32 40 -74.667 60 -128 60
c-56.667 0 -101 -21.833 -133 -65.5s-48 -95.167 -48 -154.5c0 -51.333 12 -96.333 36 -135z" />
    <glyph glyph-name="ugrave" unicode="&#xf9;" horiz-adv-x="537" 
d="M478 516v-515.999h-58v93h-2c-16 -34 -40 -60.5 -72 -79.5s-67.333 -28.5 -106 -28.5c-120.667 0 -181 65.333 -181 196v335h63v-336c1.33301 -48 12.5 -83.667 33.5 -107s55.833 -35 104.5 -35c50.667 0 89.167 20.167 115.5 60.5s39.5 89.166 39.5 146.499v271h63z
M274 588.001l-132 141h78l105 -141h-51z" />
    <glyph glyph-name="uacute" unicode="&#xfa;" horiz-adv-x="537" 
d="M478 516v-515.999h-58v93h-2c-16 -34 -40 -60.5 -72 -79.5s-67.333 -28.5 -106 -28.5c-120.667 0 -181 65.333 -181 196v335h63v-336c1.33301 -48 12.5 -83.667 33.5 -107s55.833 -35 104.5 -35c50.667 0 89.167 20.167 115.5 60.5s39.5 89.166 39.5 146.499v271h63z
M422 731.001l-132 -141h-51l105 141h78z" />
    <glyph glyph-name="ucircumflex" unicode="&#xfb;" horiz-adv-x="537" 
d="M478 516v-515.999h-58v93h-2c-16 -34 -40 -60.5 -72 -79.5s-67.333 -28.5 -106 -28.5c-120.667 0 -181 65.333 -181 196v335h63v-336c1.33301 -48 12.5 -83.667 33.5 -107s55.833 -35 104.5 -35c50.667 0 89.167 20.167 115.5 60.5s39.5 89.166 39.5 146.499v271h63z
M303 730.001l114 -141h-65l-86 102l-88 -102h-58l114 141h69z" />
    <glyph glyph-name="udieresis" unicode="&#xfc;" horiz-adv-x="537" 
d="M478 516v-515.999h-58v93h-2c-16 -34 -40 -60.5 -72 -79.5s-67.333 -28.5 -106 -28.5c-120.667 0 -181 65.333 -181 196v335h63v-336c1.33301 -48 12.5 -83.667 33.5 -107s55.833 -35 104.5 -35c50.667 0 89.167 20.167 115.5 60.5s39.5 89.166 39.5 146.499v271h63z
M214 610.001h-68v101h68v-101zM391 610.001h-68v101h68v-101z" />
    <glyph glyph-name="yacute" unicode="&#xfd;" horiz-adv-x="463" 
d="M208 2l-205.998 514h67l170 -440l159 440h63l-224 -595c-19.333 -45.333 -37.333 -75.333 -54 -90s-44 -22 -82 -22c-25.333 1.33301 -41.333 3 -48 5v53c16.667 -3.33301 31 -5 43 -5c13.333 0 24.666 1.66699 33.999 5s17.5 9.5 24.5 18.5s12.167 16.833 15.5 23.5
s8.66602 18 15.999 34zM394.002 731l-132 -141h-51l105 141h78z" />
    <glyph glyph-name="thorn" unicode="&#xfe;" horiz-adv-x="574" 
d="M60 -191v905h63v-296h2c12.667 35.333 35.667 63 69 83s70 30 110 30c74.667 0 132 -26 172 -78s60 -117 60 -195s-20 -143 -60 -195s-97.333 -78 -172 -78c-40 0 -76.667 9.83301 -110 29.5s-56.333 47.5 -69 83.5h-2v-289h-63zM473 258c0 38 -5.5 73 -16.5 105
s-29.667 59.167 -56 81.5s-58.5 33.5 -96.5 33.5c-61.333 0 -106.833 -21.5 -136.5 -64.5s-44.5 -94.833 -44.5 -155.5s14.833 -112.5 44.5 -155.5s75.167 -64.5 136.5 -64.5c38 0 70.167 11.167 96.5 33.5s45 49.5 56 81.5s16.5 67 16.5 105z" />
    <glyph glyph-name="ydieresis" unicode="&#xff;" horiz-adv-x="463" 
d="M208 2l-205.998 514h67l170 -440l159 440h63l-224 -595c-19.333 -45.333 -37.333 -75.333 -54 -90s-44 -22 -82 -22c-25.333 1.33301 -41.333 3 -48 5v53c16.667 -3.33301 31 -5 43 -5c13.333 0 24.666 1.66699 33.999 5s17.5 9.5 24.5 18.5s12.167 16.833 15.5 23.5
s8.66602 18 15.999 34zM185.002 610h-68v101h68v-101zM362.002 610h-68v101h68v-101z" />
    <glyph glyph-name="Amacron" unicode="&#x100;" horiz-adv-x="630" 
d="M316 646l-143 -366h281zM-7 0l288 714h76l280 -714h-73l-87 222h-325l-86 -222h-73zM480 828h-329v45h329v-45z" />
    <glyph glyph-name="amacron" unicode="&#x101;" horiz-adv-x="519" 
d="M117 358l-62.999 0.00292969c3.33301 58.667 23.5 102.167 60.5 130.5s86.5 42.5 148.5 42.5c126.667 0 190 -55.333 190 -166v-274c0 -25.333 12.333 -38 37 -38c7.33301 0 14 1.33301 20 4v-53c-13.333 -2.66699 -27 -4 -41 -4c-29.333 0 -49 7.5 -59 22.5
s-15 37.5 -15 67.5h-2c-24.667 -36.667 -50.5 -63.334 -77.5 -80.001s-63.833 -25 -110.5 -25c-50.667 0 -92.167 12.667 -124.5 38s-48.5 63 -48.5 113c0 18.667 2.66699 35.5 8 50.5s11.5 27.667 18.5 38s18 19.666 33 27.999s27.833 14.666 38.5 18.999
s26.834 8.5 48.501 12.5s38.167 6.83301 49.5 8.5s29.666 3.83398 54.999 6.50098l26 3c29.333 2.66699 50.166 8.5 62.499 17.5s18.5 26.5 18.5 52.5c0 39.333 -12 66.833 -36 82.5s-57 23.5 -99 23.5c-41.333 0 -74.333 -9.83301 -99 -29.5s-37.667 -49.834 -39 -90.501z
M390.001 200.003v82.001h-2c-5.33301 -10 -23 -17.667 -53 -23c-11.333 -2 -29.333 -4.83301 -54 -8.5s-43.667 -6.66699 -57 -9s-29.5 -6.33301 -48.5 -12s-33.333 -11.834 -43 -18.501s-18.334 -16.167 -26.001 -28.5s-11.5 -26.5 -11.5 -42.5
c0 -30.667 11.333 -55.334 34 -74.001s49.667 -28 81 -28c50.667 0 93.334 14.833 128.001 44.5s52 68.834 52 117.501zM428.001 638.004h-329v45h329v-45z" />
    <glyph glyph-name="Abreve" unicode="&#x102;" horiz-adv-x="630" 
d="M316 646l-143 -366h281zM-7 0l288 714h76l280 -714h-73l-87 222h-325l-86 -222h-73zM175 914h39c1.33301 -25.333 12.166 -45.333 32.499 -60s43.833 -22 70.5 -22s50 7.33301 70 22s32 34.667 36 60h39c-5.33301 -39.333 -20.833 -70.333 -46.5 -93s-58.5 -34 -98.5 -34
c-40.667 0 -73.667 11.167 -99 33.5s-39.666 53.5 -42.999 93.5z" />
    <glyph glyph-name="abreve" unicode="&#x103;" horiz-adv-x="519" 
d="M117 358l-62.999 0.00292969c3.33301 58.667 23.5 102.167 60.5 130.5s86.5 42.5 148.5 42.5c126.667 0 190 -55.333 190 -166v-274c0 -25.333 12.333 -38 37 -38c7.33301 0 14 1.33301 20 4v-53c-13.333 -2.66699 -27 -4 -41 -4c-29.333 0 -49 7.5 -59 22.5
s-15 37.5 -15 67.5h-2c-24.667 -36.667 -50.5 -63.334 -77.5 -80.001s-63.833 -25 -110.5 -25c-50.667 0 -92.167 12.667 -124.5 38s-48.5 63 -48.5 113c0 18.667 2.66699 35.5 8 50.5s11.5 27.667 18.5 38s18 19.666 33 27.999s27.833 14.666 38.5 18.999
s26.834 8.5 48.501 12.5s38.167 6.83301 49.5 8.5s29.666 3.83398 54.999 6.50098l26 3c29.333 2.66699 50.166 8.5 62.499 17.5s18.5 26.5 18.5 52.5c0 39.333 -12 66.833 -36 82.5s-57 23.5 -99 23.5c-41.333 0 -74.333 -9.83301 -99 -29.5s-37.667 -49.834 -39 -90.501z
M390.001 200.003v82.001h-2c-5.33301 -10 -23 -17.667 -53 -23c-11.333 -2 -29.333 -4.83301 -54 -8.5s-43.667 -6.66699 -57 -9s-29.5 -6.33301 -48.5 -12s-33.333 -11.834 -43 -18.501s-18.334 -16.167 -26.001 -28.5s-11.5 -26.5 -11.5 -42.5
c0 -30.667 11.333 -55.334 34 -74.001s49.667 -28 81 -28c50.667 0 93.334 14.833 128.001 44.5s52 68.834 52 117.501zM118.001 724.004h39c1.33301 -25.333 12.166 -45.333 32.499 -60s43.833 -22 70.5 -22s50 7.33301 70 22s32 34.667 36 60h39
c-5.33301 -39.333 -20.833 -70.333 -46.5 -93s-58.5 -34 -98.5 -34c-40.667 0 -73.667 11.167 -99 33.5s-39.666 53.5 -42.999 93.5z" />
    <glyph glyph-name="Aogonek" unicode="&#x104;" horiz-adv-x="630" 
d="M637 0h-35c-34.667 -28.667 -57 -51 -67 -67s-15 -32.667 -15 -50c0 -15.333 4.16699 -27 12.5 -35s18.833 -12 31.5 -12c22.667 0 41 13.667 55 41l29 -13c-20 -44.667 -52.667 -67 -98 -67c-28.667 0 -51 7.5 -67 22.5s-24 34.833 -24 59.5c0 38 35 78.333 105 121
l-87 222h-325l-86 -222h-73l288 714h76zM316 646l-143 -366h281z" />
    <glyph glyph-name="aogonek" unicode="&#x105;" horiz-adv-x="519" 
d="M117 358l-62.999 0.00292969c3.33301 58.667 23.5 102.167 60.5 130.5s86.5 42.5 148.5 42.5c126.667 0 190 -55.333 190 -166v-274c0 -25.333 12.333 -38 37 -38c7.33301 0 14 1.33301 20 4v-53c-13.333 -2.66699 -27 -4 -41 -4h-4c-34.667 -28.667 -57 -51 -67 -67
s-15 -32.667 -15 -50c0 -15.333 4.16699 -27 12.5 -35s18.833 -12 31.5 -12c22.667 0 41 13.667 55 41l29 -13c-20 -44.667 -52.667 -67 -98 -67c-28.667 0 -51 7.5 -67 22.5s-24 34.833 -24 59.5c0 23.333 15 49.333 45 78c12.667 12.667 34.667 28.667 66 48
c-0.666992 0.666992 -1.66699 1 -3 1c-23.333 12 -35 40 -35 84h-2c-24.667 -36.667 -50.5 -63.334 -77.5 -80.001s-63.833 -25 -110.5 -25c-50.667 0 -92.167 12.667 -124.5 38s-48.5 63 -48.5 113c0 18.667 2.66699 35.5 8 50.5s11.5 27.667 18.5 38s18 19.666 33 27.999
s27.833 14.666 38.5 18.999s26.834 8.5 48.501 12.5s38.167 6.83301 49.5 8.5s29.666 3.83398 54.999 6.50098l26 3c29.333 2.66699 50.166 8.5 62.499 17.5s18.5 26.5 18.5 52.5c0 39.333 -12 66.833 -36 82.5s-57 23.5 -99 23.5c-41.333 0 -74.333 -9.83301 -99 -29.5
s-37.667 -49.834 -39 -90.501zM390.001 200.003v82.001h-2c-5.33301 -10 -23 -17.667 -53 -23c-11.333 -2 -29.333 -4.83301 -54 -8.5s-43.667 -6.66699 -57 -9s-29.5 -6.33301 -48.5 -12s-33.333 -11.834 -43 -18.501s-18.334 -16.167 -26.001 -28.5
s-11.5 -26.5 -11.5 -42.5c0 -30.667 11.333 -55.334 34 -74.001s49.667 -28 81 -28c50.667 0 93.334 14.833 128.001 44.5s52 68.834 52 117.501z" />
    <glyph glyph-name="Cacute" unicode="&#x106;" horiz-adv-x="704" 
d="M662 498l-68.001 -0.000976562c-12 54 -38.167 96.333 -78.5 127s-87.166 46 -140.499 46c-45.333 0 -85.666 -9 -120.999 -27s-63.5 -42 -84.5 -72s-36.833 -63.167 -47.5 -99.5s-16 -74.833 -16 -115.5s5.33301 -79.167 16 -115.5s26.5 -69.5 47.5 -99.5
s49.167 -54 84.5 -72s75.666 -27 120.999 -27c64 0 116.5 21.667 157.5 65s64.833 98 71.5 164h68c-9.33301 -88.667 -40.333 -158.667 -93 -210s-120.667 -77 -204 -77c-54.667 0 -103.834 10.167 -147.501 30.5s-79 47.833 -106 82.5s-47.667 74 -62 118
s-21.5 91 -21.5 141s7.16699 97 21.5 141s35 83.333 62 118s62.333 62.167 106 82.5s92.834 30.5 147.501 30.5c72 0 135.5 -20.667 190.5 -62s87.167 -97.666 96.5 -168.999zM525.999 920.999l-132 -141h-51l105 141h78z" />
    <glyph glyph-name="cacute" unicode="&#x107;" horiz-adv-x="519" 
d="M487 354l-62.998 0.00195312c-18 82.667 -66.667 124 -146 124c-56.667 0 -101 -21.833 -133 -65.5s-48 -95.167 -48 -154.5s16 -110.833 48 -154.5s76.333 -65.5 133 -65.5c38.667 0 72.334 14 101.001 42s45 63 49 105h63
c-8.66699 -62.667 -31.834 -111.667 -69.501 -147s-85.5 -53 -143.5 -53c-76 0 -135.667 26.167 -179 78.5s-65 117.166 -65 194.499s21.667 142.166 65 194.499s103 78.5 179 78.5c57.333 0 104.666 -15 141.999 -45s59.666 -74 66.999 -132zM429.002 731.002l-132 -141
h-51l105 141h78z" />
    <glyph glyph-name="Ccircumflex" unicode="&#x108;" horiz-adv-x="704" 
d="M662 498l-68.001 -0.000976562c-12 54 -38.167 96.333 -78.5 127s-87.166 46 -140.499 46c-45.333 0 -85.666 -9 -120.999 -27s-63.5 -42 -84.5 -72s-36.833 -63.167 -47.5 -99.5s-16 -74.833 -16 -115.5s5.33301 -79.167 16 -115.5s26.5 -69.5 47.5 -99.5
s49.167 -54 84.5 -72s75.666 -27 120.999 -27c64 0 116.5 21.667 157.5 65s64.833 98 71.5 164h68c-9.33301 -88.667 -40.333 -158.667 -93 -210s-120.667 -77 -204 -77c-54.667 0 -103.834 10.167 -147.501 30.5s-79 47.833 -106 82.5s-47.667 74 -62 118
s-21.5 91 -21.5 141s7.16699 97 21.5 141s35 83.333 62 118s62.333 62.167 106 82.5s92.834 30.5 147.501 30.5c72 0 135.5 -20.667 190.5 -62s87.167 -97.666 96.5 -168.999zM408.999 919.999l114 -141h-65l-86 102l-88 -102h-58l114 141h69z" />
    <glyph glyph-name="ccircumflex" unicode="&#x109;" horiz-adv-x="519" 
d="M487 354l-62.998 0.00195312c-18 82.667 -66.667 124 -146 124c-56.667 0 -101 -21.833 -133 -65.5s-48 -95.167 -48 -154.5s16 -110.833 48 -154.5s76.333 -65.5 133 -65.5c38.667 0 72.334 14 101.001 42s45 63 49 105h63
c-8.66699 -62.667 -31.834 -111.667 -69.501 -147s-85.5 -53 -143.5 -53c-76 0 -135.667 26.167 -179 78.5s-65 117.166 -65 194.499s21.667 142.166 65 194.499s103 78.5 179 78.5c57.333 0 104.666 -15 141.999 -45s59.666 -74 66.999 -132zM312.002 730.002l114 -141h-65
l-86 102l-88 -102h-58l114 141h69z" />
    <glyph glyph-name="Cdotaccent" unicode="&#x10a;" horiz-adv-x="704" 
d="M662 498l-68.001 -0.000976562c-12 54 -38.167 96.333 -78.5 127s-87.166 46 -140.499 46c-45.333 0 -85.666 -9 -120.999 -27s-63.5 -42 -84.5 -72s-36.833 -63.167 -47.5 -99.5s-16 -74.833 -16 -115.5s5.33301 -79.167 16 -115.5s26.5 -69.5 47.5 -99.5
s49.167 -54 84.5 -72s75.666 -27 120.999 -27c64 0 116.5 21.667 157.5 65s64.833 98 71.5 164h68c-9.33301 -88.667 -40.333 -158.667 -93 -210s-120.667 -77 -204 -77c-54.667 0 -103.834 10.167 -147.501 30.5s-79 47.833 -106 82.5s-47.667 74 -62 118
s-21.5 91 -21.5 141s7.16699 97 21.5 141s35 83.333 62 118s62.333 62.167 106 82.5s92.834 30.5 147.501 30.5c72 0 135.5 -20.667 190.5 -62s87.167 -97.666 96.5 -168.999zM404.999 799.999h-68v101h68v-101z" />
    <glyph glyph-name="cdotaccent" unicode="&#x10b;" horiz-adv-x="519" 
d="M487 354l-62.998 0.00195312c-18 82.667 -66.667 124 -146 124c-56.667 0 -101 -21.833 -133 -65.5s-48 -95.167 -48 -154.5s16 -110.833 48 -154.5s76.333 -65.5 133 -65.5c38.667 0 72.334 14 101.001 42s45 63 49 105h63
c-8.66699 -62.667 -31.834 -111.667 -69.501 -147s-85.5 -53 -143.5 -53c-76 0 -135.667 26.167 -179 78.5s-65 117.166 -65 194.499s21.667 142.166 65 194.499s103 78.5 179 78.5c57.333 0 104.666 -15 141.999 -45s59.666 -74 66.999 -132zM310.002 610.002h-68v101h68
v-101z" />
    <glyph glyph-name="Ccaron" unicode="&#x10c;" horiz-adv-x="704" 
d="M662 498l-68.001 -0.000976562c-12 54 -38.167 96.333 -78.5 127s-87.166 46 -140.499 46c-45.333 0 -85.666 -9 -120.999 -27s-63.5 -42 -84.5 -72s-36.833 -63.167 -47.5 -99.5s-16 -74.833 -16 -115.5s5.33301 -79.167 16 -115.5s26.5 -69.5 47.5 -99.5
s49.167 -54 84.5 -72s75.666 -27 120.999 -27c64 0 116.5 21.667 157.5 65s64.833 98 71.5 164h68c-9.33301 -88.667 -40.333 -158.667 -93 -210s-120.667 -77 -204 -77c-54.667 0 -103.834 10.167 -147.501 30.5s-79 47.833 -106 82.5s-47.667 74 -62 118
s-21.5 91 -21.5 141s7.16699 97 21.5 141s35 83.333 62 118s62.333 62.167 106 82.5s92.834 30.5 147.501 30.5c72 0 135.5 -20.667 190.5 -62s87.167 -97.666 96.5 -168.999zM333.999 779.999l-114 141h65l86 -102l88 102h58l-114 -141h-69z" />
    <glyph glyph-name="ccaron" unicode="&#x10d;" horiz-adv-x="519" 
d="M487 354l-62.998 0.00195312c-18 82.667 -66.667 124 -146 124c-56.667 0 -101 -21.833 -133 -65.5s-48 -95.167 -48 -154.5s16 -110.833 48 -154.5s76.333 -65.5 133 -65.5c38.667 0 72.334 14 101.001 42s45 63 49 105h63
c-8.66699 -62.667 -31.834 -111.667 -69.501 -147s-85.5 -53 -143.5 -53c-76 0 -135.667 26.167 -179 78.5s-65 117.166 -65 194.499s21.667 142.166 65 194.499s103 78.5 179 78.5c57.333 0 104.666 -15 141.999 -45s59.666 -74 66.999 -132zM242.002 590.002l-114 141h65
l86 -102l88 102h58l-114 -141h-69z" />
    <glyph glyph-name="Dcaron" unicode="&#x10e;" horiz-adv-x="685" 
d="M72 0v714h247c218.667 -5.33301 328 -124.333 328 -357s-109.333 -351.667 -328 -357h-247zM140 656v-598h145c103.333 0 178.166 23.333 224.499 70s69.5 123 69.5 229s-23.167 182.333 -69.5 229s-121.166 70 -224.499 70h-145zM270 780l-114 141h65l86 -102l88 102h58
l-114 -141h-69z" />
    <glyph glyph-name="dcaron" unicode="&#x10f;" horiz-adv-x="645" 
d="M514 714l-0.000976562 -714h-58v98h-2c-13.333 -33.333 -37.666 -60.5 -72.999 -81.5s-72.333 -31.5 -111 -31.5c-74.667 0 -132 26 -172 78s-60 117 -60 195s20 143 60 195s97.333 78 172 78c40 0 76.667 -10 110 -30s56.333 -47.667 69 -83h2v296h63zM100.999 258
c0 -38 5.5 -73 16.5 -105s29.667 -59.167 56 -81.5s58.5 -33.5 96.5 -33.5c61.333 0 106.833 21.5 136.5 64.5s44.5 94.833 44.5 155.5s-14.833 112.5 -44.5 155.5s-75.167 64.5 -136.5 64.5c-38 0 -70.167 -11.167 -96.5 -33.5s-45 -49.5 -56 -81.5s-16.5 -67 -16.5 -105z
M696.999 714l-86 -141h-47l55 141h78z" />
    <glyph glyph-name="Dcroat" unicode="&#x110;" horiz-adv-x="685" 
d="M72 393v321h247c218.667 -5.33301 328 -124.333 328 -357s-109.333 -351.667 -328 -357h-247v348h-72v45h72zM140 656v-263h236v-45h-236v-290h145c103.333 0 178.166 23.333 224.499 70s69.5 123 69.5 229s-23.167 182.333 -69.5 229s-121.166 70 -224.499 70h-145z" />
    <glyph glyph-name="dcroat" unicode="&#x111;" horiz-adv-x="598" 
d="M514 584l-0.000976562 -584h-58v98h-2c-13.333 -33.333 -37.666 -60.5 -72.999 -81.5s-72.333 -31.5 -111 -31.5c-74.667 0 -132 26 -172 78s-60 117 -60 195s20 143 60 195s97.333 78 172 78c40 0 76.667 -10 110 -30s56.333 -47.667 69 -83h2v166h-173v45h173v85h63
v-85h84v-45h-84zM100.999 258c0 -38 5.5 -73 16.5 -105s29.667 -59.167 56 -81.5s58.5 -33.5 96.5 -33.5c61.333 0 106.833 21.5 136.5 64.5s44.5 94.833 44.5 155.5s-14.833 112.5 -44.5 155.5s-75.167 64.5 -136.5 64.5c-38 0 -70.167 -11.167 -96.5 -33.5
s-45 -49.5 -56 -81.5s-16.5 -67 -16.5 -105z" />
    <glyph glyph-name="Emacron" unicode="&#x112;" horiz-adv-x="593" 
d="M72 0v714h493v-58h-425v-258h398v-58h-398v-282h430v-58h-498zM485 828h-329v45h329v-45z" />
    <glyph glyph-name="emacron" unicode="&#x113;" horiz-adv-x="519" 
d="M97 294h334c-1.33301 50 -17 93.167 -47 129.5s-69 54.5 -117 54.5c-48.667 0 -87.667 -17.833 -117 -53.5s-47 -79.167 -53 -130.5zM494 241l-397.001 0.00292969c0 -52.667 14.5 -99.667 43.5 -141s71.167 -62 126.5 -62c86 0 140 44 162 132h63
c-28.667 -123.333 -103.667 -185 -225 -185c-77.333 0 -135.5 25.667 -174.5 77s-58.5 116.666 -58.5 195.999c0 48 7.66699 91.833 23 131.5s41.166 73.167 77.499 100.5s80.5 41 132.5 41c52.667 0 96.834 -14.333 132.501 -43s60.834 -64.334 75.501 -107.001
s21 -89.334 19 -140.001zM430.999 638.003h-329v45h329v-45z" />
    <glyph glyph-name="Ebreve" unicode="&#x114;" horiz-adv-x="593" 
d="M72 0v714h493v-58h-425v-258h398v-58h-398v-282h430v-58h-498zM174 914h39c1.33301 -25.333 12.166 -45.333 32.499 -60s43.833 -22 70.5 -22s50 7.33301 70 22s32 34.667 36 60h39c-5.33301 -39.333 -20.833 -70.333 -46.5 -93s-58.5 -34 -98.5 -34
c-40.667 0 -73.667 11.167 -99 33.5s-39.666 53.5 -42.999 93.5z" />
    <glyph glyph-name="ebreve" unicode="&#x115;" horiz-adv-x="519" 
d="M97 294h334c-1.33301 50 -17 93.167 -47 129.5s-69 54.5 -117 54.5c-48.667 0 -87.667 -17.833 -117 -53.5s-47 -79.167 -53 -130.5zM494 241l-397.001 0.00292969c0 -52.667 14.5 -99.667 43.5 -141s71.167 -62 126.5 -62c86 0 140 44 162 132h63
c-28.667 -123.333 -103.667 -185 -225 -185c-77.333 0 -135.5 25.667 -174.5 77s-58.5 116.666 -58.5 195.999c0 48 7.66699 91.833 23 131.5s41.166 73.167 77.499 100.5s80.5 41 132.5 41c52.667 0 96.834 -14.333 132.501 -43s60.834 -64.334 75.501 -107.001
s21 -89.334 19 -140.001zM127.999 724.003h39c1.33301 -25.333 12.166 -45.333 32.499 -60s43.833 -22 70.5 -22s50 7.33301 70 22s32 34.667 36 60h39c-5.33301 -39.333 -20.833 -70.333 -46.5 -93s-58.5 -34 -98.5 -34c-40.667 0 -73.667 11.167 -99 33.5
s-39.666 53.5 -42.999 93.5z" />
    <glyph glyph-name="Edotaccent" unicode="&#x116;" horiz-adv-x="593" 
d="M72 0v714h493v-58h-425v-258h398v-58h-398v-282h430v-58h-498zM353 800h-68v101h68v-101z" />
    <glyph glyph-name="edotaccent" unicode="&#x117;" horiz-adv-x="519" 
d="M97 294h334c-1.33301 50 -17 93.167 -47 129.5s-69 54.5 -117 54.5c-48.667 0 -87.667 -17.833 -117 -53.5s-47 -79.167 -53 -130.5zM494 241l-397.001 0.00292969c0 -52.667 14.5 -99.667 43.5 -141s71.167 -62 126.5 -62c86 0 140 44 162 132h63
c-28.667 -123.333 -103.667 -185 -225 -185c-77.333 0 -135.5 25.667 -174.5 77s-58.5 116.666 -58.5 195.999c0 48 7.66699 91.833 23 131.5s41.166 73.167 77.499 100.5s80.5 41 132.5 41c52.667 0 96.834 -14.333 132.501 -43s60.834 -64.334 75.501 -107.001
s21 -89.334 19 -140.001zM299.999 610.003h-68v101h68v-101z" />
    <glyph glyph-name="Eogonek" unicode="&#x118;" horiz-adv-x="593" 
d="M570 0h-46c-34.667 -28.667 -57 -51 -67 -67s-15 -32.667 -15 -50c0 -15.333 4.16699 -27 12.5 -35s18.833 -12 31.5 -12c22.667 0 41 13.667 55 41l29 -13c-20 -44.667 -52.667 -67 -98 -67c-28.667 0 -51 7.5 -67 22.5s-24 34.833 -24 59.5c0 38 35 78.333 105 121
h-414v714h493v-58h-425v-258h398v-58h-398v-282h430v-58z" />
    <glyph glyph-name="eogonek" unicode="&#x119;" horiz-adv-x="519" 
d="M494 241l-397 0.00195312c0 -52.667 14.5 -99.667 43.5 -141s71.167 -62 126.5 -62c86 0 140 44 162 132h63c-12.667 -58 -37.334 -103.667 -74.001 -137c-28.667 -25.333 -67.667 -40.666 -117 -45.999c-7.33301 -6 -16.666 -14.667 -27.999 -26
c-16 -16.667 -26.167 -30.334 -30.5 -41.001s-6.5 -23 -6.5 -37c0 -15.333 4.16699 -27 12.5 -35s18.833 -12 31.5 -12c22.667 0 41 13.667 55 41l29 -13c-20 -44.667 -52.667 -67 -98 -67c-28.667 0 -51 7.5 -67 22.5s-24 34.833 -24 59.5c0 23.333 15 49.333 45 78
c8 8 20 17.333 36 28c-34.667 0.666992 -66.334 8 -95.001 22c-42.667 21.333 -74.5 54 -95.5 98s-31.5 95 -31.5 153c0 48 7.66699 91.833 23 131.5s41.166 73.167 77.499 100.5s80.5 41 132.5 41c52.667 0 96.834 -14.333 132.501 -43s60.834 -64.334 75.501 -107.001
s21 -89.334 19 -140.001zM97 294.002h334c-1.33301 50 -17 93.167 -47 129.5s-69 54.5 -117 54.5c-48.667 0 -87.667 -17.833 -117 -53.5s-47 -79.167 -53 -130.5z" />
    <glyph glyph-name="Ecaron" unicode="&#x11a;" horiz-adv-x="593" 
d="M72 0v714h493v-58h-425v-258h398v-58h-398v-282h430v-58h-498zM280 780l-114 141h65l86 -102l88 102h58l-114 -141h-69z" />
    <glyph glyph-name="ecaron" unicode="&#x11b;" horiz-adv-x="519" 
d="M97 294h334c-1.33301 50 -17 93.167 -47 129.5s-69 54.5 -117 54.5c-48.667 0 -87.667 -17.833 -117 -53.5s-47 -79.167 -53 -130.5zM494 241l-397.001 0.00292969c0 -52.667 14.5 -99.667 43.5 -141s71.167 -62 126.5 -62c86 0 140 44 162 132h63
c-28.667 -123.333 -103.667 -185 -225 -185c-77.333 0 -135.5 25.667 -174.5 77s-58.5 116.666 -58.5 195.999c0 48 7.66699 91.833 23 131.5s41.166 73.167 77.499 100.5s80.5 41 132.5 41c52.667 0 96.834 -14.333 132.501 -43s60.834 -64.334 75.501 -107.001
s21 -89.334 19 -140.001zM233.999 590.003l-114 141h65l86 -102l88 102h58l-114 -141h-69z" />
    <glyph glyph-name="Gcircumflex" unicode="&#x11c;" horiz-adv-x="741" 
d="M682 363l0.00390625 -363h-49l-9 130h-2c-22.667 -48.667 -55.834 -85 -99.501 -109s-92.834 -36 -147.501 -36s-103.834 10.167 -147.501 30.5s-79 47.833 -106 82.5s-47.667 74 -62 118s-21.5 91 -21.5 141s7.16699 97 21.5 141s35 83.333 62 118
s62.333 62.167 106 82.5s92.834 30.5 147.501 30.5c77.333 0 143 -20.5 197 -61.5s87.667 -99.5 101 -175.5h-68c-4.66699 44.667 -28.334 85.667 -71.001 123s-95.667 56 -159 56c-45.333 0 -85.666 -9 -120.999 -27s-63.5 -42 -84.5 -72s-36.833 -63.167 -47.5 -99.5
s-16 -74.833 -16 -115.5s5.33301 -79.167 16 -115.5s26.5 -69.5 47.5 -99.5s49.167 -54 84.5 -72s75.666 -27 120.999 -27c77.333 0 138.166 24.333 182.499 73s65.833 111.667 64.5 189h-243v58h303zM408.004 920l114 -141h-65l-86 102l-88 -102h-58l114 141h69z" />
    <glyph glyph-name="gcircumflex" unicode="&#x11d;" 
d="M496 516l-0.000976562 -474c0 -80.667 -18 -142.167 -54 -184.5s-94.333 -63.5 -175 -63.5c-56.667 0 -105.5 13.167 -146.5 39.5s-63.5 65.166 -67.5 116.499h63c6 -35.333 23 -61.333 51 -78s61.333 -25 100 -25c57.333 0 99.333 16.333 126 49s40 81.334 40 146.001
v70h-2c-14.667 -32.667 -36.5 -58.5 -65.5 -77.5s-61.833 -28.5 -98.5 -28.5c-78.667 0 -137.167 24.333 -175.5 73s-57.5 112.667 -57.5 192c0 74 20.833 135.833 62.5 185.5s98.5 74.5 170.5 74.5c36.667 0 69.834 -9.83301 99.501 -29.5s51.167 -44.5 64.5 -74.5h2v89h63
zM266.999 59c52 0 92.667 20.167 122 60.5s44 88.5 44 144.5c0 57.333 -13.833 107.333 -41.5 150s-69.167 64 -124.5 64c-56 0 -98.333 -20.833 -127 -62.5s-43 -92.167 -43 -151.5c0 -56.667 14.5 -105 43.5 -145s71.167 -60 126.5 -60zM324.999 730l114 -141h-65l-86 102
l-88 -102h-58l114 141h69z" />
    <glyph glyph-name="Gbreve" unicode="&#x11e;" horiz-adv-x="741" 
d="M682 363l0.00390625 -363h-49l-9 130h-2c-22.667 -48.667 -55.834 -85 -99.501 -109s-92.834 -36 -147.501 -36s-103.834 10.167 -147.501 30.5s-79 47.833 -106 82.5s-47.667 74 -62 118s-21.5 91 -21.5 141s7.16699 97 21.5 141s35 83.333 62 118
s62.333 62.167 106 82.5s92.834 30.5 147.501 30.5c77.333 0 143 -20.5 197 -61.5s87.667 -99.5 101 -175.5h-68c-4.66699 44.667 -28.334 85.667 -71.001 123s-95.667 56 -159 56c-45.333 0 -85.666 -9 -120.999 -27s-63.5 -42 -84.5 -72s-36.833 -63.167 -47.5 -99.5
s-16 -74.833 -16 -115.5s5.33301 -79.167 16 -115.5s26.5 -69.5 47.5 -99.5s49.167 -54 84.5 -72s75.666 -27 120.999 -27c77.333 0 138.166 24.333 182.499 73s65.833 111.667 64.5 189h-243v58h303zM231.004 914h39c1.33301 -25.333 12.166 -45.333 32.499 -60
s43.833 -22 70.5 -22s50 7.33301 70 22s32 34.667 36 60h39c-5.33301 -39.333 -20.833 -70.333 -46.5 -93s-58.5 -34 -98.5 -34c-40.667 0 -73.667 11.167 -99 33.5s-39.666 53.5 -42.999 93.5z" />
    <glyph glyph-name="gbreve" unicode="&#x11f;" 
d="M496 516l-0.000976562 -474c0 -80.667 -18 -142.167 -54 -184.5s-94.333 -63.5 -175 -63.5c-56.667 0 -105.5 13.167 -146.5 39.5s-63.5 65.166 -67.5 116.499h63c6 -35.333 23 -61.333 51 -78s61.333 -25 100 -25c57.333 0 99.333 16.333 126 49s40 81.334 40 146.001
v70h-2c-14.667 -32.667 -36.5 -58.5 -65.5 -77.5s-61.833 -28.5 -98.5 -28.5c-78.667 0 -137.167 24.333 -175.5 73s-57.5 112.667 -57.5 192c0 74 20.833 135.833 62.5 185.5s98.5 74.5 170.5 74.5c36.667 0 69.834 -9.83301 99.501 -29.5s51.167 -44.5 64.5 -74.5h2v89h63
zM266.999 59c52 0 92.667 20.167 122 60.5s44 88.5 44 144.5c0 57.333 -13.833 107.333 -41.5 150s-69.167 64 -124.5 64c-56 0 -98.333 -20.833 -127 -62.5s-43 -92.167 -43 -151.5c0 -56.667 14.5 -105 43.5 -145s71.167 -60 126.5 -60zM124.999 724h39
c1.33301 -25.333 12.166 -45.333 32.499 -60s43.833 -22 70.5 -22s50 7.33301 70 22s32 34.667 36 60h39c-5.33301 -39.333 -20.833 -70.333 -46.5 -93s-58.5 -34 -98.5 -34c-40.667 0 -73.667 11.167 -99 33.5s-39.666 53.5 -42.999 93.5z" />
    <glyph glyph-name="Gdotaccent" unicode="&#x120;" horiz-adv-x="741" 
d="M682 363l0.00390625 -363h-49l-9 130h-2c-22.667 -48.667 -55.834 -85 -99.501 -109s-92.834 -36 -147.501 -36s-103.834 10.167 -147.501 30.5s-79 47.833 -106 82.5s-47.667 74 -62 118s-21.5 91 -21.5 141s7.16699 97 21.5 141s35 83.333 62 118
s62.333 62.167 106 82.5s92.834 30.5 147.501 30.5c77.333 0 143 -20.5 197 -61.5s87.667 -99.5 101 -175.5h-68c-4.66699 44.667 -28.334 85.667 -71.001 123s-95.667 56 -159 56c-45.333 0 -85.666 -9 -120.999 -27s-63.5 -42 -84.5 -72s-36.833 -63.167 -47.5 -99.5
s-16 -74.833 -16 -115.5s5.33301 -79.167 16 -115.5s26.5 -69.5 47.5 -99.5s49.167 -54 84.5 -72s75.666 -27 120.999 -27c77.333 0 138.166 24.333 182.499 73s65.833 111.667 64.5 189h-243v58h303zM410.004 800h-68v101h68v-101z" />
    <glyph glyph-name="gdotaccent" unicode="&#x121;" 
d="M496 516l-0.000976562 -474c0 -80.667 -18 -142.167 -54 -184.5s-94.333 -63.5 -175 -63.5c-56.667 0 -105.5 13.167 -146.5 39.5s-63.5 65.166 -67.5 116.499h63c6 -35.333 23 -61.333 51 -78s61.333 -25 100 -25c57.333 0 99.333 16.333 126 49s40 81.334 40 146.001
v70h-2c-14.667 -32.667 -36.5 -58.5 -65.5 -77.5s-61.833 -28.5 -98.5 -28.5c-78.667 0 -137.167 24.333 -175.5 73s-57.5 112.667 -57.5 192c0 74 20.833 135.833 62.5 185.5s98.5 74.5 170.5 74.5c36.667 0 69.834 -9.83301 99.501 -29.5s51.167 -44.5 64.5 -74.5h2v89h63
zM266.999 59c52 0 92.667 20.167 122 60.5s44 88.5 44 144.5c0 57.333 -13.833 107.333 -41.5 150s-69.167 64 -124.5 64c-56 0 -98.333 -20.833 -127 -62.5s-43 -92.167 -43 -151.5c0 -56.667 14.5 -105 43.5 -145s71.167 -60 126.5 -60zM310.999 610h-68v101h68v-101z" />
    <glyph glyph-name="Gcommaaccent" unicode="&#x122;" horiz-adv-x="741" 
d="M682 363l0.00390625 -363h-49l-9 130h-2c-22.667 -48.667 -55.834 -85 -99.501 -109s-92.834 -36 -147.501 -36s-103.834 10.167 -147.501 30.5s-79 47.833 -106 82.5s-47.667 74 -62 118s-21.5 91 -21.5 141s7.16699 97 21.5 141s35 83.333 62 118
s62.333 62.167 106 82.5s92.834 30.5 147.501 30.5c77.333 0 143 -20.5 197 -61.5s87.667 -99.5 101 -175.5h-68c-4.66699 44.667 -28.334 85.667 -71.001 123s-95.667 56 -159 56c-45.333 0 -85.666 -9 -120.999 -27s-63.5 -42 -84.5 -72s-36.833 -63.167 -47.5 -99.5
s-16 -74.833 -16 -115.5s5.33301 -79.167 16 -115.5s26.5 -69.5 47.5 -99.5s49.167 -54 84.5 -72s75.666 -27 120.999 -27c77.333 0 138.166 24.333 182.499 73s65.833 111.667 64.5 189h-243v58h303zM331.004 -50h86v-80c0 -46 -28.667 -70.333 -86 -73v28
c24 4.66699 37 16 39 34h-39v91z" />
    <glyph glyph-name="gcommaaccent" unicode="&#x123;" 
d="M496 516l-0.000976562 -474c0 -80.667 -18 -142.167 -54 -184.5s-94.333 -63.5 -175 -63.5c-56.667 0 -105.5 13.167 -146.5 39.5s-63.5 65.166 -67.5 116.499h63c6 -35.333 23 -61.333 51 -78s61.333 -25 100 -25c57.333 0 99.333 16.333 126 49s40 81.334 40 146.001
v70h-2c-14.667 -32.667 -36.5 -58.5 -65.5 -77.5s-61.833 -28.5 -98.5 -28.5c-78.667 0 -137.167 24.333 -175.5 73s-57.5 112.667 -57.5 192c0 74 20.833 135.833 62.5 185.5s98.5 74.5 170.5 74.5c36.667 0 69.834 -9.83301 99.501 -29.5s51.167 -44.5 64.5 -74.5h2v89h63
zM266.999 59c52 0 92.667 20.167 122 60.5s44 88.5 44 144.5c0 57.333 -13.833 107.333 -41.5 150s-69.167 64 -124.5 64c-56 0 -98.333 -20.833 -127 -62.5s-43 -92.167 -43 -151.5c0 -56.667 14.5 -105 43.5 -145s71.167 -60 126.5 -60zM321.999 623h-86v80
c0 46 28.667 70.333 86 73v-28c-24 -4.66699 -37 -16 -39 -34h39v-91z" />
    <glyph glyph-name="Hcircumflex" unicode="&#x124;" horiz-adv-x="704" 
d="M72 0v714h68v-310h424v310h68v-714h-68v346h-424v-346h-68zM388 920l114 -141h-65l-86 102l-88 -102h-58l114 141h69z" />
    <glyph glyph-name="hcircumflex" unicode="&#x125;" horiz-adv-x="537" 
d="M59 0v714h63v-287h2c12 30.667 33.333 55.667 64 75s64.334 29 101.001 29c69.333 0 118.166 -16.833 146.499 -50.5s42.5 -83.167 42.5 -148.5v-332h-63v322c0 104 -43.667 156 -131 156c-49.333 0 -88.333 -16.5 -117 -49.5s-43.667 -75.5 -45 -127.5v-301h-63z
M300 920l114 -141h-65l-86 102l-88 -102h-58l114 141h69z" />
    <glyph glyph-name="Hbar" unicode="&#x126;" horiz-adv-x="704" 
d="M72 0v714h68v-198h424v198h68v-714h-68v336h-424v-336h-68zM564 471h-424v-77h424v77z" />
    <glyph glyph-name="hbar" unicode="&#x127;" horiz-adv-x="560" 
d="M82 629v85h63v-85h153v-45h-153v-157h2c12 30.667 33.333 55.667 64 75s64.334 29 101.001 29c69.333 0 118.166 -16.833 146.499 -50.5s42.5 -83.167 42.5 -148.5v-332h-63v322c0 104 -43.667 156 -131 156c-49.333 0 -88.333 -16.5 -117 -49.5
s-43.667 -75.5 -45 -127.5v-301h-63v584h-82v45h82z" />
    <glyph glyph-name="Itilde" unicode="&#x128;" horiz-adv-x="222" 
d="M77 0v714h68v-714h-68zM230 900l38 0.000976562c-4.66699 -26 -14.167 -48.333 -28.5 -67s-33.833 -28 -58.5 -28c-19.333 0 -44.166 7.66699 -74.499 23s-51.5 23 -63.5 23c-25.333 0 -42 -17 -50 -51h-39c2.66699 25.333 12 47.666 28 66.999s36.333 29 61 29
c20.667 0 45.667 -7.33301 75 -22s49.333 -22 60 -22c25.333 0 42.666 16 51.999 48z" />
    <glyph glyph-name="itilde" unicode="&#x129;" horiz-adv-x="185" 
d="M124 0h-63v516h63v-516zM212 710l38 0.000976562c-4.66699 -26 -14.167 -48.333 -28.5 -67s-33.833 -28 -58.5 -28c-19.333 0 -44.166 7.66699 -74.499 23s-51.5 23 -63.5 23c-25.333 0 -42 -17 -50 -51h-39c2.66699 25.333 12 47.666 28 66.999s36.333 29 61 29
c20.667 0 45.667 -7.33301 75 -22s49.333 -22 60 -22c25.333 0 42.666 16 51.999 48z" />
    <glyph glyph-name="Imacron" unicode="&#x12a;" horiz-adv-x="222" 
d="M77 0v714h68v-714h-68zM276 828h-329v45h329v-45z" />
    <glyph glyph-name="imacron" unicode="&#x12b;" horiz-adv-x="185" 
d="M124 0h-63v516h63v-516zM258 638h-329v45h329v-45z" />
    <glyph glyph-name="Iogonek" unicode="&#x12e;" horiz-adv-x="222" 
d="M145 714l0.000976562 -714c-31.333 -29.333 -51.5 -51.833 -60.5 -67.5s-13.5 -32.167 -13.5 -49.5c0 -15.333 3.83301 -27 11.5 -35s17.167 -12 28.5 -12c20.667 0 37 13.667 49 41l27 -13c-18.667 -44.667 -48.334 -67 -89.001 -67c-26 0 -46.167 7.5 -60.5 22.5
s-21.5 34.833 -21.5 59.5c0 38.667 31.667 79 95 121h-34v714h68z" />
    <glyph glyph-name="iogonek" unicode="&#x12f;" horiz-adv-x="185" 
d="M124 516l-0.000976562 -515.999c-31.333 -28.667 -51.5 -51 -60.5 -67s-13.5 -32.667 -13.5 -50c0 -15.333 4 -27 12 -35s17.333 -12 28 -12c20.667 0 37 13.667 49 41l26 -13c-17.333 -44.667 -46.666 -67 -87.999 -67c-25.333 0 -45.333 7.5 -60 22.5
s-22 34.833 -22 59.5c0 37.333 31.667 77.666 95 120.999h-29v516h63zM60.999 613.001v101h63v-101h-63z" />
    <glyph glyph-name="Idotaccent" unicode="&#x130;" horiz-adv-x="222" 
d="M77 0v714h68v-714h-68zM145 800h-68v101h68v-101z" />
    <glyph glyph-name="dotlessi" unicode="&#x131;" horiz-adv-x="185" 
d="M124 0h-63v516h63v-516z" />
    <glyph glyph-name="Jcircumflex" unicode="&#x134;" horiz-adv-x="500" 
d="M360 228l0.00292969 485.998h68v-515c0 -74 -15.833 -128.167 -47.5 -162.5s-85.167 -51.5 -160.5 -51.5c-132.667 0 -199 81.333 -199 244h68c0 -2 0.166992 -8.5 0.5 -19.5s0.666016 -18.833 0.999023 -23.5s1.16602 -12.667 2.49902 -24s3 -19.833 5 -25.5l8 -23
c3.33301 -9.66699 7.16602 -17.167 11.499 -22.5s10 -11.666 17 -18.999s14.833 -12.666 23.5 -15.999s18.667 -6.33301 30 -9s24 -4 38 -4c52 0 87.333 13.833 106 41.5s28 75.5 28 143.5zM425.003 919.998l114 -141h-65l-86 102l-88 -102h-58l114 141h69z" />
    <glyph glyph-name="jcircumflex" unicode="&#x135;" horiz-adv-x="185" 
d="M61 -63l-0.00292969 578.998h63v-564c0 -95.333 -36.667 -143 -110 -143c-5.33301 0 -12.666 0.333008 -21.999 1s-16.666 1 -21.999 1v52c14.667 -1.33301 26 -1.66602 34 -0.999023c22.667 0 37.834 6.33301 45.501 19s11.5 31.334 11.5 56.001zM124.997 729.998
l114 -141h-65l-86 102l-88 -102h-58l114 141h69z" />
    <glyph glyph-name="Kcommaaccent" unicode="&#x136;" horiz-adv-x="648" 
d="M72 0v714h68v-384l415 384h92l-319 -295l334 -419h-88l-297 372l-137 -127v-245h-68zM291 -50h86v-80c0 -46 -28.667 -70.333 -86 -73v28c24 4.66699 37 16 39 34h-39v91z" />
    <glyph glyph-name="kcommaaccent" unicode="&#x137;" horiz-adv-x="500" 
d="M60 0v714h63v-448l286 250h84l-220 -191l235 -325h-79l-204 281l-102 -85v-196h-63zM221 -50h86v-80c0 -46 -28.667 -70.333 -86 -73v28c24 4.66699 37 16 39 34h-39v91z" />
    <glyph glyph-name="Lacute" unicode="&#x139;" horiz-adv-x="537" 
d="M72 0v714h68v-656h400v-58h-468zM262 921l-132 -141h-51l105 141h78z" />
    <glyph glyph-name="lacute" unicode="&#x13a;" horiz-adv-x="185" 
d="M61 0v714h63v-714h-63zM244 921l-132 -141h-51l105 141h78z" />
    <glyph glyph-name="Lcommaaccent" unicode="&#x13b;" horiz-adv-x="537" 
d="M72 0v714h68v-656h400v-58h-468zM250 -50h86v-80c0 -46 -28.667 -70.333 -86 -73v28c24 4.66699 37 16 39 34h-39v91z" />
    <glyph glyph-name="lcommaaccent" unicode="&#x13c;" horiz-adv-x="185" 
d="M61 0v714h63v-714h-63zM50 -50h86v-80c0 -46 -28.667 -70.333 -86 -73v28c24 4.66699 37 16 39 34h-39v91z" />
    <glyph glyph-name="Lcaron" unicode="&#x13d;" horiz-adv-x="537" 
d="M72 0v714h68v-656h400v-58h-468zM378 714l-86 -141h-47l55 141h78z" />
    <glyph glyph-name="lcaron" unicode="&#x13e;" horiz-adv-x="255" 
d="M61 0v714h63v-714h-63zM307 714l-86 -141h-47l55 141h78z" />
    <glyph glyph-name="Ldot" unicode="&#x13f;" horiz-adv-x="537" 
d="M72 0v714h68v-656h400v-58h-468zM356 415h-68v101h68v-101z" />
    <glyph glyph-name="ldot" unicode="&#x140;" horiz-adv-x="296" 
d="M61 0v714h63v-714h-63zM256 415h-68v101h68v-101z" />
    <glyph glyph-name="Lslash" unicode="&#x141;" horiz-adv-x="537" 
d="M72 306v408h68v-361l243 168v-56l-243 -167v-240h400v-58h-468v251l-82 -57v56z" />
    <glyph glyph-name="lslash" unicode="&#x142;" horiz-adv-x="185" 
d="M61 395v319h63v-267l67 55v-55l-67 -55v-392h-63v340l-67 -55v55z" />
    <glyph glyph-name="Nacute" unicode="&#x143;" horiz-adv-x="704" 
d="M71 0v714h76l416 -604h2v604h68v-714h-76l-416 604h-2v-604h-68zM497 921l-132 -141h-51l105 141h78z" />
    <glyph glyph-name="nacute" unicode="&#x144;" horiz-adv-x="537" 
d="M59 0v516h63v-89h2c12 30.667 33.333 55.667 64 75s64.334 29 101.001 29c69.333 0 118.166 -16.833 146.499 -50.5s42.5 -83.167 42.5 -148.5v-332h-63v322c0 104 -43.667 156 -131 156c-49.333 0 -88.333 -16.5 -117 -49.5s-43.667 -75.5 -45 -127.5v-301h-63zM419 731
l-132 -141h-51l105 141h78z" />
    <glyph glyph-name="Ncommaaccent" unicode="&#x145;" horiz-adv-x="704" 
d="M71 0v714h76l416 -604h2v604h68v-714h-76l-416 604h-2v-604h-68zM303 -50h86v-80c0 -46 -28.667 -70.333 -86 -73v28c24 4.66699 37 16 39 34h-39v91z" />
    <glyph glyph-name="ncommaaccent" unicode="&#x146;" horiz-adv-x="537" 
d="M59 0v516h63v-89h2c12 30.667 33.333 55.667 64 75s64.334 29 101.001 29c69.333 0 118.166 -16.833 146.499 -50.5s42.5 -83.167 42.5 -148.5v-332h-63v322c0 104 -43.667 156 -131 156c-49.333 0 -88.333 -16.5 -117 -49.5s-43.667 -75.5 -45 -127.5v-301h-63zM231 -50
h86v-80c0 -46 -28.667 -70.333 -86 -73v28c24 4.66699 37 16 39 34h-39v91z" />
    <glyph glyph-name="Ncaron" unicode="&#x147;" horiz-adv-x="704" 
d="M71 0v714h76l416 -604h2v604h68v-714h-76l-416 604h-2v-604h-68zM311 780l-114 141h65l86 -102l88 102h58l-114 -141h-69z" />
    <glyph glyph-name="ncaron" unicode="&#x148;" horiz-adv-x="537" 
d="M59 0v516h63v-89h2c12 30.667 33.333 55.667 64 75s64.334 29 101.001 29c69.333 0 118.166 -16.833 146.499 -50.5s42.5 -83.167 42.5 -148.5v-332h-63v322c0 104 -43.667 156 -131 156c-49.333 0 -88.333 -16.5 -117 -49.5s-43.667 -75.5 -45 -127.5v-301h-63zM233 590
l-114 141h65l86 -102l88 102h58l-114 -141h-69z" />
    <glyph glyph-name="Omacron" unicode="&#x14c;" horiz-adv-x="741" 
d="M102 357c0 -40.667 5.33301 -79.167 16 -115.5s26.5 -69.5 47.5 -99.5s49.167 -54 84.5 -72s75.666 -27 120.999 -27s85.666 9 120.999 27s63.333 42 84 72s36.334 63.167 47.001 99.5s16 74.833 16 115.5s-5.33301 79.167 -16 115.5s-26.334 69.5 -47.001 99.5
s-48.667 54 -84 72s-75.666 27 -120.999 27s-85.666 -9 -120.999 -27s-63.5 -42 -84.5 -72s-36.833 -63.167 -47.5 -99.5s-16 -74.833 -16 -115.5zM34 357c0 50 7.16699 97 21.5 141s35 83.333 62 118s62.333 62.167 106 82.5s92.834 30.5 147.501 30.5
c72 0 133.833 -17.667 185.5 -53s89.667 -80.5 114 -135.5s36.5 -116.167 36.5 -183.5s-12.167 -128.5 -36.5 -183.5s-62.333 -100.167 -114 -135.5s-113.5 -53 -185.5 -53c-54.667 0 -103.834 10.167 -147.501 30.5s-79 47.833 -106 82.5s-47.667 74 -62 118
s-21.5 91 -21.5 141zM537 828h-329v45h329v-45z" />
    <glyph glyph-name="omacron" unicode="&#x14d;" 
d="M278 478c-56.667 0 -101 -21.833 -133 -65.5s-48 -95.167 -48 -154.5s16 -110.833 48 -154.5s76.333 -65.5 133 -65.5s101 21.833 133 65.5s48 95.167 48 154.5s-16 110.833 -48 154.5s-76.333 65.5 -133 65.5zM278 531c76 0 135.667 -26.167 179 -78.5
s65 -117.166 65 -194.499s-21.667 -142.166 -65 -194.499s-103 -78.5 -179 -78.5s-135.667 26.167 -179 78.5s-65 117.166 -65 194.499s21.667 142.166 65 194.499s103 78.5 179 78.5zM447 638h-329v45h329v-45z" />
    <glyph glyph-name="Obreve" unicode="&#x14e;" horiz-adv-x="741" 
d="M102 357c0 -40.667 5.33301 -79.167 16 -115.5s26.5 -69.5 47.5 -99.5s49.167 -54 84.5 -72s75.666 -27 120.999 -27s85.666 9 120.999 27s63.333 42 84 72s36.334 63.167 47.001 99.5s16 74.833 16 115.5s-5.33301 79.167 -16 115.5s-26.334 69.5 -47.001 99.5
s-48.667 54 -84 72s-75.666 27 -120.999 27s-85.666 -9 -120.999 -27s-63.5 -42 -84.5 -72s-36.833 -63.167 -47.5 -99.5s-16 -74.833 -16 -115.5zM34 357c0 50 7.16699 97 21.5 141s35 83.333 62 118s62.333 62.167 106 82.5s92.834 30.5 147.501 30.5
c72 0 133.833 -17.667 185.5 -53s89.667 -80.5 114 -135.5s36.5 -116.167 36.5 -183.5s-12.167 -128.5 -36.5 -183.5s-62.333 -100.167 -114 -135.5s-113.5 -53 -185.5 -53c-54.667 0 -103.834 10.167 -147.501 30.5s-79 47.833 -106 82.5s-47.667 74 -62 118
s-21.5 91 -21.5 141zM229 914h39c1.33301 -25.333 12.166 -45.333 32.499 -60s43.833 -22 70.5 -22s50 7.33301 70 22s32 34.667 36 60h39c-5.33301 -39.333 -20.833 -70.333 -46.5 -93s-58.5 -34 -98.5 -34c-40.667 0 -73.667 11.167 -99 33.5s-39.666 53.5 -42.999 93.5z
" />
    <glyph glyph-name="obreve" unicode="&#x14f;" 
d="M278 478c-56.667 0 -101 -21.833 -133 -65.5s-48 -95.167 -48 -154.5s16 -110.833 48 -154.5s76.333 -65.5 133 -65.5s101 21.833 133 65.5s48 95.167 48 154.5s-16 110.833 -48 154.5s-76.333 65.5 -133 65.5zM278 531c76 0 135.667 -26.167 179 -78.5
s65 -117.166 65 -194.499s-21.667 -142.166 -65 -194.499s-103 -78.5 -179 -78.5s-135.667 26.167 -179 78.5s-65 117.166 -65 194.499s21.667 142.166 65 194.499s103 78.5 179 78.5zM138 724h39c1.33301 -25.333 12.166 -45.333 32.499 -60s43.833 -22 70.5 -22
s50 7.33301 70 22s32 34.667 36 60h39c-5.33301 -39.333 -20.833 -70.333 -46.5 -93s-58.5 -34 -98.5 -34c-40.667 0 -73.667 11.167 -99 33.5s-39.666 53.5 -42.999 93.5z" />
    <glyph glyph-name="Ohungarumlaut" unicode="&#x150;" horiz-adv-x="741" 
d="M102 357c0 -40.667 5.33301 -79.167 16 -115.5s26.5 -69.5 47.5 -99.5s49.167 -54 84.5 -72s75.666 -27 120.999 -27s85.666 9 120.999 27s63.333 42 84 72s36.334 63.167 47.001 99.5s16 74.833 16 115.5s-5.33301 79.167 -16 115.5s-26.334 69.5 -47.001 99.5
s-48.667 54 -84 72s-75.666 27 -120.999 27s-85.666 -9 -120.999 -27s-63.5 -42 -84.5 -72s-36.833 -63.167 -47.5 -99.5s-16 -74.833 -16 -115.5zM34 357c0 50 7.16699 97 21.5 141s35 83.333 62 118s62.333 62.167 106 82.5s92.834 30.5 147.501 30.5
c72 0 133.833 -17.667 185.5 -53s89.667 -80.5 114 -135.5s36.5 -116.167 36.5 -183.5s-12.167 -128.5 -36.5 -183.5s-62.333 -100.167 -114 -135.5s-113.5 -53 -185.5 -53c-54.667 0 -103.834 10.167 -147.501 30.5s-79 47.833 -106 82.5s-47.667 74 -62 118
s-21.5 91 -21.5 141zM470 780h-51l101 141h76zM314 780h-51l101 141h76z" />
    <glyph glyph-name="ohungarumlaut" unicode="&#x151;" 
d="M278 478c-56.667 0 -101 -21.833 -133 -65.5s-48 -95.167 -48 -154.5s16 -110.833 48 -154.5s76.333 -65.5 133 -65.5s101 21.833 133 65.5s48 95.167 48 154.5s-16 110.833 -48 154.5s-76.333 65.5 -133 65.5zM278 531c76 0 135.667 -26.167 179 -78.5
s65 -117.166 65 -194.499s-21.667 -142.166 -65 -194.499s-103 -78.5 -179 -78.5s-135.667 26.167 -179 78.5s-65 117.166 -65 194.499s21.667 142.166 65 194.499s103 78.5 179 78.5zM378 590h-51l101 141h76zM222 590h-51l101 141h76z" />
    <glyph glyph-name="OE" unicode="&#x152;" horiz-adv-x="1074" 
d="M637 656l-0.000976562 -258h368v-58h-368v-282h409v-58h-477v70c-23.333 -27.333 -52.5 -48.333 -87.5 -63s-70.5 -22 -106.5 -22c-102.667 0 -184.667 36 -246 108s-92 160 -92 264s30.667 192 92 264s143.333 108 246 108c84.667 0 149.334 -24.667 194.001 -74v59h474
v-58h-406zM568.999 177v332c0 30.667 -1.66699 52.667 -5 66c-11.333 28.667 -36.333 51.834 -75 69.501s-76.667 26.5 -114 26.5c-83.333 0 -149.166 -30.333 -197.499 -91s-72.5 -135 -72.5 -223s24.167 -162.333 72.5 -223s114.166 -91 197.499 -91
c76 0 134.667 26.333 176 79c10.667 13.333 16.667 31.666 18 54.999z" />
    <glyph glyph-name="oe" unicode="&#x153;" horiz-adv-x="889" 
d="M479 294h321c0 51.333 -14.167 94.833 -42.5 130.5s-67.5 53.5 -117.5 53.5c-51.333 0 -91 -17.667 -119 -53s-42 -79 -42 -131zM799 166l62.999 -0.00195312c-14 -58 -40.667 -102.667 -80 -134s-88.666 -47 -147.999 -47c-44 0 -83.167 11.5 -117.5 34.5
s-56.5 55.167 -66.5 96.5h-2c-12 -42.667 -34.333 -75.167 -67 -97.5s-72 -33.5 -118 -33.5c-76.667 0 -133.667 25.833 -171 77.5s-56 116.834 -56 195.501c0 76.667 19.833 141.334 59.5 194.001s96.5 79 170.5 79c45.333 0 84 -10.5 116 -31.5s54.667 -52.833 68 -95.5h2
c14 38.667 37.833 69.5 71.5 92.5s73.167 34.5 118.5 34.5c75.333 0 131 -24.167 167 -72.5s54 -120.833 54 -217.5h-384c0 -55.333 13.667 -103 41 -143s67.333 -60 120 -60c81.333 0 134.333 42.667 159 128zM264.999 477.998c-41.333 0 -74.999 -12.332 -100.999 -36.999
s-43.333 -53.334 -52 -86.001s-13 -69 -13 -109c0 -57.333 13.667 -106.333 41 -147s68.666 -61 123.999 -61c101.333 0 152 74.667 152 224c0 144 -50.333 216 -151 216z" />
    <glyph glyph-name="Racute" unicode="&#x154;" horiz-adv-x="667" 
d="M140 656v-281h254c43.333 0 79.833 12.667 109.5 38s44.5 59 44.5 101c0 44.667 -13 79.5 -39 104.5s-64.333 37.5 -115 37.5h-254zM72 0l0.00488281 714.002h327c62.667 0 114.5 -15.667 155.5 -47s61.5 -77.666 61.5 -138.999c0 -46.667 -12 -86.334 -36 -119.001
s-58.333 -53.667 -103 -63v-2c44 -6 75.167 -22.5 93.5 -49.5s28.833 -64.167 31.5 -111.5c0 -2 0.5 -13 1.5 -33s2 -34.667 3 -44s2.5 -22.333 4.5 -39s5 -30.334 9 -41.001s9 -19.334 15 -26.001h-75c-4 6 -7.16699 14.333 -9.5 25s-4 20.167 -5 28.5s-1.83301 19 -2.5 32
s-1.33398 21.5 -2.00098 25.5c-1.33301 25.333 -2.83301 45.833 -4.5 61.5s-5.33398 34 -11.001 55s-13.334 37.333 -23.001 49s-23.334 21.5 -41.001 29.5s-38.834 11.667 -63.501 11h-258v-317h-68zM468.005 921.002l-132 -141h-51l105 141h78z" />
    <glyph glyph-name="racute" unicode="&#x155;" horiz-adv-x="315" 
d="M60 0v516.001h58v-121h2c16 42.667 41 75.167 75 97.5s74 32.5 120 30.5v-63c-56 2.66699 -102 -13.833 -138 -49.5s-54 -80.834 -54 -135.501v-275h-63zM249 731.001l-132 -141h-51l105 141h78z" />
    <glyph glyph-name="Rcommaaccent" unicode="&#x156;" horiz-adv-x="667" 
d="M140 656v-281h254c43.333 0 79.833 12.667 109.5 38s44.5 59 44.5 101c0 44.667 -13 79.5 -39 104.5s-64.333 37.5 -115 37.5h-254zM72 0l0.00488281 714.002h327c62.667 0 114.5 -15.667 155.5 -47s61.5 -77.666 61.5 -138.999c0 -46.667 -12 -86.334 -36 -119.001
s-58.333 -53.667 -103 -63v-2c44 -6 75.167 -22.5 93.5 -49.5s28.833 -64.167 31.5 -111.5c0 -2 0.5 -13 1.5 -33s2 -34.667 3 -44s2.5 -22.333 4.5 -39s5 -30.334 9 -41.001s9 -19.334 15 -26.001h-75c-4 6 -7.16699 14.333 -9.5 25s-4 20.167 -5 28.5s-1.83301 19 -2.5 32
s-1.33398 21.5 -2.00098 25.5c-1.33301 25.333 -2.83301 45.833 -4.5 61.5s-5.33398 34 -11.001 55s-13.334 37.333 -23.001 49s-23.334 21.5 -41.001 29.5s-38.834 11.667 -63.501 11h-258v-317h-68zM294.005 -49.998h86v-80c0 -46 -28.667 -70.333 -86 -73v28
c24 4.66699 37 16 39 34h-39v91z" />
    <glyph glyph-name="rcommaaccent" unicode="&#x157;" horiz-adv-x="315" 
d="M60 0v516.001h58v-121h2c16 42.667 41 75.167 75 97.5s74 32.5 120 30.5v-63c-56 2.66699 -102 -13.833 -138 -49.5s-54 -80.834 -54 -135.501v-275h-63zM50 -49.999h86v-80c0 -46 -28.667 -70.333 -86 -73v28c24 4.66699 37 16 39 34h-39v91z" />
    <glyph glyph-name="Rcaron" unicode="&#x158;" horiz-adv-x="667" 
d="M140 656v-281h254c43.333 0 79.833 12.667 109.5 38s44.5 59 44.5 101c0 44.667 -13 79.5 -39 104.5s-64.333 37.5 -115 37.5h-254zM72 0l0.00488281 714.002h327c62.667 0 114.5 -15.667 155.5 -47s61.5 -77.666 61.5 -138.999c0 -46.667 -12 -86.334 -36 -119.001
s-58.333 -53.667 -103 -63v-2c44 -6 75.167 -22.5 93.5 -49.5s28.833 -64.167 31.5 -111.5c0 -2 0.5 -13 1.5 -33s2 -34.667 3 -44s2.5 -22.333 4.5 -39s5 -30.334 9 -41.001s9 -19.334 15 -26.001h-75c-4 6 -7.16699 14.333 -9.5 25s-4 20.167 -5 28.5s-1.83301 19 -2.5 32
s-1.33398 21.5 -2.00098 25.5c-1.33301 25.333 -2.83301 45.833 -4.5 61.5s-5.33398 34 -11.001 55s-13.334 37.333 -23.001 49s-23.334 21.5 -41.001 29.5s-38.834 11.667 -63.501 11h-258v-317h-68zM275.005 780.002l-114 141h65l86 -102l88 102h58l-114 -141h-69z" />
    <glyph glyph-name="rcaron" unicode="&#x159;" horiz-adv-x="315" 
d="M60 0v516.001h58v-121h2c16 42.667 41 75.167 75 97.5s74 32.5 120 30.5v-63c-56 2.66699 -102 -13.833 -138 -49.5s-54 -80.834 -54 -135.501v-275h-63zM150 590.001l-114 141h65l86 -102l88 102h58l-114 -141h-69z" />
    <glyph glyph-name="Sacute" unicode="&#x15a;" horiz-adv-x="630" 
d="M36 235l68 -0.000976562c-2.66699 -128 75 -192 233 -192c27.333 0 54.833 4.5 82.5 13.5s52.334 25.167 74.001 48.5s32.5 51 32.5 83c0 62.667 -49 105.667 -147 129l-159 39c-49.333 12.667 -88.5 31.667 -117.5 57s-43.5 63.666 -43.5 114.999
c0 20 3.66699 40.5 11 61.5s19.333 42.5 36 64.5s42.167 40 76.5 54s75.166 21 122.499 21c75.333 0 138.166 -19.333 188.499 -58s75.5 -93.334 75.5 -164.001h-68c-2.66699 52 -22.5 92.333 -59.5 121s-82.167 43 -135.5 43c-52 0 -94.833 -11.333 -128.5 -34
s-50.5 -58.667 -50.5 -108c0 -56.667 36 -93 108 -109l174 -43c58 -15.333 103.333 -37.166 136 -65.499s49 -69.166 49 -122.499c0 -13.333 -1.16699 -26.833 -3.5 -40.5s-9 -31 -20 -52s-25.5 -39.167 -43.5 -54.5s-44.833 -28.666 -80.5 -39.999s-77.5 -17 -125.5 -17
c-89.333 0 -160.166 20.833 -212.499 62.5s-76.5 104.167 -72.5 187.5zM460 920.999l-132 -141h-51l105 141h78z" />
    <glyph glyph-name="sacute" unicode="&#x15b;" horiz-adv-x="481" 
d="M432 365h-63.001c-1.33301 37.333 -14.666 65.5 -39.999 84.5s-57 28.5 -95 28.5c-32.667 0 -61.167 -7.16699 -85.5 -21.5s-36.5 -36.833 -36.5 -67.5c0 -40 35.667 -69 107 -87l84 -19c41.333 -6 76.166 -21 104.499 -45s42.5 -56.667 42.5 -98
c0 -51.333 -20.833 -90 -62.5 -116s-89.834 -39 -144.501 -39c-130.667 0 -201.334 60.667 -212.001 182h63c2.66699 -41.333 17.834 -73.166 45.501 -95.499s63.167 -33.5 106.5 -33.5c36 0 68.5 8.16699 97.5 24.5s43.5 40.833 43.5 73.5c0 27.333 -10 47.666 -30 60.999
s-47.667 24.333 -83 33l-81 18c-47.333 12 -83.166 28 -107.499 48s-36.5 50 -36.5 90c0 48.667 19.333 85 58 109s84 36 136 36c54 0 98.333 -14.167 133 -42.5s53.334 -69.5 56.001 -123.5zM393.999 731l-132 -141h-51l105 141h78z" />
    <glyph glyph-name="Scircumflex" unicode="&#x15c;" horiz-adv-x="630" 
d="M36 235l68 -0.000976562c-2.66699 -128 75 -192 233 -192c27.333 0 54.833 4.5 82.5 13.5s52.334 25.167 74.001 48.5s32.5 51 32.5 83c0 62.667 -49 105.667 -147 129l-159 39c-49.333 12.667 -88.5 31.667 -117.5 57s-43.5 63.666 -43.5 114.999
c0 20 3.66699 40.5 11 61.5s19.333 42.5 36 64.5s42.167 40 76.5 54s75.166 21 122.499 21c75.333 0 138.166 -19.333 188.499 -58s75.5 -93.334 75.5 -164.001h-68c-2.66699 52 -22.5 92.333 -59.5 121s-82.167 43 -135.5 43c-52 0 -94.833 -11.333 -128.5 -34
s-50.5 -58.667 -50.5 -108c0 -56.667 36 -93 108 -109l174 -43c58 -15.333 103.333 -37.166 136 -65.499s49 -69.166 49 -122.499c0 -13.333 -1.16699 -26.833 -3.5 -40.5s-9 -31 -20 -52s-25.5 -39.167 -43.5 -54.5s-44.833 -28.666 -80.5 -39.999s-77.5 -17 -125.5 -17
c-89.333 0 -160.166 20.833 -212.499 62.5s-76.5 104.167 -72.5 187.5zM352 919.999l114 -141h-65l-86 102l-88 -102h-58l114 141h69z" />
    <glyph glyph-name="scircumflex" unicode="&#x15d;" horiz-adv-x="481" 
d="M432 365h-63.001c-1.33301 37.333 -14.666 65.5 -39.999 84.5s-57 28.5 -95 28.5c-32.667 0 -61.167 -7.16699 -85.5 -21.5s-36.5 -36.833 -36.5 -67.5c0 -40 35.667 -69 107 -87l84 -19c41.333 -6 76.166 -21 104.499 -45s42.5 -56.667 42.5 -98
c0 -51.333 -20.833 -90 -62.5 -116s-89.834 -39 -144.501 -39c-130.667 0 -201.334 60.667 -212.001 182h63c2.66699 -41.333 17.834 -73.166 45.501 -95.499s63.167 -33.5 106.5 -33.5c36 0 68.5 8.16699 97.5 24.5s43.5 40.833 43.5 73.5c0 27.333 -10 47.666 -30 60.999
s-47.667 24.333 -83 33l-81 18c-47.333 12 -83.166 28 -107.499 48s-36.5 50 -36.5 90c0 48.667 19.333 85 58 109s84 36 136 36c54 0 98.333 -14.167 133 -42.5s53.334 -69.5 56.001 -123.5zM279.999 730l114 -141h-65l-86 102l-88 -102h-58l114 141h69z" />
    <glyph glyph-name="Scedilla" unicode="&#x15e;" horiz-adv-x="630" 
d="M36 235h67.999c-2.66699 -128 75 -192 233 -192c27.333 0 54.833 4.5 82.5 13.5s52.334 25.167 74.001 48.5s32.5 51 32.5 83c0 62.667 -49 105.667 -147 129l-159 39c-49.333 12.667 -88.5 31.667 -117.5 57s-43.5 63.666 -43.5 114.999c0 20 3.66699 40.5 11 61.5
s19.333 42.5 36 64.5s42.167 40 76.5 54s75.166 21 122.499 21c75.333 0 138.166 -19.333 188.499 -58s75.5 -93.334 75.5 -164.001h-68c-2.66699 52 -22.5 92.333 -59.5 121s-82.167 43 -135.5 43c-52 0 -94.833 -11.333 -128.5 -34s-50.5 -58.667 -50.5 -108
c0 -56.667 36 -93 108 -109l174 -43c58 -15.333 103.333 -37.166 136 -65.499s49 -69.166 49 -122.499c0 -14 -1.66699 -28.333 -5 -43s-10 -32.5 -20 -53.5s-27 -40 -51 -57s-53.667 -29.833 -89 -38.5c-28.667 -7.33301 -63.667 -11.333 -105 -12l-32 -39
c14.667 3.33301 31.334 4.33301 50.001 3c44 -7.33301 66 -29.333 66 -66c0 -28 -11.167 -49.333 -33.5 -64s-47.833 -22 -76.5 -22c-35.333 0 -66.666 7 -93.999 21l14 32c22.667 -9.33301 49 -14 79 -14c35.333 0 53 14.333 53 43c0 11.333 -4.16699 20.5 -12.5 27.5
s-18.5 10.5 -30.5 10.5c-22 0 -39 -2.66699 -51 -8l-16 15l49 62c-28 2 -56.333 6.66699 -85 14c-54.667 14 -97 40.833 -127 80.5s-43.667 91.167 -41 154.5z" />
    <glyph glyph-name="Scedilla" unicode="&#xf6c1;" horiz-adv-x="630" 
d="M36 235h67.999c-2.66699 -128 75 -192 233 -192c27.333 0 54.833 4.5 82.5 13.5s52.334 25.167 74.001 48.5s32.5 51 32.5 83c0 62.667 -49 105.667 -147 129l-159 39c-49.333 12.667 -88.5 31.667 -117.5 57s-43.5 63.666 -43.5 114.999c0 20 3.66699 40.5 11 61.5
s19.333 42.5 36 64.5s42.167 40 76.5 54s75.166 21 122.499 21c75.333 0 138.166 -19.333 188.499 -58s75.5 -93.334 75.5 -164.001h-68c-2.66699 52 -22.5 92.333 -59.5 121s-82.167 43 -135.5 43c-52 0 -94.833 -11.333 -128.5 -34s-50.5 -58.667 -50.5 -108
c0 -56.667 36 -93 108 -109l174 -43c58 -15.333 103.333 -37.166 136 -65.499s49 -69.166 49 -122.499c0 -14 -1.66699 -28.333 -5 -43s-10 -32.5 -20 -53.5s-27 -40 -51 -57s-53.667 -29.833 -89 -38.5c-28.667 -7.33301 -63.667 -11.333 -105 -12l-32 -39
c14.667 3.33301 31.334 4.33301 50.001 3c44 -7.33301 66 -29.333 66 -66c0 -28 -11.167 -49.333 -33.5 -64s-47.833 -22 -76.5 -22c-35.333 0 -66.666 7 -93.999 21l14 32c22.667 -9.33301 49 -14 79 -14c35.333 0 53 14.333 53 43c0 11.333 -4.16699 20.5 -12.5 27.5
s-18.5 10.5 -30.5 10.5c-22 0 -39 -2.66699 -51 -8l-16 15l49 62c-28 2 -56.333 6.66699 -85 14c-54.667 14 -97 40.833 -127 80.5s-43.667 91.167 -41 154.5z" />
    <glyph glyph-name="scedilla" unicode="&#x15f;" horiz-adv-x="481" 
d="M432 365l-63.0059 0.000976562c-1.33301 37.333 -14.666 65.5 -39.999 84.5s-57 28.5 -95 28.5c-32.667 0 -61.167 -7.16699 -85.5 -21.5s-36.5 -36.833 -36.5 -67.5c0 -40 35.667 -69 107 -87l84 -19c41.333 -6 76.166 -21 104.499 -45s42.5 -56.667 42.5 -98
c0 -39.333 -12.667 -71.5 -38 -96.5s-57.333 -41.5 -96 -49.5c-22 -5.33301 -43.333 -8.33301 -64 -9l-32 -39c14.667 3.33301 31.334 4.33301 50.001 3c44 -7.33301 66 -29.333 66 -66c0 -28 -11.167 -49.333 -33.5 -64s-47.833 -22 -76.5 -22
c-35.333 0 -66.666 7 -93.999 21l14 32c22.667 -9.33301 49 -14 79 -14c35.333 0 53 14.333 53 43c0 11.333 -4.16699 20.5 -12.5 27.5s-18.5 10.5 -30.5 10.5c-22 0 -39 -2.66699 -51 -8l-16 15l49 62c-48 2.66699 -88.667 16.667 -122 42
c-37.333 29.333 -58.666 75.666 -63.999 138.999h63c2.66699 -41.333 17.834 -73.166 45.501 -95.499s63.167 -33.5 106.5 -33.5c36 0 68.5 8.16699 97.5 24.5s43.5 40.833 43.5 73.5c0 27.333 -10 47.666 -30 60.999s-47.667 24.333 -83 33l-81 18
c-47.333 12 -83.166 28 -107.499 48s-36.5 50 -36.5 90c0 48.667 19.333 85 58 109s84 36 136 36c54 0 98.333 -14.167 133 -42.5s53.334 -69.5 56.001 -123.5z" />
    <glyph glyph-name="scedilla" unicode="&#xf6c2;" horiz-adv-x="481" 
d="M432 365l-63.0059 0.000976562c-1.33301 37.333 -14.666 65.5 -39.999 84.5s-57 28.5 -95 28.5c-32.667 0 -61.167 -7.16699 -85.5 -21.5s-36.5 -36.833 -36.5 -67.5c0 -40 35.667 -69 107 -87l84 -19c41.333 -6 76.166 -21 104.499 -45s42.5 -56.667 42.5 -98
c0 -39.333 -12.667 -71.5 -38 -96.5s-57.333 -41.5 -96 -49.5c-22 -5.33301 -43.333 -8.33301 -64 -9l-32 -39c14.667 3.33301 31.334 4.33301 50.001 3c44 -7.33301 66 -29.333 66 -66c0 -28 -11.167 -49.333 -33.5 -64s-47.833 -22 -76.5 -22
c-35.333 0 -66.666 7 -93.999 21l14 32c22.667 -9.33301 49 -14 79 -14c35.333 0 53 14.333 53 43c0 11.333 -4.16699 20.5 -12.5 27.5s-18.5 10.5 -30.5 10.5c-22 0 -39 -2.66699 -51 -8l-16 15l49 62c-48 2.66699 -88.667 16.667 -122 42
c-37.333 29.333 -58.666 75.666 -63.999 138.999h63c2.66699 -41.333 17.834 -73.166 45.501 -95.499s63.167 -33.5 106.5 -33.5c36 0 68.5 8.16699 97.5 24.5s43.5 40.833 43.5 73.5c0 27.333 -10 47.666 -30 60.999s-47.667 24.333 -83 33l-81 18
c-47.333 12 -83.166 28 -107.499 48s-36.5 50 -36.5 90c0 48.667 19.333 85 58 109s84 36 136 36c54 0 98.333 -14.167 133 -42.5s53.334 -69.5 56.001 -123.5z" />
    <glyph glyph-name="Scaron" unicode="&#x160;" horiz-adv-x="630" 
d="M36 235l68 -0.000976562c-2.66699 -128 75 -192 233 -192c27.333 0 54.833 4.5 82.5 13.5s52.334 25.167 74.001 48.5s32.5 51 32.5 83c0 62.667 -49 105.667 -147 129l-159 39c-49.333 12.667 -88.5 31.667 -117.5 57s-43.5 63.666 -43.5 114.999
c0 20 3.66699 40.5 11 61.5s19.333 42.5 36 64.5s42.167 40 76.5 54s75.166 21 122.499 21c75.333 0 138.166 -19.333 188.499 -58s75.5 -93.334 75.5 -164.001h-68c-2.66699 52 -22.5 92.333 -59.5 121s-82.167 43 -135.5 43c-52 0 -94.833 -11.333 -128.5 -34
s-50.5 -58.667 -50.5 -108c0 -56.667 36 -93 108 -109l174 -43c58 -15.333 103.333 -37.166 136 -65.499s49 -69.166 49 -122.499c0 -13.333 -1.16699 -26.833 -3.5 -40.5s-9 -31 -20 -52s-25.5 -39.167 -43.5 -54.5s-44.833 -28.666 -80.5 -39.999s-77.5 -17 -125.5 -17
c-89.333 0 -160.166 20.833 -212.499 62.5s-76.5 104.167 -72.5 187.5zM281 779.999l-114 141h65l86 -102l88 102h58l-114 -141h-69z" />
    <glyph glyph-name="scaron" unicode="&#x161;" horiz-adv-x="481" 
d="M432 365h-63.001c-1.33301 37.333 -14.666 65.5 -39.999 84.5s-57 28.5 -95 28.5c-32.667 0 -61.167 -7.16699 -85.5 -21.5s-36.5 -36.833 -36.5 -67.5c0 -40 35.667 -69 107 -87l84 -19c41.333 -6 76.166 -21 104.499 -45s42.5 -56.667 42.5 -98
c0 -51.333 -20.833 -90 -62.5 -116s-89.834 -39 -144.501 -39c-130.667 0 -201.334 60.667 -212.001 182h63c2.66699 -41.333 17.834 -73.166 45.501 -95.499s63.167 -33.5 106.5 -33.5c36 0 68.5 8.16699 97.5 24.5s43.5 40.833 43.5 73.5c0 27.333 -10 47.666 -30 60.999
s-47.667 24.333 -83 33l-81 18c-47.333 12 -83.166 28 -107.499 48s-36.5 50 -36.5 90c0 48.667 19.333 85 58 109s84 36 136 36c54 0 98.333 -14.167 133 -42.5s53.334 -69.5 56.001 -123.5zM210.999 590l-114 141h65l86 -102l88 102h58l-114 -141h-69z" />
    <glyph glyph-name="Tcommaaccent" unicode="&#x162;" 
d="M-5 656v58h566v-58h-249v-656h-68v656h-249zM235 -50h86v-80c0 -46 -28.667 -70.333 -86 -73v28c24 4.66699 37 16 39 34h-39v91z" />
    <glyph glyph-name="tcommaaccent" unicode="&#x163;" horiz-adv-x="296" 
d="M160 671l-0.000976562 -154.999h105v-53h-105v-348c0 -22.667 3.33301 -39.334 10 -50.001s20.334 -16.667 41.001 -18c18 0 36 1 54 3v-54c-6 0 -15.333 -0.333008 -28 -1s-22 -1 -28 -1c-42 0 -71.333 8.33301 -88 25s-24.667 47 -24 91v353h-90v53h90v155h63z
M135.999 -49.999h86v-80c0 -46 -28.667 -70.333 -86 -73v28c24 4.66699 37 16 39 34h-39v91z" />
    <glyph glyph-name="Tcaron" unicode="&#x164;" 
d="M-5 656v58h566v-58h-249v-656h-68v656h-249zM245 780l-114 141h65l86 -102l88 102h58l-114 -141h-69z" />
    <glyph glyph-name="tcaron" unicode="&#x165;" horiz-adv-x="332" 
d="M384 714l-86 -141h-47l55 141h78zM160 671l-0.000976562 -154.999h105v-53h-105v-348c0 -22.667 3.33301 -39.334 10 -50.001s20.334 -16.667 41.001 -18c18 0 36 1 54 3v-54c-6 0 -15.333 -0.333008 -28 -1s-22 -1 -28 -1c-42 0 -71.333 8.33301 -88 25
s-24.667 47 -24 91v353h-90v53h90v155h63z" />
    <glyph glyph-name="Tbar" unicode="&#x166;" 
d="M-5 656v58h566v-58h-249v-170h165v-45h-165v-441h-68v441h-164v45h164v170h-249z" />
    <glyph glyph-name="tbar" unicode="&#x167;" horiz-adv-x="296" 
d="M160 671l-0.000976562 -154.999h105v-53h-105v-99h117v-45h-117v-204c0 -22.667 3.33301 -39.334 10 -50.001s20.334 -16.667 41.001 -18c18 0 36 1 54 3v-54c-6 0 -15.333 -0.333008 -28 -1s-22 -1 -28 -1c-42 0 -71.333 8.33301 -88 25s-24.667 47 -24 91v209h-100v45
h100v99h-90v53h90v155h63z" />
    <glyph glyph-name="Utilde" unicode="&#x168;" horiz-adv-x="685" 
d="M65 257l-0.000976562 457h68v-442c0 -80 17.667 -138.167 53 -174.5s87.333 -54.5 156 -54.5s120.834 18.167 156.501 54.5s53.5 94.5 53.5 174.5v442h68v-457c0 -80 -22.833 -145.333 -68.5 -196s-115.5 -76 -209.5 -76c-93.333 0 -162.833 25.5 -208.5 76.5
s-68.5 116.167 -68.5 195.5zM460.999 900l38.001 0.000976562c-4.66699 -26 -14.167 -48.333 -28.5 -67s-33.833 -28 -58.5 -28c-20 0 -45 7.66699 -75 23s-51 23 -63 23c-25.333 0 -42 -17 -50 -51h-39c2.66699 25.333 12 47.666 28 66.999s36.333 29 61 29
c20.667 0 45.667 -7.33301 75 -22s49.333 -22 60 -22c25.333 0 42.666 16 51.999 48z" />
    <glyph glyph-name="utilde" unicode="&#x169;" horiz-adv-x="537" 
d="M478 516v-515.999h-58v93h-2c-16 -34 -40 -60.5 -72 -79.5s-67.333 -28.5 -106 -28.5c-120.667 0 -181 65.333 -181 196v335h63v-336c1.33301 -48 12.5 -83.667 33.5 -107s55.833 -35 104.5 -35c50.667 0 89.167 20.167 115.5 60.5s39.5 89.166 39.5 146.499v271h63z
M388 710.001l38 0.000976562c-4.66699 -26 -14.167 -48.333 -28.5 -67s-33.833 -28 -58.5 -28c-19.333 0 -44.166 7.66699 -74.499 23s-51.5 23 -63.5 23c-25.333 0 -42 -17 -50 -51h-39c2.66699 25.333 12 47.666 28 66.999s36.333 29 61 29
c20.667 0 45.667 -7.33301 75 -22s49.333 -22 60 -22c25.333 0 42.666 16 51.999 48z" />
    <glyph glyph-name="Umacron" unicode="&#x16a;" horiz-adv-x="685" 
d="M65 257l-0.000976562 457h68v-442c0 -80 17.667 -138.167 53 -174.5s87.333 -54.5 156 -54.5s120.834 18.167 156.501 54.5s53.5 94.5 53.5 174.5v442h68v-457c0 -80 -22.833 -145.333 -68.5 -196s-115.5 -76 -209.5 -76c-93.333 0 -162.833 25.5 -208.5 76.5
s-68.5 116.167 -68.5 195.5zM504.999 828h-329v45h329v-45z" />
    <glyph glyph-name="umacron" unicode="&#x16b;" horiz-adv-x="537" 
d="M478 516v-515.999h-58v93h-2c-16 -34 -40 -60.5 -72 -79.5s-67.333 -28.5 -106 -28.5c-120.667 0 -181 65.333 -181 196v335h63v-336c1.33301 -48 12.5 -83.667 33.5 -107s55.833 -35 104.5 -35c50.667 0 89.167 20.167 115.5 60.5s39.5 89.166 39.5 146.499v271h63z
M435 638.001h-329v45h329v-45z" />
    <glyph glyph-name="Ubreve" unicode="&#x16c;" horiz-adv-x="685" 
d="M65 257l-0.000976562 457h68v-442c0 -80 17.667 -138.167 53 -174.5s87.333 -54.5 156 -54.5s120.834 18.167 156.501 54.5s53.5 94.5 53.5 174.5v442h68v-457c0 -80 -22.833 -145.333 -68.5 -196s-115.5 -76 -209.5 -76c-93.333 0 -162.833 25.5 -208.5 76.5
s-68.5 116.167 -68.5 195.5zM196.999 914h39c1.33301 -25.333 12.166 -45.333 32.499 -60s43.833 -22 70.5 -22s50 7.33301 70 22s32 34.667 36 60h39c-5.33301 -39.333 -20.833 -70.333 -46.5 -93s-58.5 -34 -98.5 -34c-40.667 0 -73.667 11.167 -99 33.5
s-39.666 53.5 -42.999 93.5z" />
    <glyph glyph-name="ubreve" unicode="&#x16d;" horiz-adv-x="537" 
d="M478 516v-515.999h-58v93h-2c-16 -34 -40 -60.5 -72 -79.5s-67.333 -28.5 -106 -28.5c-120.667 0 -181 65.333 -181 196v335h63v-336c1.33301 -48 12.5 -83.667 33.5 -107s55.833 -35 104.5 -35c50.667 0 89.167 20.167 115.5 60.5s39.5 89.166 39.5 146.499v271h63z
M128 724.001h39c1.33301 -25.333 12.166 -45.333 32.499 -60s43.833 -22 70.5 -22s50 7.33301 70 22s32 34.667 36 60h39c-5.33301 -39.333 -20.833 -70.333 -46.5 -93s-58.5 -34 -98.5 -34c-40.667 0 -73.667 11.167 -99 33.5s-39.666 53.5 -42.999 93.5z" />
    <glyph glyph-name="Uring" unicode="&#x16e;" horiz-adv-x="685" 
d="M65 257l-0.000976562 457h68v-442c0 -80 17.667 -138.167 53 -174.5s87.333 -54.5 156 -54.5s120.834 18.167 156.501 54.5s53.5 94.5 53.5 174.5v442h68v-457c0 -80 -22.833 -145.333 -68.5 -196s-115.5 -76 -209.5 -76c-93.333 0 -162.833 25.5 -208.5 76.5
s-68.5 116.167 -68.5 195.5zM271.999 860c0 -19.333 6.5 -35.5 19.5 -48.5s29.167 -19.5 48.5 -19.5s35.5 6.5 48.5 19.5s19.5 29.167 19.5 48.5s-6.5 35.5 -19.5 48.5s-29.167 19.5 -48.5 19.5s-35.5 -6.5 -48.5 -19.5s-19.5 -29.167 -19.5 -48.5zM232.999 860
c0 29.333 10.5 54.5 31.5 75.5s46.167 31.5 75.5 31.5s54.5 -10.5 75.5 -31.5s31.5 -46.167 31.5 -75.5s-10.5 -54.5 -31.5 -75.5s-46.167 -31.5 -75.5 -31.5s-54.5 10.5 -75.5 31.5s-31.5 46.167 -31.5 75.5z" />
    <glyph glyph-name="uring" unicode="&#x16f;" horiz-adv-x="537" 
d="M478 516v-515.999h-58v93h-2c-16 -34 -40 -60.5 -72 -79.5s-67.333 -28.5 -106 -28.5c-120.667 0 -181 65.333 -181 196v335h63v-336c1.33301 -48 12.5 -83.667 33.5 -107s55.833 -35 104.5 -35c50.667 0 89.167 20.167 115.5 60.5s39.5 89.166 39.5 146.499v271h63z
M202 680.001c0 -19.333 6.5 -35.5 19.5 -48.5s29.167 -19.5 48.5 -19.5s35.5 6.5 48.5 19.5s19.5 29.167 19.5 48.5s-6.5 35.5 -19.5 48.5s-29.167 19.5 -48.5 19.5s-35.5 -6.5 -48.5 -19.5s-19.5 -29.167 -19.5 -48.5zM163 680.001c0 29.333 10.5 54.5 31.5 75.5
s46.167 31.5 75.5 31.5s54.5 -10.5 75.5 -31.5s31.5 -46.167 31.5 -75.5s-10.5 -54.5 -31.5 -75.5s-46.167 -31.5 -75.5 -31.5s-54.5 10.5 -75.5 31.5s-31.5 46.167 -31.5 75.5z" />
    <glyph glyph-name="Uhungarumlaut" unicode="&#x170;" horiz-adv-x="685" 
d="M65 257l-0.000976562 457h68v-442c0 -80 17.667 -138.167 53 -174.5s87.333 -54.5 156 -54.5s120.834 18.167 156.501 54.5s53.5 94.5 53.5 174.5v442h68v-457c0 -80 -22.833 -145.333 -68.5 -196s-115.5 -76 -209.5 -76c-93.333 0 -162.833 25.5 -208.5 76.5
s-68.5 116.167 -68.5 195.5zM437.999 780h-51l101 141h76zM281.999 780h-51l101 141h76z" />
    <glyph glyph-name="uhungarumlaut" unicode="&#x171;" horiz-adv-x="537" 
d="M478 516v-515.999h-58v93h-2c-16 -34 -40 -60.5 -72 -79.5s-67.333 -28.5 -106 -28.5c-120.667 0 -181 65.333 -181 196v335h63v-336c1.33301 -48 12.5 -83.667 33.5 -107s55.833 -35 104.5 -35c50.667 0 89.167 20.167 115.5 60.5s39.5 89.166 39.5 146.499v271h63z
M370 590.001h-51l101 141h76zM214 590.001h-51l101 141h76z" />
    <glyph glyph-name="Uogonek" unicode="&#x172;" horiz-adv-x="685" 
d="M65 257l-0.000976562 457.002h68v-442c0 -80 17.667 -138.167 53 -174.5s87.333 -54.5 156 -54.5s120.834 18.167 156.501 54.5s53.5 94.5 53.5 174.5v442h68v-457c0 -124.667 -50.333 -208 -151 -250c-26.667 -10.667 -59 -17.667 -97 -21
c-3.33301 -2.66699 -8 -6.83398 -14 -12.501l-13 -12.5c-16 -16.667 -26.167 -30.334 -30.5 -41.001s-6.5 -23 -6.5 -37c0 -15.333 4.16699 -27 12.5 -35s18.833 -12 31.5 -12c22.667 0 41 13.667 55 41l29 -13c-20 -44.667 -52.667 -67 -98 -67c-28.667 0 -51 7.5 -67 22.5
s-24 34.833 -24 59.5c0 23.333 15 49.333 45 78c8 8 20 17.333 36 28c-41.333 0.666992 -79 8 -113 22c-100 42 -150 125.333 -150 250z" />
    <glyph glyph-name="uogonek" unicode="&#x173;" horiz-adv-x="537" 
d="M478 0l-20 0.000976562c-34.667 -28.667 -57 -51 -67 -67s-15 -32.667 -15 -50c0 -15.333 4.16699 -27 12.5 -35s18.833 -12 31.5 -12c22.667 0 41 13.667 55 41l29 -13c-20 -44.667 -52.667 -67 -98 -67c-28.667 0 -51 7.5 -67 22.5s-24 34.833 -24 59.5
c0 38 35 78.333 105 121v93h-2c-16 -34 -40 -60.5 -72 -79.5s-67.333 -28.5 -106 -28.5c-120.667 0 -181 65.333 -181 196v335h63v-336c1.33301 -48 12.5 -83.667 33.5 -107s55.833 -35 104.5 -35c50.667 0 89.167 20.167 115.5 60.5s39.5 89.166 39.5 146.499v271h63v-516z
" />
    <glyph glyph-name="Wcircumflex" unicode="&#x174;" horiz-adv-x="907" 
d="M198 0l-198 714h73l162 -625h2l174 625h85l175 -625h2l163 625h68l-197 -714h-72l-181 639h-2l-180 -639h-74zM489 920l114 -141h-65l-86 102l-88 -102h-58l114 141h69z" />
    <glyph glyph-name="wcircumflex" unicode="&#x175;" horiz-adv-x="741" 
d="M174 0l-166 516h67l132 -442h2l126 442h71l126 -442h2l132 442h67l-166 -516h-69l-127 434h-2l-126 -434h-69zM405 730l114 -141h-65l-86 102l-88 -102h-58l114 141h69z" />
    <glyph glyph-name="Ycircumflex" unicode="&#x176;" horiz-adv-x="611" 
d="M271 0v294l-281 420h81l235 -362l234 362h81l-282 -420v-294h-68zM345 920l114 -141h-65l-86 102l-88 -102h-58l114 141h69z" />
    <glyph glyph-name="ycircumflex" unicode="&#x177;" horiz-adv-x="463" 
d="M208 2l-205.998 514h67l170 -440l159 440h63l-224 -595c-19.333 -45.333 -37.333 -75.333 -54 -90s-44 -22 -82 -22c-25.333 1.33301 -41.333 3 -48 5v53c16.667 -3.33301 31 -5 43 -5c13.333 0 24.666 1.66699 33.999 5s17.5 9.5 24.5 18.5s12.167 16.833 15.5 23.5
s8.66602 18 15.999 34zM273.002 730l114 -141h-65l-86 102l-88 -102h-58l114 141h69z" />
    <glyph glyph-name="Ydieresis" unicode="&#x178;" horiz-adv-x="611" 
d="M271 0v294l-281 420h81l235 -362l234 362h81l-282 -420v-294h-68zM251 800h-68v101h68v-101zM428 800h-68v101h68v-101z" />
    <glyph glyph-name="Zacute" unicode="&#x179;" horiz-adv-x="574" 
d="M37 656v58h514v-60l-470 -596h480v-58h-556v60l470 596h-438zM438 921l-132 -141h-51l105 141h78z" />
    <glyph glyph-name="zacute" unicode="&#x17a;" horiz-adv-x="463" 
d="M432 471l-341 -418h355v-53h-431v51l337 412h-314v53h394v-45zM384 731l-132 -141h-51l105 141h78z" />
    <glyph glyph-name="Zdotaccent" unicode="&#x17b;" horiz-adv-x="574" 
d="M37 656v58h514v-60l-470 -596h480v-58h-556v60l470 596h-438zM327 800h-68v101h68v-101z" />
    <glyph glyph-name="zdotaccent" unicode="&#x17c;" horiz-adv-x="463" 
d="M432 471l-341 -418h355v-53h-431v51l337 412h-314v53h394v-45zM267 610h-68v101h68v-101z" />
    <glyph glyph-name="Zcaron" unicode="&#x17d;" horiz-adv-x="574" 
d="M37 656v58h514v-60l-470 -596h480v-58h-556v60l470 596h-438zM252 780l-114 141h65l86 -102l88 102h58l-114 -141h-69z" />
    <glyph glyph-name="zcaron" unicode="&#x17e;" horiz-adv-x="463" 
d="M432 471l-341 -418h355v-53h-431v51l337 412h-314v53h394v-45zM197 590l-114 141h65l86 -102l88 102h58l-114 -141h-69z" />
    <glyph glyph-name="florin" unicode="&#x192;" 
d="M7 -168l9.00293 53.998c17.333 -4 34.666 -6 51.999 -6c45.333 2 76 39.333 92 112l75 394h-100l9 53h101l13 69c15.333 66 27.666 108.667 36.999 128c25.333 52 69.666 78 132.999 78c18 0 38.667 -1.66699 62 -5l-12 -52c-13.333 2.66699 -28.666 4 -45.999 4
c-10.667 -0.666992 -20.334 -2.5 -29.001 -5.5s-16 -6.33301 -22 -10s-11.833 -9.33398 -17.5 -17.001s-10 -14.167 -13 -19.5s-6.16699 -13.666 -9.5 -24.999s-5.66602 -19.666 -6.99902 -24.999s-3.5 -14.5 -6.5 -27.5s-4.83301 -21.5 -5.5 -25.5l-14 -67h113l-9 -53h-113
l-61 -323c-1.33301 -5.33301 -3.66602 -17 -6.99902 -35s-5.66602 -30.167 -6.99902 -36.5s-4 -17.166 -8 -32.499s-7.33301 -26 -10 -32l-12.5 -27.5c-5.66699 -12.333 -11.334 -21 -17.001 -26l-21.5 -19c-8.66699 -7.66699 -17.834 -13 -27.501 -16
s-20.834 -5.66699 -33.501 -8s-26.667 -3.5 -42 -3.5c-11.333 0 -26.333 1.66699 -45 5z" />
    <glyph glyph-name="Scommaaccent" unicode="&#x218;" horiz-adv-x="630" 
d="M36 235l68 -0.000976562c-2.66699 -128 75 -192 233 -192c27.333 0 54.833 4.5 82.5 13.5s52.334 25.167 74.001 48.5s32.5 51 32.5 83c0 62.667 -49 105.667 -147 129l-159 39c-49.333 12.667 -88.5 31.667 -117.5 57s-43.5 63.666 -43.5 114.999
c0 20 3.66699 40.5 11 61.5s19.333 42.5 36 64.5s42.167 40 76.5 54s75.166 21 122.499 21c75.333 0 138.166 -19.333 188.499 -58s75.5 -93.334 75.5 -164.001h-68c-2.66699 52 -22.5 92.333 -59.5 121s-82.167 43 -135.5 43c-52 0 -94.833 -11.333 -128.5 -34
s-50.5 -58.667 -50.5 -108c0 -56.667 36 -93 108 -109l174 -43c58 -15.333 103.333 -37.166 136 -65.499s49 -69.166 49 -122.499c0 -13.333 -1.16699 -26.833 -3.5 -40.5s-9 -31 -20 -52s-25.5 -39.167 -43.5 -54.5s-44.833 -28.666 -80.5 -39.999s-77.5 -17 -125.5 -17
c-89.333 0 -160.166 20.833 -212.499 62.5s-76.5 104.167 -72.5 187.5zM275 -50.001h86v-80c0 -46 -28.667 -70.333 -86 -73v28c24 4.66699 37 16 39 34h-39v91z" />
    <glyph glyph-name="scommaaccent" unicode="&#x219;" horiz-adv-x="481" 
d="M432 365h-63.001c-1.33301 37.333 -14.666 65.5 -39.999 84.5s-57 28.5 -95 28.5c-32.667 0 -61.167 -7.16699 -85.5 -21.5s-36.5 -36.833 -36.5 -67.5c0 -40 35.667 -69 107 -87l84 -19c41.333 -6 76.166 -21 104.499 -45s42.5 -56.667 42.5 -98
c0 -51.333 -20.833 -90 -62.5 -116s-89.834 -39 -144.501 -39c-130.667 0 -201.334 60.667 -212.001 182h63c2.66699 -41.333 17.834 -73.166 45.501 -95.499s63.167 -33.5 106.5 -33.5c36 0 68.5 8.16699 97.5 24.5s43.5 40.833 43.5 73.5c0 27.333 -10 47.666 -30 60.999
s-47.667 24.333 -83 33l-81 18c-47.333 12 -83.166 28 -107.499 48s-36.5 50 -36.5 90c0 48.667 19.333 85 58 109s84 36 136 36c54 0 98.333 -14.167 133 -42.5s53.334 -69.5 56.001 -123.5zM198.999 -50h86v-80c0 -46 -28.667 -70.333 -86 -73v28c24 4.66699 37 16 39 34
h-39v91z" />
    <glyph glyph-name="uni021A" unicode="&#x21a;" 
d="M-5 656v58h566v-58h-249v-656h-68v656h-249zM235 -50h86v-80c0 -46 -28.667 -70.333 -86 -73v28c24 4.66699 37 16 39 34h-39v91z" />
    <glyph glyph-name="uni021B" unicode="&#x21b;" horiz-adv-x="296" 
d="M160 671l-0.000976562 -154.999h105v-53h-105v-348c0 -22.667 3.33301 -39.334 10 -50.001s20.334 -16.667 41.001 -18c18 0 36 1 54 3v-54c-6 0 -15.333 -0.333008 -28 -1s-22 -1 -28 -1c-42 0 -71.333 8.33301 -88 25s-24.667 47 -24 91v353h-90v53h90v155h63z
M135.999 -49.999h86v-80c0 -46 -28.667 -70.333 -86 -73v28c24 4.66699 37 16 39 34h-39v91z" />
    <glyph glyph-name="circumflex" unicode="&#x2c6;" horiz-adv-x="185" 
d="M130 730l114 -141h-65l-86 102l-88 -102h-58l114 141h69z" />
    <glyph glyph-name="caron" unicode="&#x2c7;" horiz-adv-x="185" 
d="M54 590l-114 141h65l86 -102l88 102h58l-114 -141h-69z" />
    <glyph glyph-name="uni02C9" unicode="&#x2c9;" horiz-adv-x="185" 
d="M257 638h-329v45h329v-45z" />
    <glyph glyph-name="breve" unicode="&#x2d8;" horiz-adv-x="185" 
d="M-51 724h39c1.33301 -25.333 12.166 -45.333 32.499 -60s43.833 -22 70.5 -22s50 7.33301 70 22s32 34.667 36 60h39c-5.33301 -39.333 -20.833 -70.333 -46.5 -93s-58.5 -34 -98.5 -34c-40.667 0 -73.667 11.167 -99 33.5s-39.666 53.5 -42.999 93.5z" />
    <glyph glyph-name="dotaccent" unicode="&#x2d9;" horiz-adv-x="185" 
d="M127 610h-68v101h68v-101z" />
    <glyph glyph-name="ring" unicode="&#x2da;" horiz-adv-x="185" 
d="M25 680c0 -19.333 6.5 -35.5 19.5 -48.5s29.167 -19.5 48.5 -19.5s35.5 6.5 48.5 19.5s19.5 29.167 19.5 48.5s-6.5 35.5 -19.5 48.5s-29.167 19.5 -48.5 19.5s-35.5 -6.5 -48.5 -19.5s-19.5 -29.167 -19.5 -48.5zM-14 680c0 29.333 10.5 54.5 31.5 75.5
s46.167 31.5 75.5 31.5s54.5 -10.5 75.5 -31.5s31.5 -46.167 31.5 -75.5s-10.5 -54.5 -31.5 -75.5s-46.167 -31.5 -75.5 -31.5s-54.5 10.5 -75.5 31.5s-31.5 46.167 -31.5 75.5z" />
    <glyph glyph-name="ogonek" unicode="&#x2db;" horiz-adv-x="185" 
d="M151 0h38c-34.667 -28.667 -57 -51 -67 -67s-15 -32.667 -15 -50c0 -15.333 4.16699 -27 12.5 -35s18.833 -12 31.5 -12c22.667 0 41 13.667 55 41l29 -13c-20 -44.667 -52.667 -67 -98 -67c-28.667 0 -51 7.5 -67 22.5s-24 34.833 -24 59.5c0 38 35 78.333 105 121z" />
    <glyph glyph-name="tilde" unicode="&#x2dc;" horiz-adv-x="185" 
d="M211 710l38.001 0.000976562c-4.66699 -26 -14.167 -48.333 -28.5 -67s-33.833 -28 -58.5 -28c-20 0 -45 7.66699 -75 23s-51 23 -63 23c-25.333 0 -42 -17 -50 -51h-39c2.66699 25.333 12 47.666 28 66.999s36.333 29 61 29c20.667 0 45.667 -7.33301 75 -22
s49.333 -22 60 -22c25.333 0 42.666 16 51.999 48z" />
    <glyph glyph-name="hungarumlaut" unicode="&#x2dd;" horiz-adv-x="185" 
d="M174 590h-51l101 141h76zM18 590h-51l101 141h76z" />
    <glyph glyph-name="uni0394" unicode="&#x394;" horiz-adv-x="674" 
d="M550 72l-217 556l-213 -556h430zM662 0h-649l279 712h83z" />
    <glyph glyph-name="uni03A9" unicode="&#x3a9;" horiz-adv-x="748" 
d="M688 0l-256.001 0.000976562v183c56.667 11.333 100.167 37.166 130.5 77.499s45.5 90.166 45.5 149.499c0 69.333 -22.667 126.5 -68 171.5s-102.666 67.5 -171.999 67.5c-68.667 0 -126 -22.667 -172 -68s-69 -102.333 -69 -171c0 -58.667 15.5 -108.834 46.5 -150.501
s74.5 -67.167 130.5 -76.5v-183h-257v67h193v72c-60 16.667 -107.167 50.334 -141.5 101.001s-51.5 108.334 -51.5 173.001c0 88.667 31.333 162.167 94 220.5s138.334 87.5 227.001 87.5c89.333 0 165 -28.833 227 -86.5s93 -130.834 93 -219.501
c0 -66 -16.833 -124.167 -50.5 -174.5s-80.834 -84.166 -141.501 -101.499v-72h192v-67z" />
    <glyph glyph-name="uni03BC" unicode="&#x3bc;" horiz-adv-x="537" 
d="M478 516v-515.999h-58v93h-2c-16 -34 -40 -60.5 -72 -79.5s-67.333 -28.5 -106 -28.5c-46.667 0 -85.667 11.667 -117 35v-211h-64v707h63v-336c1.33301 -48 12.5 -83.667 33.5 -107s55.833 -35 104.5 -35c50.667 0 89.167 20.167 115.5 60.5s39.5 89.166 39.5 146.499
v271h63z" />
    <glyph glyph-name="pi" unicode="&#x3c0;" horiz-adv-x="570" 
d="M547 68l-0.000976562 -57c-24 -11.333 -47 -17 -69 -17c-19.333 0 -35.166 3 -47.499 9s-21 15.167 -26 27.5s-8.33301 24.5 -10 36.5s-2.5 27.667 -2.5 47v296h-246v-410h-75v410h-69v69h541v-69h-76v-299c0 -17.333 2.33301 -30.5 7 -39.5s15 -13.5 31 -13.5
c14 0 28 3.33301 42 10z" />
    <glyph glyph-name="endash" unicode="&#x2013;" horiz-adv-x="500" 
d="M500 246h-500v58h500v-58z" />
    <glyph glyph-name="emdash" unicode="&#x2014;" horiz-adv-x="1000" 
d="M870 246h-740v58h740v-58z" />
    <glyph glyph-name="quoteleft" unicode="&#x2018;" horiz-adv-x="278" 
d="M179 471h-84v107c0 31.333 7.66699 60 23 86s37.333 42.667 66 50v-43c-16 -6 -28.167 -18.667 -36.5 -38s-11.833 -38 -10.5 -56h42v-106z" />
    <glyph glyph-name="quoteright" unicode="&#x2019;" horiz-adv-x="278" 
d="M99 714l84 0.000976562v-107c0 -31.333 -7.66699 -60 -23 -86s-37.333 -42.667 -66 -50v43c16 4.66699 28.333 17.167 37 37.5s12 39.166 10 56.499h-42v106z" />
    <glyph glyph-name="quotesinglbase" unicode="&#x201a;" horiz-adv-x="278" 
d="M99 106l84 0.000976562v-107c0 -31.333 -7.66699 -60 -23 -86s-37.333 -42.667 -66 -50v43c16 4.66699 28.333 17.167 37 37.5s12 39.166 10 56.499h-42v106z" />
    <glyph glyph-name="quotedblleft" unicode="&#x201c;" horiz-adv-x="370" 
d="M148 471h-84v107c0 31.333 7.66699 60 23 86s37.333 42.667 66 50v-43c-16 -6 -28.167 -18.667 -36.5 -38s-11.833 -38 -10.5 -56h42v-106zM302 471h-84v107c0 31.333 7.66699 60 23 86s37.333 42.667 66 50v-43c-16 -6 -28.167 -18.667 -36.5 -38s-11.833 -38 -10.5 -56
h42v-106z" />
    <glyph glyph-name="quotedblright" unicode="&#x201d;" horiz-adv-x="370" 
d="M68 714l84 0.000976562v-107c0 -31.333 -7.66699 -60 -23 -86s-37.333 -42.667 -66 -50v43c16 4.66699 28.333 17.167 37 37.5s12 39.166 10 56.499h-42v106zM222 714.001l84 0.000976562v-107c0 -31.333 -7.66699 -60 -23 -86s-37.333 -42.667 -66 -50v43
c16 4.66699 28.333 17.167 37 37.5s12 39.166 10 56.499h-42v106z" />
    <glyph glyph-name="quotedblbase" unicode="&#x201e;" horiz-adv-x="370" 
d="M68 106l84 0.000976562v-107c0 -31.333 -7.66699 -60 -23 -86s-37.333 -42.667 -66 -50v43c16 4.66699 28.333 17.167 37 37.5s12 39.166 10 56.499h-42v106zM222 106.001l84 0.000976562v-107c0 -31.333 -7.66699 -60 -23 -86s-37.333 -42.667 -66 -50v43
c16 4.66699 28.333 17.167 37 37.5s12 39.166 10 56.499h-42v106z" />
    <glyph glyph-name="dagger" unicode="&#x2020;" 
d="M246 440h-198v53h198v221h63v-221h199v-53h-199v-591h-63v591z" />
    <glyph glyph-name="daggerdbl" unicode="&#x2021;" 
d="M246 47h-198v53h198v363h-198v53h198v198h63v-198h199v-53h-199v-363h199v-53h-199v-198h-63v198z" />
    <glyph glyph-name="bullet" unicode="&#x2022;" horiz-adv-x="500" 
d="M72 357c0 49.333 17.333 91.333 52 126s76.667 52 126 52s91.5 -17.333 126.5 -52s52.5 -76.667 52.5 -126s-17.5 -91.5 -52.5 -126.5s-77.167 -52.5 -126.5 -52.5s-91.333 17.5 -126 52.5s-52 77.167 -52 126.5z" />
    <glyph glyph-name="ellipsis" unicode="&#x2026;" horiz-adv-x="1000" 
d="M875 0h-84v106h84v-106zM542 0h-84v106h84v-106zM209 0h-84v106h84v-106z" />
    <glyph glyph-name="perthousand" unicode="&#x2030;" horiz-adv-x="1111" 
d="M214 661c-64 0 -96 -41.333 -96 -124s32 -124 96 -124s96 41.333 96 124s-32 124 -96 124zM214 706c51.333 0 89 -15.333 113 -46s36 -71.667 36 -123s-12 -92.333 -36 -123s-61.667 -46 -113 -46s-89 15.333 -113 46s-36 71.667 -36 123s12 92.333 36 123
s61.667 46 113 46zM901 278c-64 0 -96 -41.333 -96 -124s32 -124 96 -124s96 41.333 96 124s-32 124 -96 124zM901 323c51.333 0 89 -15.333 113 -46s36 -71.667 36 -123s-12 -92.333 -36 -123s-61.667 -46 -113 -46s-89 15.333 -113 46s-36 71.667 -36 123
s12 92.333 36 123s61.667 46 113 46zM547 278c-64 0 -96 -41.333 -96 -124s32 -124 96 -124s96 41.333 96 124s-32 124 -96 124zM547 323c51.333 0 89 -15.333 113 -46s36 -71.667 36 -123s-12 -92.333 -36 -123s-61.667 -46 -113 -46s-89 15.333 -113 46
s-36 71.667 -36 123s12 92.333 36 123s61.667 46 113 46zM129 -34l453 759h47l-452 -759h-48z" />
    <glyph glyph-name="guilsinglleft" unicode="&#x2039;" horiz-adv-x="259" 
d="M186 119l-133 125v62l133 125v-67l-94 -89l94 -89v-67z" />
    <glyph glyph-name="guilsinglright" unicode="&#x203a;" horiz-adv-x="259" 
d="M73 119v67l94 89l-94 89v67l133 -125v-62z" />
    <glyph glyph-name="fraction" unicode="&#x2044;" horiz-adv-x="167" 
d="M-166 -34l453 759h47l-452 -759h-48z" />
    <glyph glyph-name="Euro" unicode="&#x20ac;" 
d="M557 635l-27.002 -59.001c-44 52.667 -97.333 79 -160 79c-61.333 0 -111.333 -22.333 -150 -67c-34 -38.667 -57 -90 -69 -154h333l-18 -45h-321c-2 -16.667 -3 -31 -3 -43v-8c0 -3.33301 0.333008 -6 1 -8h304l-19 -45h-282
c8.66699 -69.333 29.667 -125.666 63 -168.999c40 -50 92.667 -75 158 -75c34.667 0 66.667 7.66699 96 23c23.333 13.333 49.333 34.333 78 63v-77c-51.333 -43.333 -110 -65 -176 -65c-83.333 0 -150.666 29.667 -201.999 89c-44.667 52.667 -72 123 -82 211h-66l19 45h44
c-0.666992 2 -1 5 -1 9v11c0 4.66699 0.666992 17.667 2 39h-64l18 45h51c14.667 82 45.334 147.333 92.001 196c50.667 54.667 115.667 82 195 82c82.667 0 144.667 -25.667 186 -77z" />
    <glyph glyph-name="afii61289" unicode="&#x2113;" horiz-adv-x="500" 
d="M406 38c-35.333 -34.667 -75.3311 -52 -119.998 -52c-35.333 0 -64 10.333 -86 31s-33 51.667 -33 93v130l-59 -64h-2l-21 27l82 84v264c0 53.333 11.167 95 33.5 125s50.5 45 84.5 45c29.333 0 53.166 -11 71.499 -33s27.5 -52 27.5 -90c0 -94 -55.333 -201 -166 -321
v-159c0 -33.333 7.66699 -57 23 -71s33.666 -21 54.999 -21c30.667 0 60 13 88 39h2zM341.002 593c0 26.667 -5.49902 48.499 -16.499 65.499s-24.5 25.5 -40.5 25.5c-18.667 0 -34.334 -10.667 -47.001 -32s-19 -52.666 -19 -93.999v-233c82 96.667 123 186 123 268z" />
    <glyph glyph-name="trademark" unicode="&#x2122;" horiz-adv-x="990" 
d="M529 302h-53v412h85l133 -334l129 334h85v-412h-53v364h-2l-146 -364h-30l-146 364h-2v-364zM269 302h-53v367h-134v45h321v-45h-134v-367z" />
    <glyph glyph-name="Omega" unicode="&#x2126;" horiz-adv-x="748" 
d="M688 0l-256.001 0.000976562v183c56.667 11.333 100.167 37.166 130.5 77.499s45.5 90.166 45.5 149.499c0 69.333 -22.667 126.5 -68 171.5s-102.666 67.5 -171.999 67.5c-68.667 0 -126 -22.667 -172 -68s-69 -102.333 -69 -171c0 -58.667 15.5 -108.834 46.5 -150.501
s74.5 -67.167 130.5 -76.5v-183h-257v67h193v72c-60 16.667 -107.167 50.334 -141.5 101.001s-51.5 108.334 -51.5 173.001c0 88.667 31.333 162.167 94 220.5s138.334 87.5 227.001 87.5c89.333 0 165 -28.833 227 -86.5s93 -130.834 93 -219.501
c0 -66 -16.833 -124.167 -50.5 -174.5s-80.834 -84.166 -141.501 -101.499v-72h192v-67z" />
    <glyph glyph-name="estimated" unicode="&#x212e;" horiz-adv-x="600" 
d="M561 259l-403.997 -0.000976562v-181c39.333 -39.333 87.666 -59 144.999 -59c81.333 0 145.666 40 192.999 120l35 -21c-30.667 -48 -63.334 -82.5 -98.001 -103.5s-78 -31.5 -130 -31.5c-76.667 0 -138.834 26.333 -186.501 79s-71.5 118.334 -71.5 197.001
c0 79.333 23.667 145.166 71 197.499s109.666 78.5 186.999 78.5c76.667 0 138.834 -25.667 186.501 -77s71.834 -117.666 72.501 -198.999zM157.003 294.999h291v145c-42 40 -91 60 -147 60s-104 -20 -144 -60v-145z" />
    <glyph glyph-name="partialdiff" unicode="&#x2202;" horiz-adv-x="511" 
d="M389 280c-42 56.667 -91.333 85.0029 -148 85.0029c-42 0 -74.833 -15.167 -98.5 -45.5s-35.5 -66.833 -35.5 -109.5s11.667 -80.334 35 -113.001s55.666 -49 96.999 -49c34.667 0 63.834 13.667 87.501 41s40 57.666 49 90.999s13.5 66.666 13.5 99.999zM469 362.003
c0 -34.667 -1.66797 -67.498 -5.00098 -98.498s-10 -64 -20 -99s-23.167 -64.833 -39.5 -89.5s-38.833 -45.334 -67.5 -62.001s-62 -25 -100 -25c-61.333 0 -110.666 22 -147.999 66s-56 97 -56 159c0 60.667 18.167 111.5 54.5 152.5s84.5 61.5 144.5 61.5
c64 0 117.667 -25.333 161 -76c0 4.66699 0.166992 12 0.5 22s0.5 17.667 0.5 23c0 29.333 -3 58.333 -9 87s-15.167 56.5 -27.5 83.5s-30.333 49 -54 66s-51.167 25.5 -82.5 25.5c-35.333 0 -73.333 -15.667 -114 -47l-42 50c45.333 40 96.333 60 153 60
c38 0 71.833 -7.33301 101.5 -22s53.667 -33.834 72 -57.501s33.5 -51.667 45.5 -84s20.333 -64.5 25 -96.5s7 -65 7 -99z" />
    <glyph glyph-name="Delta" unicode="&#x2206;" horiz-adv-x="674" 
d="M550 72l-217 556l-213 -556h430zM662 0h-649l279 712h83z" />
    <glyph glyph-name="product" unicode="&#x220f;" horiz-adv-x="719" 
d="M650 -214h-78v928h-426v-928h-78v1000h582v-1000z" />
    <glyph glyph-name="summation" unicode="&#x2211;" horiz-adv-x="615" 
d="M589 -214h-564v64l322 440l-308 432v64h538v-72h-437l301 -424l-319 -432h467v-72z" />
    <glyph glyph-name="minus" unicode="&#x2212;" horiz-adv-x="600" 
d="M552 278v-53h-503v53h503z" />
    <glyph glyph-name="uni2215" unicode="&#x2215;" horiz-adv-x="167" 
d="M-166 -34l453 759h47l-452 -759h-48z" />
    <glyph glyph-name="uni2219" unicode="&#x2219;" horiz-adv-x="278" 
d="M139 375c16 0 29.833 -6 41.5 -18s17.5 -26 17.5 -42c0 -15.333 -6 -28.833 -18 -40.5s-25.667 -17.5 -41 -17.5c-16 0 -29.833 6 -41.5 18s-17.5 26 -17.5 42c0 15.333 6 28.833 18 40.5s25.667 17.5 41 17.5z" />
    <glyph glyph-name="radical" unicode="&#x221a;" horiz-adv-x="504" 
d="M514 786l-211 -1000h-75l-162 334l-47 -22l-28 60l112 52l151 -317l184 893h76z" />
    <glyph glyph-name="infinity" unicode="&#x221e;" horiz-adv-x="759" 
d="M337 251c-19.333 18 -34.333 31.5 -45 40.5s-26.667 19.5 -48 31.5s-40.333 18 -57 18c-24.667 0 -44.167 -8.66699 -58.5 -26s-21.5 -38.333 -21.5 -63c0 -26 7.33301 -46.833 22 -62.5s35 -23.5 61 -23.5c41.333 0 90.333 28.333 147 85zM652 252
c0 26.667 -7.16406 48.333 -21.4971 65s-34.5 25 -60.5 25c-8 0 -15.833 -1 -23.5 -3s-15.667 -5.16699 -24 -9.5l-21.5 -11.5c-6 -3.33301 -13.5 -8.83301 -22.5 -16.5l-19 -16.5l-20 -18.5c-9.66699 -9 -15.167 -14.167 -16.5 -15.5c21.333 -20 36.666 -34 45.999 -42
s24.166 -17.167 44.499 -27.5s40.166 -15.5 59.499 -15.5c24.667 0 44 8.16699 58 24.5s21 36.833 21 61.5zM717.003 254.999c0 -45.333 -13.3301 -82.8359 -39.9971 -112.503s-62.334 -44.5 -107.001 -44.5c-58 0 -121.333 36.333 -190 109
c-2 -2 -9.83301 -9.16699 -23.5 -21.5s-22.334 -20 -26.001 -23l-23 -18.5c-11.667 -9.33301 -21 -15.666 -28 -18.999l-26.5 -13c-10.667 -5.33301 -21.167 -8.83301 -31.5 -10.5s-21.166 -2.5 -32.499 -2.5c-44 0 -79.5 14.333 -106.5 43s-40.5 65.334 -40.5 110.001
c0 44 13.167 81 39.5 111s61.5 45 105.5 45c25.333 0 50.833 -6.66699 76.5 -20s45.167 -26 58.5 -38s32.666 -30.667 57.999 -56l17.5 17.5c9.66699 9.66699 16 15.834 19 18.501s9 8.33398 18 17.001s15.667 14.5 20 17.5l19.5 14
c8.66699 6.33301 16.167 10.833 22.5 13.5l22 9c8.33301 3.33301 16.666 5.66602 24.999 6.99902s16.833 2 25.5 2c44 0 79.667 -14.667 107 -44s41 -66.333 41 -111z" />
    <glyph glyph-name="integral" unicode="&#x222b;" horiz-adv-x="554" 
d="M420 730c0 -11.333 -4.00195 -20.499 -12.002 -27.499s-18 -10.5 -30 -10.5s-23.333 7.16699 -34 21.5s-18 21.5 -22 21.5c-5.33301 0 -10.166 -2.33301 -14.499 -7s-7.5 -10.834 -9.5 -18.501s-3.66699 -16 -5 -25s-2 -18.667 -2 -29v-27
c0 -7.66699 0.166992 -15.167 0.5 -22.5s0.5 -11.333 0.5 -12l1 -39v-511c0 -79.333 -5 -135 -15 -167c-18 -60 -55 -90 -111 -90c-17.333 0 -33.166 4.5 -47.499 13.5s-21.5 21.833 -21.5 38.5c0 9.33301 3.83301 17.666 11.5 24.999s16.167 11 25.5 11
c12 0 22.833 -7 32.5 -21s16.167 -21 19.5 -21c4.66699 0 8.83398 2.5 12.501 7.5s6.5 11.833 8.5 20.5s3.66699 17.834 5 27.501s2.16602 20.167 2.49902 31.5s0.5 20.833 0.5 28.5v23.5l-1 12v22v495c0 6 -0.166992 19 -0.5 39s-0.5 35.5 -0.5 46.5s0.666992 26.333 2 46
s3.5 35.5 6.5 47.5s7.66699 25.5 14 40.5s14 26.667 23 35s20.333 15.5 34 21.5s29.5 9 47.5 9c20.667 0 39 -4.66699 55 -14s24 -23.333 24 -42z" />
    <glyph glyph-name="approxequal" unicode="&#x2248;" horiz-adv-x="593" 
d="M510 234l50 -0.000976562c-4.66699 -42 -17.5 -76.667 -38.5 -104s-51.167 -41 -90.5 -41c-30 0 -77.667 12 -143 36s-108.333 36 -129 36s-37.667 -7.66699 -51 -23s-21.333 -33.666 -24 -54.999h-52c15.333 98.667 58.333 148 129 148
c29.333 0 75.833 -11.833 139.5 -35.5s108.5 -35.5 134.5 -35.5c40 0 65 24.667 75 74zM511 414.999h50.001c-4.66699 -42 -17.667 -76.833 -39 -104.5s-51.666 -41.5 -90.999 -41.5c-30.667 0 -78.334 11.833 -143.001 35.5s-107.334 35.5 -128.001 35.5
c-20 0 -36.667 -7.5 -50 -22.5s-22 -33.167 -26 -54.5h-51c4.66699 41.333 17.5 76.333 38.5 105s51.167 43 90.5 43c29.333 0 75.833 -11.833 139.5 -35.5s108.5 -35.5 134.5 -35.5c40 0 65 25 75 75z" />
    <glyph glyph-name="notequal" unicode="&#x2260;" horiz-adv-x="593" 
d="M550 114h-287l-76 -146l-62 32l59 114h-141v72h178l67 127h-245v71h283l77 148l62 -32l-61 -116h146v-71h-183l-67 -127h250v-72z" />
    <glyph glyph-name="lessequal" unicode="&#x2264;" horiz-adv-x="593" 
d="M550 -30h-507v72h507v-72zM550 82l-507 184v75l507 187v-78l-408 -146l408 -145v-77z" />
    <glyph glyph-name="greaterequal" unicode="&#x2265;" horiz-adv-x="593" 
d="M550 -30h-507v72h507v-72zM550 266l-507 -184v77l408 145l-408 146v78l507 -187v-75z" />
    <glyph glyph-name="lozenge" unicode="&#x25ca;" horiz-adv-x="593" 
d="M428 356l-132 315l-131 -315l131 -315zM504 356l-172 -391h-72l-171 391l171 391h72z" />
    <glyph glyph-name="commaaccent" unicode="&#xf004;" horiz-adv-x="278" 
d="M97 -50h86v-80c0 -46 -28.667 -70.333 -86 -73v28c24 4.66699 37 16 39 34h-39v91z" />
    <glyph glyph-name="commaaccent" unicode="&#xf6c3;" horiz-adv-x="278" 
d="M97 -50h86v-80c0 -46 -28.667 -70.333 -86 -73v28c24 4.66699 37 16 39 34h-39v91z" />
    <glyph glyph-name="dotlessj" unicode="&#xf6be;" horiz-adv-x="185" 
d="M61 -63l-0.00292969 578.998h63v-564c0 -95.333 -36.667 -143 -110 -143c-5.33301 0 -12.666 0.333008 -21.999 1s-16.666 1 -21.999 1v52c14.667 -1.33301 26 -1.66602 34 -0.999023c22.667 0 37.834 6.33301 45.501 19s11.5 31.334 11.5 56.001z" />
    <glyph glyph-name="dotlessj" unicode="&#xfb0f;" horiz-adv-x="185" 
d="M61 -63l-0.00292969 578.998h63v-564c0 -95.333 -36.667 -143 -110 -143c-5.33301 0 -12.666 0.333008 -21.999 1s-16.666 1 -21.999 1v52c14.667 -1.33301 26 -1.66602 34 -0.999023c22.667 0 37.834 6.33301 45.501 19s11.5 31.334 11.5 56.001z" />
    <glyph glyph-name="uniF8FF" unicode="&#xf8ff;" horiz-adv-x="512" 
d="M222 117h56v67h-56v-67zM225 234l46 -0.000976562c0 34.667 2 58.667 6 72c4 12.667 18.333 30 43 52c24.667 22.667 41.334 42.667 50.001 60s13 37.333 13 60c0 39.333 -11.667 71 -35 95s-53 36 -89 36c-37.333 0 -68 -11.333 -92 -34s-38.333 -57 -43 -103l50 -8
c7.33301 63.333 34.666 95 81.999 95c20.667 0 38.5 -8.16699 53.5 -24.5s22.5 -36.5 22.5 -60.5c0 -13.333 -3.16699 -25.666 -9.5 -36.999s-19.833 -26.666 -40.5 -45.999c-20.667 -20.667 -36 -40.334 -46 -59.001c-8.66699 -16.667 -13 -43.667 -13 -81zM462 49.999
h-412v617h412v-617zM512 717.999h-512v-718h512v718z" />
    <glyph glyph-name="nonmarkingreturn" horiz-adv-x="333" 
 />
    <glyph glyph-name="caron.alt" horiz-adv-x="185" 
d="M221 714l-86 -141h-47l55 141h78z" />
    <glyph glyph-name="commaaccent.alt" horiz-adv-x="278" 
d="M180 623h-86v80c0 46 28.667 70.333 86 73v-28c-24 -4.66699 -37 -16 -39 -34h39v-91z" />
    <glyph glyph-name="grave.cap" horiz-adv-x="185" 
d="M101 778l-132 141h78l105 -141h-51z" />
    <glyph glyph-name="acute.cap" horiz-adv-x="185" 
d="M216 919l-132 -141h-51l105 141h78z" />
    <glyph glyph-name="circumflex.cap" horiz-adv-x="185" 
d="M130 919l114 -141h-65l-86 102l-88 -102h-58l114 141h69z" />
    <glyph glyph-name="caron.cap" horiz-adv-x="185" 
d="M54 778l-114 141h65l86 -102l88 102h58l-114 -141h-69z" />
    <glyph glyph-name="tilde.cap" horiz-adv-x="185" 
d="M211 710l38.001 0.000976562c-4.66699 -26 -14.167 -48.333 -28.5 -67s-33.833 -28 -58.5 -28c-20 0 -45 7.66699 -75 23s-51 23 -63 23c-25.333 0 -42 -17 -50 -51h-39c2.66699 25.333 12 47.666 28 66.999s36.333 29 61 29c20.667 0 45.667 -7.33301 75 -22
s49.333 -22 60 -22c25.333 0 42.666 16 51.999 48z" />
    <glyph glyph-name="dieresis.cap" horiz-adv-x="185" 
d="M38 800h-68v101h68v-101zM215 800h-68v101h68v-101z" />
    <glyph glyph-name="macron.cap" horiz-adv-x="185" 
d="M257 828h-329v45h329v-45z" />
    <glyph glyph-name="breve.cap" horiz-adv-x="185" 
d="M-51 914h39c1.33301 -25.333 12.166 -45.333 32.499 -60s43.833 -22 70.5 -22s50 7.33301 70 22s32 34.667 36 60h39c-5.33301 -39.333 -20.833 -70.333 -46.5 -93s-58.5 -34 -98.5 -34c-40.667 0 -73.667 11.167 -99 33.5s-39.666 53.5 -42.999 93.5z" />
    <glyph glyph-name="ring.cap" horiz-adv-x="185" 
d="M25 860c0 -19.333 6.5 -35.5 19.5 -48.5s29.167 -19.5 48.5 -19.5s35.5 6.5 48.5 19.5s19.5 29.167 19.5 48.5s-6.5 35.5 -19.5 48.5s-29.167 19.5 -48.5 19.5s-35.5 -6.5 -48.5 -19.5s-19.5 -29.167 -19.5 -48.5zM-14 860c0 29.333 10.5 54.5 31.5 75.5
s46.167 31.5 75.5 31.5s54.5 -10.5 75.5 -31.5s31.5 -46.167 31.5 -75.5s-10.5 -54.5 -31.5 -75.5s-46.167 -31.5 -75.5 -31.5s-54.5 10.5 -75.5 31.5s-31.5 46.167 -31.5 75.5z" />
    <glyph glyph-name="hungarumlaut.cap" horiz-adv-x="185" 
d="M174 782h-51l101 141h76zM18 782h-51l101 141h76z" />
    <glyph glyph-name="dotaccent.cap" horiz-adv-x="185" 
d="M127 800h-68v101h68v-101z" />
    </font>
</defs>
</svg>
