<?xml version="1.0" standalone="no"?>
<!DOCTYPE svg PUBLIC "-//W3C//DTD SVG 1.1//EN" "http://www.w3.org/Graphics/SVG/1.1/DTD/svg11.dtd" >
<svg>
<metadata>
Created by FontForge 20090914 at Fri Feb 19 10:36:18 2016
 By www-data
Typeface and data &#194;&#169; 1996 Microsoft Corporation. All Rights Reserved
</metadata>
<defs>
<font id="Verdana" horiz-adv-x="1302" >
  <font-face 
    font-family="Verdana"
    font-weight="400"
    font-stretch="normal"
    units-per-em="2048"
    panose-1="2 11 6 4 3 5 4 4 2 4"
    ascent="1638"
    descent="-410"
    x-height="1117"
    cap-height="1489"
    bbox="-102 -423.004 2963 2117"
    underline-thickness="120"
    underline-position="-120"
    unicode-range="U+0020-U+F00D"
  />
<missing-glyph horiz-adv-x="2048" 
d="M256 0v1536h1536v-1536h-1536zM384 128h1280v1280h-1280v-1280z" />
    <glyph glyph-name=".notdef" horiz-adv-x="2048" 
d="M256 0v1536h1536v-1536h-1536zM384 128h1280v1280h-1280v-1280z" />
    <glyph glyph-name="space" unicode=" " horiz-adv-x="720" 
 />
    <glyph glyph-name="space" unicode="&#xa0;" horiz-adv-x="720" 
 />
    <glyph glyph-name="exclam" unicode="!" horiz-adv-x="806" 
d="M515 1489l-26 -1079h-170l-28 1079h224zM505 0h-204v211h204v-211z" />
    <glyph glyph-name="quotedbl" unicode="&#x22;" horiz-adv-x="940" 
d="M772 1556l-43 -579h-132l-43 579h218zM386 1556l-43 -579h-132l-43 579h218z" />
    <glyph glyph-name="numbersign" unicode="#" horiz-adv-x="1676" 
d="M1481 932h-333l-92 -376h308v-135h-343l-104 -421h-129l104 421h-270l-104 -421h-129l104 421h-298v135h333l92 376h-308v135h343l105 422h129l-105 -422h270l105 422h129l-105 -422h298v-135zM1022 934h-274l-94 -380h274z" />
    <glyph glyph-name="dollar" unicode="$" 
d="M1160 380c0 -103.333 -40.3311 -189.168 -120.998 -257.501s-186.334 -108.833 -317.001 -121.5v-362h-118v357c-88 0.666992 -170.667 9.16699 -248 25.5s-144.333 37.5 -201 63.5v198h16c12.667 -9.33301 35.334 -22.833 68.001 -40.5s64.334 -32.167 95.001 -43.5
c34.667 -12.667 75.167 -24.5 121.5 -35.5s95.833 -17.5 148.5 -19.5v433c-26.667 5.33301 -51.334 10.5 -74.001 15.5s-43.667 10.167 -63 15.5c-108.667 27.333 -186.667 68.5 -234 123.5s-71 122.833 -71 203.5c0 98.667 38.833 182 116.5 250s186.167 107.667 325.5 119
v272h118v-270c67.333 -1.33301 136.333 -9.33301 207 -24s130 -31.667 178 -51v-196h-14c-50 30.667 -102.167 57.834 -156.5 81.501s-125.833 38.5 -214.5 44.5v-431c20 -3.33301 41.667 -7.83301 65 -13.5s43.666 -10.167 60.999 -13.5
c99.333 -21.333 176.166 -58 230.499 -110s81.5 -123 81.5 -213zM604.002 746.998v413.002c-71.333 -5.33301 -131.333 -24.833 -180 -58.5s-73 -80.5 -73 -140.5c0 -60.667 18 -106.334 54 -137.001s102.333 -56.334 199 -77.001zM971.002 354
c0 62.667 -19.5 108.5 -58.5 137.5s-102.5 51.833 -190.5 68.5v-414c80 8 141.5 28.333 184.5 61s64.5 81.667 64.5 147z" />
    <glyph glyph-name="percent" unicode="%" horiz-adv-x="2204" 
d="M884 1076c0 -149.333 -31.5 -260.335 -94.5 -333.002s-153.833 -109 -272.5 -109c-121.333 0 -213 36.333 -275 109s-93 183.334 -93 332.001c0 149.333 31.667 260.333 95 333s154.333 109 273 109c120.667 0 212 -36.667 274 -110s93 -183.666 93 -330.999zM1575 1489
l-780 -1489h-165l780 1489h165zM2055 412.998c0 -149.333 -31.667 -260.331 -95 -332.998s-154.333 -109 -273 -109c-120.667 0 -212 36.667 -274 110s-93 183.666 -93 330.999c0 149.333 31.5 260.333 94.5 333s153.833 109 272.5 109c121.333 0 213 -36.333 275 -109
s93 -183.334 93 -332.001zM706 1076c0 114.667 -14.833 194.666 -44.5 239.999s-77.834 68 -144.501 68c-68 0 -116.667 -22.667 -146 -68s-44 -125.666 -44 -240.999s14.667 -195.5 44 -240.5s78 -67.5 146 -67.5c66.667 0 114.834 22.5 144.501 67.5
s44.5 125.5 44.5 241.5zM1877 412.999c0 114.667 -14.833 194.666 -44.5 239.999s-77.834 68 -144.501 68c-68 0 -116.667 -22.667 -146 -68s-44 -125.666 -44 -240.999s14.667 -195.5 44 -240.5s78 -67.5 146 -67.5c66.667 0 114.834 22.5 144.501 67.5
s44.5 125.5 44.5 241.5z" />
    <glyph glyph-name="ampersand" unicode="&#x26;" horiz-adv-x="1488" 
d="M792 1191c0 63.333 -18.8311 113.168 -56.498 149.501s-85.834 54.5 -144.501 54.5c-61.333 0 -111.333 -20.5 -150 -61.5s-58 -91.167 -58 -150.5c0 -50 13.167 -94.333 39.5 -133s83.166 -84.334 170.499 -137.001c65.333 23.333 114.833 57.5 148.5 102.5
s50.5 103.5 50.5 175.5zM986.002 315.002l-477.998 466.001c-20.667 -10 -41.334 -23.167 -62.001 -39.5s-41.334 -38.5 -62.001 -66.5c-18.667 -26 -34 -57.333 -46 -94s-18 -78 -18 -124c0 -97.333 28.5 -175.833 85.5 -235.5s137.833 -89.5 242.5 -89.5
c62 0 123.5 15.167 184.5 45.5s112.167 76.166 153.5 137.499zM1287 909.003l-0.000976562 -96.001c0 -64 -8.33301 -136 -25 -216s-45 -156.333 -85 -229l378 -368h-246l-229 224c-76.667 -94.667 -155 -160.834 -235 -198.501s-162.333 -56.5 -247 -56.5
c-138.667 0 -253.834 40.5 -345.501 121.5s-137.5 187.167 -137.5 318.5c0 61.333 8.66699 114.333 26 159s37.666 83.334 60.999 116.001c23.333 31.333 52.333 60.833 87 88.5s69.667 51.834 105 72.501c-73.333 48 -126.166 96.333 -158.499 145s-48.5 110 -48.5 184
c0 44.667 8.83301 87.167 26.5 127.5s44.167 77.166 79.5 110.499c33.333 32 76.833 58 130.5 78s112.834 30 177.501 30c115.333 0 208.666 -29.167 279.999 -87.5s107 -132.166 107 -221.499c0 -29.333 -4 -62.5 -12 -99.5s-21.667 -70.167 -41 -99.5
c-21.333 -32.667 -51.666 -64 -90.999 -94s-90.333 -55.667 -153 -77l371 -362c9.33301 26.667 16.333 56 21 88s7.33398 65.333 8.00098 100c1.33301 37.333 1.83301 79 1.5 125s-0.5 85 -0.5 117h195z" />
    <glyph glyph-name="quotesingle" unicode="'" horiz-adv-x="550" 
d="M386 1556l-43 -579h-136l-43 579h222z" />
    <glyph glyph-name="parenleft" unicode="(" horiz-adv-x="930" 
d="M783 -412l-228.998 0.00195312c-118 135.333 -209.667 283 -275 443s-98 340.333 -98 541s32.667 381 98 541s157 307.667 275 443h229v-10c-54 -48.667 -105.5 -104.834 -154.5 -168.501s-94.5 -137.834 -136.5 -222.501c-40 -82 -72.5 -172.333 -97.5 -271
s-37.5 -202.667 -37.5 -312c0 -114 12.167 -218.333 36.5 -313s57.166 -184.667 98.499 -270c40 -82 85.667 -156.167 137 -222.5s102.666 -122.5 153.999 -168.5v-10z" />
    <glyph glyph-name="parenright" unicode=")" horiz-adv-x="930" 
d="M749 572c0 -200.667 -32.665 -381.002 -97.998 -541.002s-157 -307.667 -275 -443h-229v10c51.333 46 102.833 102.167 154.5 168.5s97.167 140.5 136.5 222.5c41.333 85.333 74.166 175.333 98.499 270s36.5 199 36.5 313c0 109.333 -12.333 213.333 -37 312
s-57.334 189 -98.001 271c-42 84.667 -87.5 158.834 -136.5 222.501s-100.5 119.834 -154.5 168.501v10h229c118 -135.333 209.667 -283 275 -443s98 -340.333 98 -541z" />
    <glyph glyph-name="asterisk" unicode="*" 
d="M1137 887l-64 -110l-362 213l6 -360h-129l5 360l-361 -214l-65 110l381 207l-381 207l65 110l362 -213l-6 359h129l-7 -359l363 212l64 -110l-380 -205z" />
    <glyph glyph-name="plus" unicode="+" horiz-adv-x="1676" 
d="M1466 572h-545v-545h-166v545h-545v160h545v545h166v-545h545v-160z" />
    <glyph glyph-name="comma" unicode="," horiz-adv-x="745" 
d="M575 285l-282 -655h-146l174 655h254z" />
    <glyph glyph-name="hyphen" unicode="-" horiz-adv-x="930" 
d="M777 561h-624v181h624v-181z" />
    <glyph glyph-name="hyphen" unicode="&#xad;" horiz-adv-x="930" 
d="M777 561h-624v181h624v-181z" />
    <glyph glyph-name="period" unicode="." horiz-adv-x="745" 
d="M492 0h-239v285h239v-285z" />
    <glyph glyph-name="slash" unicode="/" horiz-adv-x="930" 
d="M860 1556l-717 -1860h-173l714 1860h176z" />
    <glyph glyph-name="zero" unicode="0" 
d="M1167 745c0 -267.333 -41.833 -463.502 -125.5 -588.502s-213.5 -187.5 -389.5 -187.5c-178.667 0 -309.167 63.333 -391.5 190s-123.5 321.334 -123.5 584.001c0 264.667 41.667 460.167 125 586.5s213.333 189.5 390 189.5c178.667 0 309.167 -64.167 391.5 -192.5
s123.5 -322.166 123.5 -581.499zM904 290.998c23.333 54 39.165 117.499 47.498 190.499s12.5 160.833 12.5 263.5c0 101.333 -4.16699 189.333 -12.5 264s-24.5 138 -48.5 190c-23.333 51.333 -55.166 90 -95.499 116s-92.166 39 -155.499 39
c-62.667 0 -114.5 -13 -155.5 -39s-73.5 -65.333 -97.5 -118c-22.667 -49.333 -38.167 -113.666 -46.5 -192.999s-12.5 -166.333 -12.5 -261c0 -104 3.66699 -191 11 -261s23 -132.667 47 -188c22 -52 53.167 -91.667 93.5 -119s93.833 -41 160.5 -41
c62.667 0 114.667 13 156 39s73.333 65.333 96 118z" />
    <glyph glyph-name="one" unicode="1" 
d="M1084 0l-806.002 -0.000976562v152h310v998h-310v136c42 0 87 3.5 135 10.5s84.333 17.167 109 30.5c30.667 16.667 54.834 37.834 72.501 63.501s27.834 60.167 30.501 103.5h155v-1342h304v-152z" />
    <glyph glyph-name="two" unicode="2" 
d="M1169 0l-1008 0.000976562v209l210.5 180c70.333 60 135.833 119.667 196.5 179c128 124 215.667 222.5 263 295.5s71 151.833 71 236.5c0 77.333 -25.5 137.833 -76.5 181.5s-122.167 65.5 -213.5 65.5c-60.667 0 -126.334 -10.667 -197.001 -32s-139.667 -54 -207 -98
h-10v210c47.333 23.333 110.5 44.666 189.5 63.999s155.5 29 229.5 29c152.667 0 272.334 -36.833 359.001 -110.5s130 -173.5 130 -299.5c0 -56.667 -7.16699 -109.5 -21.5 -158.5s-35.5 -95.5 -63.5 -139.5c-26 -41.333 -56.5 -82 -91.5 -122s-77.5 -84.333 -127.5 -133
c-71.333 -70 -145 -137.833 -221 -203.5l-213 -182.5h801v-171z" />
    <glyph glyph-name="three" unicode="3" 
d="M1038 717c32 -28.667 58.333 -64.666 79 -107.999s31 -99.333 31 -168c0 -68 -12.333 -130.333 -37 -187s-59.334 -106 -104.001 -148c-50 -46.667 -108.833 -81.167 -176.5 -103.5s-141.834 -33.5 -222.501 -33.5c-82.667 0 -164 9.83301 -244 29.5
s-145.667 41.167 -197 64.5v209h15c56.667 -37.333 123.334 -68.333 200.001 -93s150.667 -37 222 -37c42 0 86.667 7 134 21s85.666 34.667 114.999 62c30.667 29.333 53.5 61.666 68.5 96.999s22.5 80 22.5 134c0 53.333 -8.5 97.5 -25.5 132.5s-40.5 62.5 -70.5 82.5
c-30 20.667 -66.333 34.834 -109 42.501s-88.667 11.5 -138 11.5h-90v166h70c101.333 0 182.166 21.167 242.499 63.5s90.5 104.166 90.5 185.499c0 36 -7.66699 67.5 -23 94.5s-36.666 49.167 -63.999 66.5c-28.667 17.333 -59.334 29.333 -92.001 36s-69.667 10 -111 10
c-63.333 0 -130.666 -11.333 -201.999 -34s-138.666 -54.667 -201.999 -96h-10v209c47.333 23.333 110.5 44.833 189.5 64.5s155.5 29.5 229.5 29.5c72.667 0 136.667 -6.66699 192 -20s105.333 -34.666 150 -63.999c48 -32 84.333 -70.667 109 -116s37 -98.333 37 -159
c0 -82.667 -29.167 -154.834 -87.5 -216.501s-127.166 -100.5 -206.499 -116.5v-14c32 -5.33301 68.667 -16.5 110 -33.5s76.333 -38.167 105 -63.5z" />
    <glyph glyph-name="four" unicode="4" 
d="M1203 419h-221v-419h-192v419h-713v230l721 840h184v-910h221v-160zM790 579v672l-577 -672h577z" />
    <glyph glyph-name="five" unicode="5" 
d="M1157 473c0 -69.333 -12.6689 -135.663 -38.002 -198.996s-60 -116.666 -104 -159.999c-48 -46.667 -105.167 -82.5 -171.5 -107.5s-143.166 -37.5 -230.499 -37.5c-81.333 0 -159.666 8.5 -234.999 25.5s-139 37.5 -191 61.5v211h14
c54.667 -34.667 118.667 -64.167 192 -88.5s145.333 -36.5 216 -36.5c47.333 0 93.166 6.66699 137.499 20s83.833 36.666 118.5 69.999c29.333 28.667 51.5 63 66.5 103s22.5 86.333 22.5 139c0 51.333 -8.83301 94.666 -26.5 129.999s-42.167 63.666 -73.5 84.999
c-34.667 25.333 -76.834 43.166 -126.501 53.499s-105.167 15.5 -166.5 15.5c-58.667 0 -115.167 -4 -169.5 -12s-101.166 -16 -140.499 -24v767h896v-175h-703v-396c28.667 2.66699 58 4.66699 88 6s56 2 78 2c80.667 0 151.334 -6.83301 212.001 -20.5
s116.334 -37.834 167.001 -72.501c53.333 -36.667 94.666 -84 123.999 -142s44 -130.667 44 -218z" />
    <glyph glyph-name="six" unicode="6" 
d="M1191 483c0 -151.333 -49.832 -274.831 -149.499 -370.498s-221.834 -143.5 -366.501 -143.5c-73.333 0 -140 11.333 -200 34s-113 56.334 -159 101.001c-57.333 55.333 -101.5 128.666 -132.5 219.999s-46.5 201.333 -46.5 330c0 132 14.167 249 42.5 351
s73.5 192.667 135.5 272c58.667 75.333 134.334 134.166 227.001 176.499s200.667 63.5 324 63.5c39.333 0 72.333 -1.66699 99 -5s53.667 -9.33301 81 -18v-191h-10c-18.667 10 -46.834 19.5 -84.501 28.5s-76.167 13.5 -115.5 13.5
c-143.333 0 -257.666 -44.833 -342.999 -134.5s-135 -210.834 -149 -363.501c56 34 111.167 59.833 165.5 77.5s117.166 26.5 188.499 26.5c63.333 0 119.166 -5.83301 167.499 -17.5s97.833 -35.167 148.5 -70.5c58.667 -40.667 102.834 -92 132.501 -154
s44.5 -137.333 44.5 -226zM988.001 475.002c0 62 -9.16699 113.335 -27.5 154.002s-48.5 76 -90.5 106c-30.667 21.333 -64.667 35.333 -102 42s-76.333 10 -117 10c-56.667 0 -109.334 -6.66699 -158.001 -20s-98.667 -34 -150 -62
c-1.33301 -14.667 -2.33301 -28.834 -3 -42.501s-1 -30.834 -1 -51.501c0 -105.333 10.833 -188.5 32.5 -249.5s51.5 -109.167 89.5 -144.5c30.667 -29.333 63.834 -50.833 99.501 -64.5s74.5 -20.5 116.5 -20.5c96.667 0 172.667 29.5 228 88.5s83 143.833 83 254.5z" />
    <glyph glyph-name="seven" unicode="7" 
d="M1173 1266l-674 -1266h-214l717 1314h-848v175h1019v-223z" />
    <glyph glyph-name="eight" unicode="8" 
d="M1180 415c0 -128.667 -50.167 -235.667 -150.5 -321s-226.5 -128 -378.5 -128c-161.333 0 -289.833 41.667 -385.5 125s-143.5 190 -143.5 320c0 82.667 24 157.5 72 224.5s115.667 120.167 203 159.5v6c-80 42.667 -139.167 89.334 -177.5 140.001s-57.5 114 -57.5 190
c0 112 46 205.333 138 280s209 112 351 112c148.667 0 267.334 -35.667 356.001 -107s133 -162 133 -272c0 -67.333 -21 -133.5 -63 -198.5s-103.667 -115.833 -185 -152.5v-6c93.333 -40 164.666 -89.333 213.999 -148s74 -133.334 74 -224.001zM943 1142
c0 71.333 -27.5 128.167 -82.5 170.5s-125.167 63.5 -210.5 63.5c-84 0 -152.833 -20 -206.5 -60s-80.5 -94 -80.5 -162c0 -48 13.5 -89.5 40.5 -124.5s67.833 -66.167 122.5 -93.5c24.667 -12 60.167 -27.667 106.5 -47s91.5 -35.333 135.5 -48
c66 44 111.667 89.667 137 137s38 102 38 164zM974 396.001c0 61.333 -13.5 110.499 -40.5 147.499s-79.833 74.167 -158.5 111.5c-31.333 14.667 -65.666 28.334 -102.999 41.001l-149 53c-60 -32.667 -108.167 -77 -144.5 -133s-54.5 -119.333 -54.5 -190
c0 -90 31 -164.333 93 -223s140.667 -88 236 -88c97.333 0 175.166 25 233.499 75s87.5 118.667 87.5 206z" />
    <glyph glyph-name="nine" unicode="9" 
d="M1167 834c0 -130 -14.8301 -248 -44.4971 -354s-74.5 -196.333 -134.5 -271c-60.667 -76 -136.667 -134.667 -228 -176s-198.666 -62 -321.999 -62c-34.667 0 -67.334 1.83301 -98.001 5.5s-58 9.5 -82 17.5v191h10c19.333 -10 46.666 -19.5 81.999 -28.5
s74.666 -13.5 117.999 -13.5c147.333 0 262.833 44.167 346.5 132.5s132.167 210.166 145.5 365.499c-62 -37.333 -120.333 -64 -175 -80s-114.334 -24 -179.001 -24c-61.333 0 -116.833 6 -166.5 18s-99.5 35.333 -149.5 70
c-58.667 40.667 -102.834 92.334 -132.501 155.001s-44.5 137.667 -44.5 225c0 152 50 275.667 150 371s222 143 366 143c72 0 138.667 -11.167 200 -33.5s115 -55.833 161 -100.5c56.667 -55.333 100.334 -126.5 131.001 -213.5s46 -199.5 46 -337.5zM965.003 877
c0 103.333 -10.668 186.332 -32.001 248.999s-50.666 111.334 -87.999 146.001c-31.333 30 -65 51.5 -101 64.5s-75 19.5 -117 19.5c-96 0 -171.833 -30 -227.5 -90s-83.5 -144.333 -83.5 -253c0 -63.333 9 -115 27 -155s48.333 -75 91 -105c30 -20.667 63 -34.5 99 -41.5
s76 -10.5 120 -10.5c52 0 104.667 7 158 21s103.333 34.333 150 61c0.666992 14 1.5 27.833 2.5 41.5s1.5 31.167 1.5 52.5z" />
    <glyph glyph-name="colon" unicode=":" horiz-adv-x="930" 
d="M585 832h-239v285h239v-285zM585 0h-239v285h239v-285z" />
    <glyph glyph-name="semicolon" unicode=";" horiz-adv-x="930" 
d="M585 832h-239v285h239v-285zM658 285l-282 -655h-146l174 655h254z" />
    <glyph glyph-name="semicolon" unicode="&#x37e;" horiz-adv-x="930" 
d="M585 832h-239v285h239v-285zM658 285l-282 -655h-146l174 655h254z" />
    <glyph glyph-name="less" unicode="&#x3c;" horiz-adv-x="1676" 
d="M1408 77l-1154 513v124l1154 513v-180l-910 -395l910 -395v-180z" />
    <glyph glyph-name="equal" unicode="=" horiz-adv-x="1676" 
d="M1431 782h-1186v160h1186v-160zM1431 362h-1186v160h1186v-160z" />
    <glyph glyph-name="greater" unicode="&#x3e;" horiz-adv-x="1676" 
d="M1422 590l-1154 -513v180l910 395l-910 395v180l1154 -513v-124z" />
    <glyph glyph-name="question" unicode="?" horiz-adv-x="1117" 
d="M1005 1139c0 -65.333 -11.668 -123.501 -35.001 -174.501s-54 -96.167 -92 -135.5c-37.333 -38 -80.333 -73.667 -129 -107s-100.334 -65.666 -155.001 -96.999v-225h-179v305l140.5 81c50.333 29.333 91.5 59 123.5 89c38.667 34.667 68.667 70.5 90 107.5
s32 84.167 32 141.5c0 75.333 -25.5 131.5 -76.5 168.5s-116.833 55.5 -197.5 55.5c-72 0 -140.167 -11.333 -204.5 -34s-115.166 -45.667 -152.499 -69h-10v204c46.667 18 105.834 34.167 177.501 48.5s139.5 21.5 203.5 21.5c143.333 0 256.5 -34.833 339.5 -104.5
s124.5 -161.5 124.5 -275.5zM609.999 -0.000976562h-204v211h204v-211z" />
    <glyph glyph-name="at" unicode="@" horiz-adv-x="2048" 
d="M1870 663c0 -92.667 -13.5029 -182.332 -40.5029 -268.999s-65.5 -165.667 -115.5 -237h-440l-27 116c-49.333 -40 -96.666 -70.667 -141.999 -92s-97.333 -32 -156 -32c-112 0 -201.5 42.333 -268.5 127s-100.5 203 -100.5 355c0 151.333 41 272 123 362
s180 135 294 135c48.667 0 91.667 -5.5 129 -16.5s77.666 -27.5 120.999 -49.5v48h159v-842h243c28 50 49.167 112.5 63.5 187.5s21.5 142.167 21.5 201.5c0 109.333 -15.167 208.666 -45.5 297.999s-74.833 166 -133.5 230s-131.334 113.167 -218.001 147.5
s-185 51.5 -295 51.5c-106.667 0 -204.167 -19.333 -292.5 -58s-164.166 -90.667 -227.499 -156c-64 -65.333 -114.167 -143.5 -150.5 -234.5s-54.5 -187.833 -54.5 -290.5c0 -110 17.333 -210.5 52 -301.5s83.667 -168.833 147 -233.5
c66 -67.333 143.333 -118.166 232 -152.499s185.334 -51.5 290.001 -51.5c57.333 0 116.5 3.66699 177.5 11s119.5 19 175.5 35v-142c-64.667 -14 -125 -23.5 -181 -28.5s-113.667 -7.5 -173 -7.5c-124 0 -239 21.167 -345 63.5s-197 101.5 -273 177.5
c-76.667 76.667 -136.334 168.667 -179.001 276s-64 226 -64 356c0 123.333 22.333 238.166 67 344.499s105.667 198.5 183 276.5s169 139.333 275 184s219.333 67 340 67c130.667 0 247.334 -20.667 350.001 -62s189.334 -99.333 260.001 -174
s124.834 -164.5 162.501 -269.5s56.5 -221.833 56.5 -350.5zM1245 408.002l-0.00195312 518.002c-42 19.333 -79.667 33.166 -113 41.499s-69 12.5 -107 12.5c-86 0 -153.333 -30 -202 -90s-73 -145.333 -73 -256c0 -108.667 19.333 -190.834 58 -246.501
s99 -83.5 181 -83.5c44.667 0 89.334 10.333 134.001 31s85.334 45 122.001 73z" />
    <glyph glyph-name="A" unicode="A" horiz-adv-x="1400" 
d="M1374 0h-211l-146 415h-644l-146 -415h-201l542 1489h264zM956 585l-261 731l-262 -731h523z" />
    <glyph glyph-name="B" unicode="B" horiz-adv-x="1404" 
d="M1323 458c0 -74 -14.001 -139.33 -42.001 -195.997s-65.667 -103.334 -113 -140.001c-56 -44 -117.5 -75.333 -184.5 -94s-152.167 -28 -255.5 -28h-528v1489h441c108.667 0 190 -4 244 -12s105.667 -24.667 155 -50c54.667 -28.667 94.334 -65.5 119.001 -110.5
s37 -98.833 37 -161.5c0 -70.667 -18 -130.834 -54 -180.501s-84 -89.5 -144 -119.5v-8c100.667 -20.667 180 -64.834 238 -132.501s87 -153.167 87 -256.5zM989.999 1129c0 36 -6 66.333 -18 91s-31.333 44.667 -58 60c-31.333 18 -69.333 29.167 -114 33.5
s-100 6.5 -166 6.5h-236v-430h256c62 0 111.333 3.16699 148 9.5s70.667 19.5 102 39.5s53.5 45.833 66.5 77.5s19.5 69.167 19.5 112.5zM1117 450.003c0 60 -8.99805 107.667 -26.998 143s-50.667 65.333 -98 90c-32 16.667 -70.833 27.5 -116.5 32.5
s-101.167 7.5 -166.5 7.5h-311v-554h262c86.667 0 157.667 4.5 213 13.5s100.666 25.5 135.999 49.5c37.333 26 64.666 55.667 81.999 89s26 76.333 26 129z" />
    <glyph glyph-name="C" unicode="C" horiz-adv-x="1430" 
d="M1350 108l-99.5 -45.0039c-29.667 -14 -68.5 -28.667 -116.5 -44c-40.667 -12.667 -84.834 -23.5 -132.501 -32.5s-100.167 -13.5 -157.5 -13.5c-108 0 -206.167 15.167 -294.5 45.5s-165.166 77.833 -230.499 142.5c-64 63.333 -114 143.833 -150 241.5
s-54 211.167 -54 340.5c0 122.667 17.333 232.334 52 329.001s84.667 178.334 150 245.001c63.333 64.667 139.833 114 229.5 148s189.167 51 298.5 51c80 0 159.833 -9.66699 239.5 -29s168.167 -53.333 265.5 -102v-235h-15c-82 68.667 -163.333 118.667 -244 150
s-167 47 -259 47c-75.333 0 -143.166 -12.167 -203.499 -36.5s-114.166 -62.166 -161.499 -113.499c-46 -50 -81.833 -113.167 -107.5 -189.5s-38.5 -164.5 -38.5 -264.5c0 -104.667 14.167 -194.667 42.5 -270s64.833 -136.666 109.5 -183.999
c46.667 -49.333 101.167 -85.833 163.5 -109.5s128.166 -35.5 197.499 -35.5c95.333 0 184.666 16.333 267.999 49s161.333 81.667 234 147h14v-232z" />
    <glyph glyph-name="D" unicode="D" horiz-adv-x="1578" 
d="M1458 743c0 -135.333 -29.499 -258.001 -88.499 -368.001s-137.5 -195.333 -235.5 -256c-68 -42 -143.833 -72.333 -227.5 -91s-193.834 -28 -330.501 -28h-376v1489h372c145.333 0 260.833 -10.5 346.5 -31.5s158.167 -49.833 217.5 -86.5
c101.333 -63.333 180.333 -147.666 237 -252.999s85 -230.333 85 -375zM1251 745.999c0 116.667 -20.332 215.001 -60.999 295.001s-101.334 143 -182.001 189c-58.667 33.333 -121 56.5 -187 69.5s-145 19.5 -237 19.5h-186v-1149h186c95.333 0 178.5 7 249.5 21
s136.167 40 195.5 78c74 47.333 129.5 109.666 166.5 186.999s55.5 174 55.5 290z" />
    <glyph glyph-name="E" unicode="E" horiz-adv-x="1295" 
d="M1181 0h-981v1489h981v-176h-783v-408h783v-176h-783v-553h783v-176z" />
    <glyph glyph-name="F" unicode="F" horiz-adv-x="1177" 
d="M1151 1313h-753v-420h647v-176h-647v-717h-198v1489h951v-176z" />
    <glyph glyph-name="G" unicode="G" horiz-adv-x="1588" 
d="M1442 110c-81.333 -37.333 -170.167 -69.834 -266.5 -97.501s-189.5 -41.5 -279.5 -41.5c-116 0 -222.333 16 -319 48s-179 80 -247 144c-68.667 64.667 -121.667 145.5 -159 242.5s-56 210.5 -56 340.5c0 238 69.5 425.833 208.5 563.5s329.833 206.5 572.5 206.5
c84.667 0 171.167 -10.167 259.5 -30.5s183.5 -54.833 285.5 -103.5v-235h-18c-20.667 16 -50.667 37 -90 63s-78 47.667 -116 65c-46 20.667 -98.167 37.834 -156.5 51.501s-124.5 20.5 -198.5 20.5c-166.667 0 -298.5 -53.5 -395.5 -160.5s-145.5 -251.833 -145.5 -434.5
c0 -192.667 50.667 -342.5 152 -449.5s239.333 -160.5 414 -160.5c64 0 127.833 6.33301 191.5 19s119.5 29 167.5 49v365h-399v174h595v-639z" />
    <glyph glyph-name="H" unicode="H" horiz-adv-x="1539" 
d="M1339 0h-198v729h-743v-729h-198v1489h198v-584h743v584h198v-1489z" />
    <glyph glyph-name="I" unicode="I" horiz-adv-x="862" 
d="M725 0h-588v152h195v1185h-195v152h588v-152h-195v-1185h195v-152z" />
    <glyph glyph-name="J" unicode="J" horiz-adv-x="931" 
d="M746 387c0 -130.667 -39.8311 -231.335 -119.498 -302.002s-186.5 -106 -320.5 -106c-32 0 -74.667 2.83301 -128 8.5s-98 12.5 -134 20.5v185h11c27.333 -9.33301 61 -19 101 -29s81 -15 123 -15c61.333 0 110.166 7 146.499 21s63.166 34 80.499 60
c18 26.667 29.5 59.334 34.5 98.001s7.5 83.334 7.5 134.001v869h-315v158h513v-1102z" />
    <glyph glyph-name="K" unicode="K" horiz-adv-x="1419" 
d="M1397 0h-257l-589 663l-148 -158v-505h-198v1489h198v-777l723 777h240l-665 -700z" />
    <glyph glyph-name="L" unicode="L" horiz-adv-x="1140" 
d="M1142 0h-942v1489h198v-1313h744v-176z" />
    <glyph glyph-name="M" unicode="M" horiz-adv-x="1726" 
d="M1526 0h-198v1283l-414 -873h-118l-411 873v-1283h-185v1489h270l397 -829l384 829h275v-1489z" />
    <glyph glyph-name="N" unicode="N" horiz-adv-x="1532" 
d="M1336 0h-245l-706 1332v-1332h-185v1489h307l644 -1216v1216h185v-1489z" />
    <glyph glyph-name="O" unicode="O" horiz-adv-x="1612" 
d="M1310 1318c60.667 -66.667 107.168 -148.331 139.501 -244.998s48.5 -206.334 48.5 -329.001s-16.5 -232.5 -49.5 -329.5s-79.167 -177.833 -138.5 -242.5c-61.333 -67.333 -133.833 -118 -217.5 -152s-179.167 -51 -286.5 -51c-104.667 0 -199.834 17.333 -285.501 52
s-158.5 85 -218.5 151s-106.167 147 -138.5 243s-48.5 205.667 -48.5 329c0 121.333 16 230.166 48 326.499s78.667 178.833 140 247.5c58.667 65.333 131.5 115.333 218.5 150s181.833 52 284.5 52c106.667 0 202.5 -17.5 287.5 -52.5s157.167 -84.833 216.5 -149.5z
M1292 744.003c0 193.333 -43.334 342.5 -130.001 447.5s-205 157.5 -355 157.5c-151.333 0 -270.166 -52.5 -356.499 -157.5s-129.5 -254.167 -129.5 -447.5c0 -195.333 44 -344.833 132 -448.5s206 -155.5 354 -155.5s265.833 51.833 353.5 155.5
s131.5 253.167 131.5 448.5z" />
    <glyph glyph-name="P" unicode="P" horiz-adv-x="1235" 
d="M1174 1039c0 -66 -11.5 -127.167 -34.5 -183.5s-55.167 -105.166 -96.5 -146.499c-51.333 -51.333 -112 -89.833 -182 -115.5s-158.333 -38.5 -265 -38.5h-198v-555h-198v1489h404c89.333 0 165 -7.5 227 -22.5s117 -38.5 165 -70.5c56.667 -38 100.5 -85.333 131.5 -142
s46.5 -128.334 46.5 -215.001zM968 1034c0 51.333 -9 96.001 -27 134.001s-45.333 69 -82 93c-32 20.667 -68.5 35.5 -109.5 44.5s-92.833 13.5 -155.5 13.5h-196v-595h167c80 0 145 7.16699 195 21.5s90.667 37.166 122 68.499c31.333 32 53.5 65.667 66.5 101
s19.5 75 19.5 119z" />
    <glyph glyph-name="Q" unicode="Q" horiz-adv-x="1612" 
d="M1528 -365c-40 -10 -79.5 -17.165 -118.5 -21.498s-78.833 -6.5 -119.5 -6.5c-116 0 -209.167 31.833 -279.5 95.5s-108.5 154.834 -114.5 273.501c-16 -2.66699 -31.5 -4.5 -46.5 -5.5s-29.5 -1.5 -43.5 -1.5c-104.667 0 -199.834 17.333 -285.501 52
s-158.5 85 -218.5 151s-106.167 147 -138.5 243s-48.5 205.667 -48.5 329c0 121.333 16 230.166 48 326.499s78.667 178.833 140 247.5c58.667 65.333 131.5 115.333 218.5 150s181.833 52 284.5 52c106.667 0 202.5 -17.5 287.5 -52.5s157.167 -84.833 216.5 -149.5
c60.667 -66.667 107.167 -148.334 139.5 -245.001s48.5 -206.334 48.5 -329.001c0 -182 -37.167 -335.333 -111.5 -460s-174.166 -212 -299.499 -262c2.66699 -76 20.667 -135 54 -177s94 -63 182 -63c27.333 0 59.833 4.16699 97.5 12.5s64.5 15.833 80.5 22.5h27v-182z
M1292 744.002c0 193.333 -43.334 342.5 -130.001 447.5s-205 157.5 -355 157.5c-151.333 0 -270.166 -52.5 -356.499 -157.5s-129.5 -254.167 -129.5 -447.5c0 -195.333 44 -344.833 132 -448.5s206 -155.5 354 -155.5s265.833 51.833 353.5 155.5
s131.5 253.167 131.5 448.5z" />
    <glyph glyph-name="R" unicode="R" horiz-adv-x="1424" 
d="M1432 0l-257 -0.000976562l-498 592h-279v-592h-198v1489h417c90 0 165 -5.83301 225 -17.5s114 -32.5 162 -62.5c54 -34 96.167 -76.833 126.5 -128.5s45.5 -117.167 45.5 -196.5c0 -107.333 -27 -197.166 -81 -269.499s-128.333 -126.833 -223 -163.5zM969 1070
c0 42.667 -7.50293 80.5 -22.5029 113.5s-39.833 60.833 -74.5 83.5c-28.667 19.333 -62.667 32.833 -102 40.5s-85.666 11.5 -138.999 11.5h-233v-562h200c62.667 0 117.334 5.5 164.001 16.5s86.334 31.5 119.001 61.5c30 28 52.167 60.167 66.5 96.5
s21.5 82.5 21.5 138.5z" />
    <glyph glyph-name="S" unicode="S" horiz-adv-x="1400" 
d="M1282 425c0 -58 -13.502 -115.336 -40.502 -172.003s-64.833 -104.667 -113.5 -144c-53.333 -42.667 -115.5 -76 -186.5 -100s-156.5 -36 -256.5 -36c-107.333 0 -203.833 10 -289.5 30s-172.834 49.667 -261.501 89v248h14c75.333 -62.667 162.333 -111 261 -145
s191.334 -51 278.001 -51c122.667 0 218.167 23 286.5 69s102.5 107.333 102.5 184c0 66 -16.167 114.667 -48.5 146s-81.5 55.666 -147.5 72.999c-50 13.333 -104.167 24.333 -162.5 33s-120.166 19.667 -185.499 33c-132 28 -229.833 75.833 -293.5 143.5
s-95.5 155.834 -95.5 264.501c0 124.667 52.667 226.834 158 306.501s239 119.5 401 119.5c104.667 0 200.667 -10 288 -30s164.666 -44.667 231.999 -74v-234h-14c-56.667 48 -131.167 87.833 -223.5 119.5s-186.833 47.5 -283.5 47.5c-106 0 -191.167 -22 -255.5 -66
s-96.5 -100.667 -96.5 -170c0 -62 16 -110.667 48 -146s88.333 -62.333 169 -81c42.667 -9.33301 103.334 -20.666 182.001 -33.999s145.334 -27 200.001 -41c110.667 -29.333 194 -73.666 250 -132.999s84 -142.333 84 -249z" />
    <glyph glyph-name="T" unicode="T" horiz-adv-x="1262" 
d="M1262 1313h-532v-1313h-198v1313h-532v176h1262v-176z" />
    <glyph glyph-name="U" unicode="U" horiz-adv-x="1499" 
d="M1321 598c0 -108 -11.834 -202.167 -35.501 -282.5s-62.5 -147.166 -116.5 -200.499c-51.333 -50.667 -111.333 -87.667 -180 -111s-148.667 -35 -240 -35c-93.333 0 -174.666 12.333 -243.999 37s-127.666 61 -174.999 109c-54 54.667 -92.833 120.667 -116.5 198
s-35.5 172.333 -35.5 285v891h198v-901c0 -80.667 5.5 -144.334 16.5 -191.001s29.5 -89 55.5 -127c29.333 -43.333 69.166 -76 119.499 -98s110.833 -33 181.5 -33c71.333 0 132 10.833 182 32.5s90 54.5 120 98.5c26 38 44.5 81.5 55.5 130.5s16.5 109.833 16.5 182.5v906
h198v-891z" />
    <glyph glyph-name="V" unicode="V" horiz-adv-x="1400" 
d="M1374 1489l-542 -1489h-264l-542 1489h212l467 -1310l467 1310h202z" />
    <glyph glyph-name="W" unicode="W" horiz-adv-x="2025" 
d="M1933 1489l-387 -1489h-223l-313 1236l-306 -1236h-218l-394 1489h203l313 -1238l308 1238h201l311 -1250l311 1250h194z" />
    <glyph glyph-name="X" unicode="X" horiz-adv-x="1403" 
d="M1336 1489l-514 -736l513 -753h-229l-406 613l-416 -613h-216l519 744l-507 745h228l401 -605l410 605h217z" />
    <glyph glyph-name="Y" unicode="Y" horiz-adv-x="1260" 
d="M1254 1489l-524 -836v-653h-198v632l-526 857h219l407 -666l411 666h211z" />
    <glyph glyph-name="Z" unicode="Z" horiz-adv-x="1403" 
d="M1288 0h-1162v184l913 1129h-879v176h1106v-179l-922 -1134h944v-176z" />
    <glyph glyph-name="bracketleft" unicode="[" horiz-adv-x="930" 
d="M759 -392h-520v1948h520v-143h-346v-1662h346v-143z" />
    <glyph glyph-name="backslash" unicode="\" horiz-adv-x="930" 
d="M960 -304h-173l-717 1860h176z" />
    <glyph glyph-name="bracketright" unicode="]" horiz-adv-x="930" 
d="M691 -392h-520v143h346v1662h-346v143h520v-1948z" />
    <glyph glyph-name="asciicircum" unicode="^" horiz-adv-x="1676" 
d="M1490 684h-198l-455 627l-454 -629h-197l589 807h126z" />
    <glyph glyph-name="underscore" unicode="_" 
d="M1306 -300h-1310v120h1310v-120z" />
    <glyph glyph-name="grave" unicode="`" 
d="M762 1302h-149l-273 374h243z" />
    <glyph glyph-name="a" unicode="a" horiz-adv-x="1230" 
d="M1053 0l-186.995 0.000976562v119l-67.5 -47.5c-28.333 -20.333 -55.833 -36.5 -82.5 -48.5c-31.333 -15.333 -67.333 -28.166 -108 -38.499s-88.334 -15.5 -143.001 -15.5c-100.667 0 -186 33.333 -256 100s-105 151.667 -105 255c0 84.667 18.167 153.167 54.5 205.5
s88.166 93.5 155.499 123.5c68 30 149.667 50.333 245 61s197.666 18.667 306.999 24v29c0 42.667 -7.5 78 -22.5 106s-36.5 50 -64.5 66c-26.667 15.333 -58.667 25.666 -96 30.999s-76.333 8 -117 8c-49.333 0 -104.333 -6.5 -165 -19.5s-123.334 -31.833 -188.001 -56.5
h-10v191c36.667 10 89.667 21 159 33s137.666 18 204.999 18c78.667 0 147.167 -6.5 205.5 -19.5s108.833 -35.167 151.5 -66.5c42 -30.667 74 -70.334 96 -119.001s33 -109 33 -181v-758zM866.005 275.001l-0.000976562 311c-57.333 -3.33301 -124.833 -8.33301 -202.5 -15
s-139.167 -16.334 -184.5 -29.001c-54 -15.333 -97.667 -39.166 -131 -71.499s-50 -76.833 -50 -133.5c0 -64 19.333 -112.167 58 -144.5s97.667 -48.5 177 -48.5c66 0 126.333 12.833 181 38.5s105.334 56.5 152.001 92.5z" />
    <glyph glyph-name="b" unicode="b" horiz-adv-x="1276" 
d="M1168 567c0 -93.333 -13.168 -177.332 -39.501 -251.999s-61.833 -137.334 -106.5 -188.001c-47.333 -52.667 -99.333 -92.167 -156 -118.5s-119 -39.5 -187 -39.5c-63.333 0 -118.666 7.5 -165.999 22.5s-94 35.167 -140 60.5l-12 -52h-176v1556h188v-556
c52.667 43.333 108.667 78.833 168 106.5s126 41.5 200 41.5c132 0 236.167 -50.667 312.5 -152s114.5 -244.333 114.5 -429zM973.999 562.001c0 133.333 -21.999 234.5 -65.999 303.5s-115 103.5 -213 103.5c-54.667 0 -110 -11.833 -166 -35.5s-108 -54.167 -156 -91.5
v-640c53.333 -24 99.166 -40.667 137.499 -50s81.833 -14 130.5 -14c104 0 185.5 34.167 244.5 102.5s88.5 175.5 88.5 321.5z" />
    <glyph glyph-name="c" unicode="c" horiz-adv-x="1067" 
d="M1011 70c-62.667 -30 -122.164 -53.332 -178.497 -69.999s-116.166 -25 -179.499 -25c-80.667 0 -154.667 11.833 -222 35.5s-125 59.5 -173 107.5c-48.667 48 -86.334 108.667 -113.001 182s-40 159 -40 257c0 182.667 50.167 326 150.5 430s232.833 156 397.5 156
c64 0 126.833 -9 188.5 -27s118.167 -40 169.5 -66v-209h-10c-57.333 44.667 -116.5 79 -177.5 103s-120.5 36 -178.5 36c-106.667 0 -190.834 -35.833 -252.501 -107.5s-92.5 -176.834 -92.5 -315.501c0 -134.667 30.167 -238.167 90.5 -310.5
s145.166 -108.5 254.499 -108.5c38 0 76.667 5 116 15s74.666 23 105.999 39c27.333 14 53 28.833 77 44.5s43 29.167 57 40.5h10v-207z" />
    <glyph glyph-name="d" unicode="d" horiz-adv-x="1276" 
d="M1091 0l-187.999 -0.000976562v117c-54 -46.667 -110.333 -83 -169 -109s-122.334 -39 -191.001 -39c-133.333 0 -239.166 51.333 -317.499 154s-117.5 245 -117.5 427c0 94.667 13.5 179 40.5 253s63.5 137 109.5 189c45.333 50.667 98.166 89.334 158.499 116.001
s122.833 40 187.5 40c58.667 0 110.667 -6.16699 156 -18.5s93 -31.5 143 -57.5v484h188v-1556zM903.001 274.999v640.999c-50.667 22.667 -96 38.334 -136 47.001s-83.667 13 -131 13c-105.333 0 -187.333 -36.667 -246 -110s-88 -177.333 -88 -312
c0 -132.667 22.667 -233.5 68 -302.5s118 -103.5 218 -103.5c53.333 0 107.333 11.833 162 35.5s105.667 54.167 153 91.5z" />
    <glyph glyph-name="e" unicode="e" horiz-adv-x="1220" 
d="M1120 539l-823.003 0.000976562c0 -68.667 10.333 -128.5 31 -179.5s49 -92.833 85 -125.5c34.667 -32 75.834 -56 123.501 -72s100.167 -24 157.5 -24c76 0 152.5 15.167 229.5 45.5s131.833 60.166 164.5 89.499h10v-205c-63.333 -26.667 -128 -49 -194 -67
s-135.333 -27 -208 -27c-185.333 0 -330 50.167 -434 150.5s-156 242.833 -156 427.5c0 182.667 49.833 327.667 149.5 435s230.834 161 393.501 161c150.667 0 266.834 -44 348.501 -132s122.5 -213 122.5 -375v-102zM936.997 683.001
c-0.666992 98.667 -25.499 175 -74.499 229s-123.5 81 -223.5 81c-100.667 0 -180.834 -29.667 -240.501 -89s-93.5 -133 -101.5 -221h640z" />
    <glyph glyph-name="f" unicode="f" horiz-adv-x="720" 
d="M786 1374h-10.001c-20.667 6 -47.667 12.167 -81 18.5s-62.666 9.5 -87.999 9.5c-80.667 0 -139.167 -17.833 -175.5 -53.5s-54.5 -100.167 -54.5 -193.5v-38h339v-158h-333v-959h-188v959h-127v158h127v37c0 132.667 33 234.5 99 305.5s161.333 106.5 286 106.5
c42 0 79.833 -2 113.5 -6s64.5 -8.66699 92.5 -14v-172z" />
    <glyph glyph-name="g" unicode="g" horiz-adv-x="1276" 
d="M1091 127c0 -189.333 -43.0049 -328.331 -129.005 -416.998s-218.333 -133 -397 -133c-59.333 0 -117.166 4.16699 -173.499 12.5s-111.833 20.166 -166.5 35.499v192h10c30.667 -12 79.334 -26.833 146.001 -44.5s133.334 -26.5 200.001 -26.5c64 0 117 7.66699 159 23
s74.667 36.666 98 63.999c23.333 26 40 57.333 50 94s15 77.667 15 123v102c-56.667 -45.333 -110.834 -79.166 -162.501 -101.499s-117.5 -33.5 -197.5 -33.5c-133.333 0 -239.166 48.167 -317.499 144.5s-117.5 232.166 -117.5 407.499c0 96 13.5 178.833 40.5 248.5
s63.833 129.834 110.5 180.501c43.333 47.333 96 84.166 158 110.499s123.667 39.5 185 39.5c64.667 0 118.834 -6.5 162.501 -19.5s89.834 -32.833 138.501 -59.5l12 48h176v-990zM902.995 307.002l-0.000976562 608.999c-50 22.667 -96.5 38.834 -139.5 48.501
s-85.833 14.5 -128.5 14.5c-103.333 0 -184.666 -34.667 -243.999 -104s-89 -170 -89 -302c0 -125.333 22 -220.333 66 -285s117 -97 219 -97c54.667 0 109.5 10.5 164.5 31.5s105.5 49.167 151.5 84.5z" />
    <glyph glyph-name="h" unicode="h" horiz-adv-x="1296" 
d="M1119 0h-188.001v636c0 51.333 -3 99.5 -9 144.5s-17 80.167 -33 105.5c-16.667 28 -40.667 48.833 -72 62.5s-72 20.5 -122 20.5c-51.333 0 -105 -12.667 -161 -38s-109.667 -57.666 -161 -96.999v-834h-188v1556h188v-563c58.667 48.667 119.334 86.667 182.001 114
s127 41 193 41c120.667 0 212.667 -36.333 276 -109s95 -177.334 95 -314.001v-725z" />
    <glyph glyph-name="i" unicode="i" horiz-adv-x="562" 
d="M387 1304h-212v195h212v-195zM375 0h-188v1117h188v-1117z" />
    <glyph glyph-name="j" unicode="j" horiz-adv-x="705" 
d="M533 1304h-212v195h212v-195zM521 -27c0 -130.667 -33.333 -229.335 -100 -296.002s-156 -100 -268 -100c-26.667 0 -61.834 2.66699 -105.501 8s-80.167 12 -109.5 20v179h10c18.667 -7.33301 43.834 -15.666 75.501 -24.999s62.5 -14 92.5 -14
c48 0 86.667 6.66699 116 20s51.333 33.333 66 60s24.167 58.834 28.5 96.501s6.5 83.5 6.5 137.5v900h-233v158h421v-1144z" />
    <glyph glyph-name="k" unicode="k" horiz-adv-x="1212" 
d="M1199 0h-248l-448 489l-122 -116v-373h-188v1556h188v-998l543 559h237l-519 -516z" />
    <glyph glyph-name="l" unicode="l" horiz-adv-x="562" 
d="M375 0h-188v1556h188v-1556z" />
    <glyph glyph-name="m" unicode="m" horiz-adv-x="1992" 
d="M1815 0l-187.998 -0.00390625v636c0 48 -2.16699 94.333 -6.5 139s-13.5 80.334 -27.5 107.001c-15.333 28.667 -37.333 50.334 -66 65.001s-70 22 -124 22c-52.667 0 -105.334 -13.167 -158.001 -39.5s-105.334 -59.833 -158.001 -100.5
c2 -15.333 3.66699 -33.166 5 -53.499s2 -40.5 2 -60.5v-715h-188v636c0 49.333 -2.16699 96.166 -6.5 140.499s-13.5 79.833 -27.5 106.5c-15.333 28.667 -37.333 50.167 -66 64.5s-70 21.5 -124 21.5c-51.333 0 -102.833 -12.667 -154.5 -38
s-103.167 -57.666 -154.5 -96.999v-834h-188v1117h188v-124c58.667 48.667 117.167 86.667 175.5 114s120.5 41 186.5 41c76 0 140.5 -16 193.5 -48s92.5 -76.333 118.5 -133c76 64 145.333 110.167 208 138.5s129.667 42.5 201 42.5
c122.667 0 213.167 -37.167 271.5 -111.5s87.5 -178.166 87.5 -311.499v-725z" />
    <glyph glyph-name="n" unicode="n" horiz-adv-x="1296" 
d="M1119 0h-188.001v636c0 51.333 -3 99.5 -9 144.5s-17 80.167 -33 105.5c-16.667 28 -40.667 48.833 -72 62.5s-72 20.5 -122 20.5c-51.333 0 -105 -12.667 -161 -38s-109.667 -57.666 -161 -96.999v-834h-188v1117h188v-124c58.667 48.667 119.334 86.667 182.001 114
s127 41 193 41c120.667 0 212.667 -36.333 276 -109s95 -177.334 95 -314.001v-725z" />
    <glyph glyph-name="o" unicode="o" horiz-adv-x="1243" 
d="M1137 558c0 -182 -46.667 -325.667 -140 -431s-218.333 -158 -375 -158c-158 0 -283.5 52.667 -376.5 158s-139.5 249 -139.5 431s46.5 325.833 139.5 431.5s218.5 158.5 376.5 158.5c156.667 0 281.667 -52.833 375 -158.5s140 -249.5 140 -431.5zM943 558
c0 144.667 -28.332 252.167 -84.999 322.5s-135.334 105.5 -236.001 105.5c-102 0 -181.167 -35.167 -237.5 -105.5s-84.5 -177.833 -84.5 -322.5c0 -140 28.333 -246.167 85 -318.5s135.667 -108.5 237 -108.5c100 0 178.5 35.833 235.5 107.5s85.5 178.167 85.5 319.5z
" />
    <glyph glyph-name="p" unicode="p" horiz-adv-x="1276" 
d="M1168 572c0 -90.667 -12.999 -173.5 -38.999 -248.5s-62.667 -138.5 -110 -190.5c-44 -49.333 -95.833 -87.5 -155.5 -114.5s-122.834 -40.5 -189.501 -40.5c-58 0 -110.5 6.33301 -157.5 19s-94.833 32.334 -143.5 59.001v-468h-188v1529h188v-117
c50 42 106.167 77.167 168.5 105.5s128.833 42.5 199.5 42.5c134.667 0 239.5 -50.833 314.5 -152.5s112.5 -242.834 112.5 -423.501zM974.001 567c0 134.667 -23 235.332 -69 301.999s-116.667 100 -212 100c-54 0 -108.333 -11.667 -163 -35s-107 -54 -157 -92v-633
c53.333 -24 99.166 -40.333 137.499 -49s81.833 -13 130.5 -13c104.667 0 186.334 35.333 245.001 106s88 175.334 88 314.001z" />
    <glyph glyph-name="q" unicode="q" horiz-adv-x="1276" 
d="M1091 -412l-188 -0.000976562v538c-58 -50 -115.667 -87.167 -173 -111.5s-119.333 -36.5 -186 -36.5c-132.667 0 -238.5 51.167 -317.5 153.5s-118.5 243.5 -118.5 423.5c0 96 13.833 180.833 41.5 254.5s64.167 135.5 109.5 185.5c44 48.667 95.667 86.334 155 113.001
s122 40 188 40c60 0 113.167 -6.66699 159.5 -20s93.5 -33 141.5 -59l12 48h176v-1529zM903 283.999v632.001c-52 23.333 -98 39.666 -138 48.999s-83.333 14 -130 14c-108.667 0 -191.334 -36.833 -248.001 -110.5s-85 -175.167 -85 -304.5
c0 -130.667 22.833 -231.167 68.5 -301.5s117.5 -105.5 215.5 -105.5c54.667 0 109.334 11.833 164.001 35.5s105.667 54.167 153 91.5z" />
    <glyph glyph-name="r" unicode="r" horiz-adv-x="874" 
d="M882 912l-10.001 0.00195312c-28 6.66699 -55.167 11.5 -81.5 14.5s-57.5 4.5 -93.5 4.5c-58 0 -114 -12.833 -168 -38.5s-106 -58.834 -156 -99.501v-793h-188v1117h188v-165c74.667 60 140.5 102.5 197.5 127.5s115.167 37.5 174.5 37.5
c32.667 0 56.334 -0.833008 71.001 -2.5s36.667 -4.83398 66 -9.50098v-193z" />
    <glyph glyph-name="s" unicode="s" horiz-adv-x="1067" 
d="M983 322c0 -102 -42.167 -185.666 -126.5 -250.999s-199.5 -98 -345.5 -98c-82.667 0 -158.5 9.83301 -227.5 29.5s-126.833 41.167 -173.5 64.5v211h10c59.333 -44.667 125.333 -80.167 198 -106.5s142.334 -39.5 209.001 -39.5c82.667 0 147.334 13.333 194.001 40
s70 68.667 70 126c0 44 -12.667 77.333 -38 100s-74 42 -146 58c-26.667 6 -61.5 13 -104.5 21s-82.167 16.667 -117.5 26c-98 26 -167.5 64.167 -208.5 114.5s-61.5 112.166 -61.5 185.499c0 46 9.5 89.333 28.5 130s47.833 77 86.5 109
c37.333 31.333 84.833 56.166 142.5 74.499s122.167 27.5 193.5 27.5c66.667 0 134.167 -8.16699 202.5 -24.5s125.166 -36.166 170.499 -59.499v-201h-10c-48 35.333 -106.333 65.166 -175 89.499s-136 36.5 -202 36.5c-68.667 0 -126.667 -13.167 -174 -39.5
s-71 -65.5 -71 -117.5c0 -46 14.333 -80.667 43 -104c28 -23.333 73.333 -42.333 136 -57c34.667 -8 73.5 -16 116.5 -24s78.833 -15.333 107.5 -22c87.333 -20 154.666 -54.333 201.999 -103c47.333 -49.333 71 -114.666 71 -195.999z" />
    <glyph glyph-name="t" unicode="t" horiz-adv-x="807" 
d="M765 10c-35.333 -9.33301 -73.834 -16.999 -115.501 -22.999s-78.834 -9 -111.501 -9c-114 0 -200.667 30.667 -260 92s-89 159.666 -89 294.999v594h-127v158h127v321h188v-321h388v-158h-388v-509c0 -58.667 1.33301 -104.5 4 -137.5s12 -63.833 28 -92.5
c14.667 -26.667 34.834 -46.167 60.501 -58.5s64.834 -18.5 117.501 -18.5c30.667 0 62.667 4.5 96 13.5s57.333 16.5 72 22.5h10v-169z" />
    <glyph glyph-name="u" unicode="u" horiz-adv-x="1296" 
d="M1111 0l-188.002 -0.000976562v124c-63.333 -50 -124 -88.333 -182 -115s-122 -40 -192 -40c-117.333 0 -208.666 35.833 -273.999 107.5s-98 176.834 -98 315.501v725h188v-636c0 -56.667 2.66699 -105.167 8 -145.5s16.666 -74.833 33.999 -103.5
c18 -29.333 41.333 -50.666 70 -63.999s70.334 -20 125.001 -20c48.667 0 101.834 12.667 159.501 38s111.5 57.666 161.5 96.999v834h188v-1117z" />
    <glyph glyph-name="v" unicode="v" horiz-adv-x="1212" 
d="M1151 1117l-452 -1117h-189l-449 1117h204l346 -889l343 889h197z" />
    <glyph glyph-name="w" unicode="w" horiz-adv-x="1676" 
d="M1590 1117l-291 -1117h-174l-287 861l-285 -861h-173l-294 1117h196l205 -865l279 865h155l286 -865l194 865h189z" />
    <glyph glyph-name="x" unicode="x" horiz-adv-x="1212" 
d="M1152 0h-237l-317 429l-319 -429h-219l436 557l-432 560h237l315 -422l316 422h220l-439 -550z" />
    <glyph glyph-name="y" unicode="y" horiz-adv-x="1212" 
d="M1151 1117l-652 -1529h-201l208 466l-445 1063h204l343 -828l346 828h197z" />
    <glyph glyph-name="z" unicode="z" horiz-adv-x="1076" 
d="M995 0h-902v139l651 821h-637v157h871v-134l-654 -824h671v-159z" />
    <glyph glyph-name="braceleft" unicode="{" horiz-adv-x="1300" 
d="M1113 -392h-150c-119.333 0 -216.166 33.167 -290.499 99.5s-111.5 162.166 -111.5 287.499v149c0 112.667 -27.667 200.834 -83 264.501s-140 95.5 -254 95.5h-51v156h51c114 0 198.667 31.833 254 95.5s83 151.834 83 264.501v149
c0 125.333 37.167 221.166 111.5 287.499s171.166 99.5 290.499 99.5h150v-138h-114c-90.667 0 -156.5 -21 -197.5 -63s-61.5 -109.667 -61.5 -203v-175c0 -92.667 -25.667 -170.5 -77 -233.5s-122.666 -112.833 -213.999 -149.5v-24
c91.333 -36.667 162.666 -86.5 213.999 -149.5s77 -140.833 77 -233.5v-175c0 -93.333 20.5 -161 61.5 -203s106.833 -63 197.5 -63h114v-138z" />
    <glyph glyph-name="bar" unicode="|" horiz-adv-x="930" 
d="M552 -392h-174v1948h174v-1948z" />
    <glyph glyph-name="braceright" unicode="}" horiz-adv-x="1300" 
d="M1127 504h-51c-114 0 -198.667 -31.833 -254 -95.5s-83 -151.834 -83 -264.501v-149c0 -125.333 -37.167 -221.166 -111.5 -287.499s-171.166 -99.5 -290.499 -99.5h-150v138h114c90.667 0 156.5 21 197.5 63s61.5 109.667 61.5 203v175c0 92.667 25.667 170.5 77 233.5
s122.666 112.833 213.999 149.5v24c-91.333 36.667 -162.666 86.5 -213.999 149.5s-77 140.833 -77 233.5v175c0 93.333 -20.5 161 -61.5 203s-106.833 63 -197.5 63h-114v138h150c119.333 0 216.166 -33.167 290.499 -99.5s111.5 -162.166 111.5 -287.499v-149
c0 -112.667 27.667 -200.834 83 -264.501s140 -95.5 254 -95.5h51v-156z" />
    <glyph glyph-name="asciitilde" unicode="~" horiz-adv-x="1676" 
d="M1489 927c-1.33301 -66 -8.83203 -131 -22.499 -195s-35.5 -121 -65.5 -171c-30.667 -51.333 -67.667 -91.666 -111 -120.999s-98.333 -44 -165 -44c-62.667 0 -118.334 13.167 -167.001 39.5s-101 73.5 -157 141.5c-68 83.333 -117.333 135.666 -148 156.999
s-62.667 32 -96 32c-62.667 0 -110.667 -29.167 -144 -87.5s-53 -152.833 -59 -283.5h-167c1.33301 66.667 8.83301 131.5 22.5 194.5s35.167 120.167 64.5 171.5c28.667 49.333 66 89.166 112 119.499s101 45.5 165 45.5c62 0 117.5 -12.833 166.5 -38.5
s101.833 -73.167 158.5 -142.5c53.333 -65.333 97 -113.166 131 -143.499s71.333 -45.5 112 -45.5c68.667 0 119.167 33.667 151.5 101s49.5 157.333 51.5 270h167z" />
    <glyph glyph-name="exclamdown" unicode="&#xa1;" horiz-adv-x="806" 
d="M505 1278h-204v211h204v-211zM515 0h-224l26 1079h170z" />
    <glyph glyph-name="cent" unicode="&#xa2;" 
d="M1120 74c-47.333 -20 -101 -37.8311 -161 -53.498s-124.667 -24.5 -194 -26.5v-355h-118v359c-151.333 14 -270.5 69 -357.5 165s-130.5 227.333 -130.5 394c0 161.333 44.5 291.833 133.5 391.5s207.167 156.834 354.5 171.501v355h118v-351
c69.333 -2 135 -10.333 197 -25s114.667 -32.334 158 -53.001v-203h-11c-36.667 29.333 -84 57.666 -142 84.999s-125.333 44 -202 50v-839c80 6.66699 148.833 24.167 206.5 52.5s103.5 56.166 137.5 83.499h11v-201zM647 142.002l-0.000976562 834
c-90 -13.333 -162 -55 -216 -125s-81 -168 -81 -294c0 -120.667 25.333 -216 76 -286s124.334 -113 221.001 -129z" />
    <glyph glyph-name="sterling" unicode="&#xa3;" 
d="M1163 0l-1026 -0.000976562v207c78.667 21.333 135.167 63.5 169.5 126.5s51.5 156.167 51.5 279.5h-176v138h176v310c0 133.333 42.167 242.833 126.5 328.5s194.833 128.5 331.5 128.5c70 0 130.333 -5.66699 181 -17s97.334 -22.666 140.001 -33.999v-206h-10
c-41.333 28 -87.333 50 -138 66s-104.667 24 -162 24c-93.333 0 -163.166 -27.5 -209.499 -82.5s-69.5 -130.5 -69.5 -226.5v-291h415v-138h-415v-61c0 -84 -20.667 -157.167 -62 -219.5s-94.666 -112.5 -159.999 -150.5v-11h837v-171z" />
    <glyph glyph-name="currency" unicode="&#xa4;" 
d="M1168 257l-109.998 -110.001l-236 234c-29.333 -17.333 -56.333 -29.666 -81 -36.999s-54.334 -11 -89.001 -11c-30.667 0 -60.5 4.16699 -89.5 12.5s-55.5 20.166 -79.5 35.499l-236 -236l-109 113l233 234c-15.333 24.667 -27 51.834 -35 81.501s-12 58.834 -12 87.501
c0 34.667 3.66699 64.167 11 88.5s19.666 50.833 36.999 79.5l-234 237l111 110l235 -235c24 15.333 50.5 27.166 79.5 35.499s58.5 12.5 88.5 12.5c29.333 0 58.666 -4 87.999 -12s56.333 -19.667 81 -35l234 234l113 -109l-235 -237c16 -25.333 28 -51.833 36 -79.5
s12 -57.5 12 -89.5c0 -30 -4.16699 -59.667 -12.5 -89s-20.166 -56 -35.499 -80zM832.002 660.999c0 48.667 -17.5 91.667 -52.5 129s-77.5 56 -127.5 56c-48.667 0 -90.834 -18.333 -126.501 -55s-53.5 -80 -53.5 -130c0 -49.333 17.5 -92.5 52.5 -129.5
s77.5 -55.5 127.5 -55.5c48.667 0 90.834 18.167 126.501 54.5s53.5 79.833 53.5 130.5z" />
    <glyph glyph-name="yen" unicode="&#xa5;" 
d="M1191 1489l-448 -831v-94h372v-138h-370v-426h-188v426h-370v138h372v73l-451 852h212l332 -659l336 659h203z" />
    <glyph glyph-name="brokenbar" unicode="&#xa6;" horiz-adv-x="930" 
d="M552 758h-174v798h174v-798zM552 -392h-174v798h174v-798z" />
    <glyph glyph-name="section" unicode="&#xa7;" 
d="M1128 601c0 -70.667 -19.6641 -132.998 -58.9971 -186.998s-92 -99.333 -158 -136v-7c64.667 -30.667 111.667 -70.167 141 -118.5s44 -102.5 44 -162.5c0 -51.333 -11 -100 -33 -146s-54.667 -85.667 -98 -119c-48 -37.333 -104.333 -65 -169 -83
s-138.334 -27 -221.001 -27c-58 0 -114.833 4.5 -170.5 13.5s-114.167 23.833 -175.5 44.5v194h10c52.667 -24.667 109 -45.334 169 -62.001s126 -25 198 -25c89.333 0 161 16.167 215 48.5s81 77.5 81 135.5c0 37.333 -6.5 66.833 -19.5 88.5s-34.5 40.834 -64.5 57.501
c-27.333 15.333 -65 29.166 -113 41.499l-154 38.5c-142.667 34.667 -241.334 79 -296.001 133c-55.333 54 -83 124 -83 210c0 65.333 19 126.166 57 182.499s91 103.5 159 141.5v7c-67.333 32 -115 72.333 -143 121s-42 102.667 -42 162c0 54 10.667 102.833 32 146.5
s54.333 82.834 99 117.501c42.667 33.333 97.167 59.666 163.5 78.999s142.166 29 227.499 29c58 0 115 -4.66699 171 -14s114.333 -23.666 175 -42.999v-194h-10c-38.667 18 -89.5 37 -152.5 57s-134.833 30 -215.5 30c-84.667 0 -155.167 -15.333 -211.5 -46
s-84.5 -75 -84.5 -133c0 -38 7.16699 -68.833 21.5 -92.5s35.833 -43.167 64.5 -58.5s65 -29.166 109 -41.499s96.333 -25.5 157 -39.5c133.333 -30.667 230 -72.334 290 -125.001c59.333 -52.667 89 -125.334 89 -218.001zM881.003 399.002
c18.667 22 33.002 43.832 43.002 65.499s15 51.834 15 90.501c0 34 -5.5 62.667 -16.5 86s-26.167 42.666 -45.5 57.999c-18.667 16 -41 29.167 -67 39.5s-53.667 19.5 -83 27.5c-26 7.33301 -54.5 14.5 -85.5 21.5s-69.833 17.167 -116.5 30.5
c-12 -6 -28.333 -16.5 -49 -31.5s-38.334 -30.5 -53.001 -46.5c-16 -17.333 -30.333 -40.333 -43 -69s-19 -59.334 -19 -92.001c0 -33.333 5.16699 -61.666 15.5 -84.999s25.166 -43 44.499 -59c18 -15.333 40.5 -28.333 67.5 -39s55.167 -19.667 84.5 -27l86 -22
c32 -8 70.333 -18.333 115 -31c13.333 7.33301 31 18.833 53 34.5s40 31.834 54 48.501z" />
    <glyph glyph-name="dieresis" unicode="&#xa8;" 
d="M958 1304h-199v195h199v-195zM545 1304h-199v195h199v-195z" />
    <glyph glyph-name="copyright" unicode="&#xa9;" horiz-adv-x="2048" 
d="M1889 655c0 -238.667 -84.5 -442.5 -253.5 -611.5s-372.833 -253.5 -611.5 -253.5s-442.5 84.5 -611.5 253.5s-253.5 372.833 -253.5 611.5s84.5 442.5 253.5 611.5s372.833 253.5 611.5 253.5s442.5 -84.5 611.5 -253.5s253.5 -372.833 253.5 -611.5zM1773 655
c0 206.667 -73.167 384 -219.5 532s-322.833 222 -529.5 222s-383.167 -74 -529.5 -222s-219.5 -325.333 -219.5 -532s73.167 -384 219.5 -532s322.833 -222 529.5 -222s383.167 74 529.5 222s219.5 325.333 219.5 532zM1375 258c-57.333 -26 -112.498 -45.5 -165.498 -58.5
s-105.5 -19.5 -157.5 -19.5c-151.333 0 -271 41 -359 123s-132 201 -132 357c0 150 44.833 268 134.5 354s208.5 129 356.5 129c59.333 0 117.666 -8 174.999 -24s106.666 -33.333 147.999 -52v-181h-16c-36 26.667 -82.167 51.667 -138.5 75s-114.166 35 -173.499 35
c-94.667 0 -168.5 -28.5 -221.5 -85.5s-79.5 -140.5 -79.5 -250.5c0 -106 25.5 -188 76.5 -246s125.833 -87 224.5 -87c55.333 0 109.166 9.66699 161.499 29s102.5 46.333 150.5 81h16v-179z" />
    <glyph glyph-name="ordfeminine" unicode="&#xaa;" horiz-adv-x="1117" 
d="M944 554h-170.002v94l-52.5 -38.5c-16.333 -12.333 -39.166 -24.833 -68.499 -37.5c-30 -13.333 -58.5 -23.5 -85.5 -30.5s-64.833 -10.5 -113.5 -10.5c-85.333 0 -157.166 28.333 -215.499 85s-87.5 129 -87.5 217c0 70.667 15.5 128.5 46.5 173.5
s72.167 79.5 123.5 103.5c52 24 117.833 41.167 197.5 51.5s164.834 17.5 255.501 21.5v18c0 35.333 -6 63.666 -18 84.999s-29 38.333 -51 51c-22.667 12 -48.5 19.667 -77.5 23s-59.5 5 -91.5 5c-56 0 -112 -8 -168 -24s-97 -28.667 -123 -38h-14v172
c30 8.66699 75.667 18.334 137 29.001s117.666 16 168.999 16c144.667 0 248.667 -28.167 312 -84.5s95 -137.5 95 -243.5v-638zM773.998 796l-0.000976562 245.001c-46 -2.66699 -99.5 -6.66699 -160.5 -12s-109.5 -13 -145.5 -23c-42.667 -12 -77 -30.833 -103 -56.5
s-39 -61.167 -39 -106.5c0 -50.667 15.167 -88.667 45.5 -114s76.833 -38 139.5 -38c54.667 0 103.834 11.167 147.501 33.5s82.167 46.166 115.5 71.499z" />
    <glyph glyph-name="guillemotleft" unicode="&#xab;" horiz-adv-x="1320" 
d="M1146 191l-528 419v85l528 418v-188l-357 -273l357 -273v-188zM716 162l-550 446v89l550 445v-196l-371 -294l371 -294v-196z" />
    <glyph glyph-name="logicalnot" unicode="&#xac;" horiz-adv-x="1676" 
d="M1456 57h-171v545h-1075v160h1246v-705z" />
    <glyph glyph-name="registered" unicode="&#xae;" horiz-adv-x="2048" 
d="M1889 655c0 -238.667 -84.5 -442.5 -253.5 -611.5s-372.833 -253.5 -611.5 -253.5s-442.5 84.5 -611.5 253.5s-253.5 372.833 -253.5 611.5s84.5 442.5 253.5 611.5s372.833 253.5 611.5 253.5s442.5 -84.5 611.5 -253.5s253.5 -372.833 253.5 -611.5zM1773 655
c0 206.667 -73.167 384 -219.5 532s-322.833 222 -529.5 222s-383.167 -74 -529.5 -222s-219.5 -325.333 -219.5 -532s73.167 -384 219.5 -532s322.833 -222 529.5 -222s383.167 74 529.5 222s219.5 325.333 219.5 532zM1581 215h-223.001l-331 355h-162v-355h-165v915h312
c62.667 0 114.334 -2.66699 155.001 -8s80.667 -18.333 120 -39c42 -22.667 72.833 -50.167 92.5 -82.5s29.5 -72.833 29.5 -121.5c0 -64.667 -18.833 -118.5 -56.5 -161.5s-89.5 -77.167 -155.5 -102.5zM1229 868c0 24 -4.66797 45.335 -14.001 64.002s-25 34 -47 46
c-20.667 11.333 -42.667 18.666 -66 21.999s-52.666 5 -87.999 5h-149v-309h127c41.333 0 77 3.16699 107 9.5s54.667 17.166 74 32.499c20.667 16.667 35.167 35 43.5 55s12.5 45 12.5 75z" />
    <glyph glyph-name="overscore" unicode="&#xaf;" 
d="M1306 1668h-1305l-5 120h1310v-120z" />
    <glyph glyph-name="degree" unicode="&#xb0;" horiz-adv-x="1110" 
d="M956 1116c0 -112 -38.667 -206.667 -116 -284s-172.333 -116 -285 -116s-207.667 38.5 -285 115.5s-116 171.833 -116 284.5c0 112 38.667 206.667 116 284s172.333 116 285 116c113.333 0 208.5 -38.667 285.5 -116s115.5 -172 115.5 -284zM791 1116
c0 68 -22.333 125.167 -67 171.5s-101 69.5 -169 69.5s-124.333 -23.167 -169 -69.5s-67 -103.5 -67 -171.5c0 -69.333 22.833 -126.833 68.5 -172.5s101.5 -68.5 167.5 -68.5c68 0 124.333 23.333 169 70s67 103.667 67 171z" />
    <glyph glyph-name="plusminus" unicode="&#xb1;" horiz-adv-x="1676" 
d="M1461 179h-1246v158h540v422h-540v158h540v545h166v-545h540v-158h-540v-422h540v-158z" />
    <glyph glyph-name="twosuperior" unicode="&#xb2;" horiz-adv-x="1110" 
d="M967 566l-759.999 -0.000976562v156l183.5 117c55.667 36.667 100.5 68.667 134.5 96c87.333 68.667 143.333 120.167 168 154.5s37 79.5 37 135.5c0 46 -17.833 81.667 -53.5 107s-83.5 38 -143.5 38c-59.333 0 -117.666 -10.167 -174.999 -30.5
s-102 -40.833 -134 -61.5h-13v180c47.333 17.333 100.166 31.833 158.499 43.5s116.5 17.5 174.5 17.5c120 0 211.167 -26.167 273.5 -78.5s93.5 -120.166 93.5 -203.499c0 -66 -16.167 -124.167 -48.5 -174.5s-86.833 -105.5 -163.5 -165.5
c-36.667 -28.667 -80.834 -60 -132.501 -94l-143.5 -92h544v-145z" />
    <glyph glyph-name="threesuperior" unicode="&#xb3;" horiz-adv-x="1110" 
d="M956 817c0 -50 -11.002 -93.833 -33.002 -131.5s-51.667 -67.834 -89 -90.501c-38 -23.333 -81.667 -40.5 -131 -51.5s-103.666 -16.5 -162.999 -16.5c-62.667 0 -121.5 5 -176.5 15s-107.167 24.333 -156.5 43v179h14c27.333 -24 73.5 -45.833 138.5 -65.5
s128.5 -29.5 190.5 -29.5c66.667 0 122.167 11.833 166.5 35.5s66.5 60.5 66.5 110.5c0 56.667 -19.667 95 -59 115s-96.333 30 -171 30h-143v141h128c74.667 0 129.834 12.833 165.501 38.5s53.5 61.167 53.5 106.5c0 40.667 -16.5 72.834 -49.5 96.501
s-84.167 35.5 -153.5 35.5c-51.333 0 -109.5 -10.333 -174.5 -31s-112.167 -43 -141.5 -67h-14v178c49.333 18 102.833 32.833 160.5 44.5s116.5 17.5 176.5 17.5c116.667 0 207.167 -22.667 271.5 -68s96.5 -103.333 96.5 -174c0 -59.333 -18.333 -108 -55 -146
s-84.667 -65.667 -144 -83v-8c63.333 -11.333 116.833 -35.5 160.5 -72.5s65.5 -87.5 65.5 -151.5z" />
    <glyph glyph-name="acute" unicode="&#xb4;" 
d="M963 1676l-273 -374h-149l179 374h243z" />
    <glyph glyph-name="mu1" unicode="&#xb5;" horiz-adv-x="1314" 
d="M1124 0h-178.002l-10 118c-39.333 -43.333 -80.5 -77.333 -123.5 -102s-94.833 -37 -155.5 -37c-57.333 0 -107.166 11.667 -149.499 35s-85.5 56.333 -129.5 99v-525h-188v1529h188v-838c21.333 -26 57.833 -52.667 109.5 -80s107.834 -41 168.501 -41
c62 0 115.167 11.167 159.5 33.5s84.5 53.5 120.5 93.5v832h188v-1117z" />
    <glyph glyph-name="paragraph" unicode="&#xb6;" 
d="M1106 -363h-148v1722h-214v-1722h-149v956c-137.333 3.33301 -248 46.333 -332 129s-126 192 -126 328c0 138 43.333 245.667 130 323s211 116 373 116h466v-1852z" />
    <glyph glyph-name="middot" unicode="&#xb7;" horiz-adv-x="745" 
d="M492 511h-239v283h239v-283z" />
    <glyph glyph-name="cedilla" unicode="&#xb8;" 
d="M880 -89c0 -108 -30.4971 -190.666 -91.4971 -247.999s-140.167 -86 -237.5 -86c-24.667 0 -56.334 2.33301 -95.001 7s-73 11 -103 19v160h9c17.333 -6.66699 40.666 -14.334 69.999 -23.001s60.666 -13 93.999 -13c69.333 0 120.333 13 153 39s49 68.333 49 127
c0 19.333 -1 41.166 -3 65.499s-4 44.833 -6 61.5h153c1.33301 -12.667 3 -27.667 5 -45s3 -38.666 3 -63.999z" />
    <glyph glyph-name="onesuperior" unicode="&#xb9;" horiz-adv-x="1110" 
d="M914 566l-615.001 -0.00195312v122h234v568h-242v112c30 0 63 2.16699 99 6.5s64 10.5 84 18.5c24.667 10.667 44.334 23.334 59.001 38.001s23 35.334 25 62.001h135v-805h221v-122z" />
    <glyph glyph-name="ordmasculine" unicode="&#xba;" horiz-adv-x="1117" 
d="M996 1025c0 -156.667 -40.667 -278.167 -122 -364.5s-186.333 -129.5 -315 -129.5c-134 0 -240.5 44.167 -319.5 132.5s-118.5 208.833 -118.5 361.5s39.5 273.334 118.5 362.001s185.5 133 319.5 133c128.667 0 233.667 -43.333 315 -130s122 -208.334 122 -365.001z
M814 1025c0 114.667 -22.5 200.667 -67.5 258s-107.5 86 -187.5 86c-81.333 0 -144.333 -29 -189 -87s-67 -143.667 -67 -257s22.333 -198.833 67 -256.5s107.667 -86.5 189 -86.5c80 0 142.5 28.5 187.5 85.5s67.5 142.833 67.5 257.5z" />
    <glyph glyph-name="guillemotright" unicode="&#xbb;" horiz-adv-x="1320" 
d="M1154 608l-550 -446v196l371 294l-371 294v196l550 -445v-89zM702 610l-528 -419v188l357 273l-357 273v188l528 -418v-85z" />
    <glyph glyph-name="onequarter" unicode="&#xbc;" horiz-adv-x="2048" 
d="M545 565h-165v681h-209v117c68 0 123 7.33301 165 22s66 50.667 72 108h137v-928zM1410 1489l-780 -1489h-165l780 1489h165zM1857 220h-163v-220h-150v220h-465v185l466 539h149v-591h163v-133zM1548 353v400l-353 -400h353z" />
    <glyph glyph-name="onehalf" unicode="&#xbd;" horiz-adv-x="2048" 
d="M545 565h-165v681h-209v117c68 0 123 7.33301 165 22s66 50.667 72 108h137v-928zM1410 1489l-780 -1489h-165l780 1489h165zM1955 0l-687.997 -0.00195312v148l158 121c44.667 34.667 80 64.334 106 89.001c72.667 68.667 119.667 121.167 141 157.5s32 81.833 32 136.5
c0 46.667 -14.667 82.334 -44 107.001s-69.333 37 -120 37c-46.667 0 -93.834 -10 -141.501 -30s-85.167 -40.667 -112.5 -62h-15v179c43.333 18 90.166 32.667 140.499 44s101.166 17 152.499 17c104.667 0 185.167 -26.333 241.5 -79s84.5 -119.667 84.5 -201
c0 -62 -13.667 -117.667 -41 -167s-76.333 -105.333 -147 -168c-32.667 -28.667 -72.5 -60.667 -119.5 -96l-125.5 -94h498v-139z" />
    <glyph glyph-name="threequarters" unicode="&#xbe;" horiz-adv-x="2048" 
d="M793 826c0 -47.333 -10 -89.666 -30 -126.999s-46 -67.333 -78 -90c-35.333 -24.667 -73.5 -42.334 -114.5 -53.001s-87.833 -16 -140.5 -16c-54.667 0 -105.834 5 -153.501 15s-93.167 24.333 -136.5 43v175h17c24.667 -23.333 62.667 -44.833 114 -64.5
s103.333 -29.5 156 -29.5c56 0 102.333 12.167 139 36.5s55 60.5 55 108.5c0 55.333 -16.667 92.833 -50 112.5s-80.333 29.5 -141 29.5h-140v139h125c58 0 102.833 12.667 134.5 38s47.5 60 47.5 104c0 40 -13.667 71.833 -41 95.5s-70 35.5 -128 35.5
c-44 0 -91.5 -10.333 -142.5 -31s-88.833 -42.667 -113.5 -66h-17v175c42.667 18 89 32.667 139 44s101.333 17 154 17c101.333 0 180.333 -23.333 237 -70s85 -102.667 85 -168c0 -58 -16.167 -105.833 -48.5 -143.5s-74.166 -65.167 -125.499 -82.5v-8
c53.333 -10.667 99.5 -34.167 138.5 -70.5s58.5 -85.833 58.5 -148.5zM1500 1489l-780 -1489h-165l780 1489h165zM1913 220h-163v-220h-150v220h-465v185l466 539h149v-591h163v-133zM1604 353v400l-353 -400h353z" />
    <glyph glyph-name="questiondown" unicode="&#xbf;" horiz-adv-x="1117" 
d="M712 1278h-204v211h204v-211zM958 40c-55.333 -20 -114 -36.668 -176 -50.001s-130.333 -20 -205 -20c-143.333 0 -256.5 34.833 -339.5 104.5s-124.5 161.5 -124.5 275.5c0 65.333 11.5 123 34.5 173s54.167 95.667 93.5 137c38.667 41.333 84.167 78.833 136.5 112.5
l146.5 91.5v225h179v-305c-40 -22 -86.333 -49.167 -139 -81.5s-94.334 -61.833 -125.001 -88.5c-36 -31.333 -65.333 -67.666 -88 -108.999s-34 -88 -34 -140c0 -75.333 25.5 -131.5 76.5 -168.5s116.833 -55.5 197.5 -55.5c68.667 0 135.834 11 201.501 33
s117.5 45.333 155.5 70h10v-204z" />
    <glyph glyph-name="Agrave" unicode="&#xc0;" horiz-adv-x="1400" 
d="M1374 0h-211l-146 415h-644l-146 -415h-201l542 1489h264zM956 585l-261 731l-262 -731h523zM862 1675h-149l-273 374h243z" />
    <glyph glyph-name="Aacute" unicode="&#xc1;" horiz-adv-x="1400" 
d="M1374 0h-211l-146 415h-644l-146 -415h-201l542 1489h264zM956 585l-261 731l-262 -731h523zM955 2049l-273 -374h-149l179 374h243z" />
    <glyph glyph-name="Acircumflex" unicode="&#xc2;" horiz-adv-x="1400" 
d="M1374 0h-211l-146 415h-644l-146 -415h-201l542 1489h264zM956 585l-261 731l-262 -731h523zM1033 1670h-159l-185 256l-184 -256h-155l228 379h227z" />
    <glyph glyph-name="Atilde" unicode="&#xc3;" horiz-adv-x="1400" 
d="M1374 0h-211l-146 415h-644l-146 -415h-201l542 1489h264zM956 585l-261 731l-262 -731h523zM1119 1992c-7.33301 -101.333 -32.998 -177.668 -76.998 -229.001s-103 -77 -177 -77c-36 0 -69.333 6.5 -100 19.5s-59.667 31.833 -87 56.5
c-31.333 28.667 -57.833 50.167 -79.5 64.5s-45.5 21.5 -71.5 21.5c-34.667 0 -60.667 -15 -78 -45s-27.333 -70.333 -30 -121h-131c5.33301 100.667 31.666 176.667 78.999 228s105.333 77 174 77c33.333 0 65.5 -6.5 96.5 -19.5s60.5 -31.5 88.5 -55.5
c31.333 -27.333 59.166 -47.833 83.499 -61.5s47.5 -20.5 69.5 -20.5c34 0 60.5 15.333 79.5 46s29.5 69.334 31.5 116.001h129z" />
    <glyph glyph-name="Adieresis" unicode="&#xc4;" horiz-adv-x="1400" 
d="M1374 0h-211l-146 415h-644l-146 -415h-201l542 1489h264zM956 585l-261 731l-262 -731h523zM1005 1677h-199v195h199v-195zM592 1677h-199v195h199v-195z" />
    <glyph glyph-name="Aring" unicode="&#xc5;" horiz-adv-x="1400" 
d="M1374 0h-211l-148 415h-640l-148 -415h-201l519 1407c-59.333 29.333 -106.833 70.5 -142.5 123.5s-53.5 113.5 -53.5 181.5c0 95.333 34 175.333 102 240s150.667 97 248 97c98 0 180.833 -32.333 248.5 -97s101.5 -144.667 101.5 -240
c0 -66.667 -17.5 -127.167 -52.5 -181.5s-82.167 -95.5 -141.5 -123.5zM899 1710c0 57.333 -19 105.168 -57 143.501s-85.667 57.5 -143 57.5s-105 -19.333 -143 -58s-57 -86.334 -57 -143.001c0 -57.333 19.167 -105.166 57.5 -143.499s85.833 -57.5 142.5 -57.5
c57.333 0 105 19.167 143 57.5s57 86.166 57 143.499zM953 585.002l-258 715l-259 -715h517z" />
    <glyph glyph-name="AE" unicode="&#xc6;" horiz-adv-x="2016" 
d="M1901 0h-944v556h-524l-212 -556h-207l594 1489h1293v-176h-749v-408h749v-176h-749v-553h749v-176zM957 723v601h-219l-239 -601h458z" />
    <glyph glyph-name="Ccedilla" unicode="&#xc7;" horiz-adv-x="1430" 
d="M1350 108l-99.5 -45.0039c-29.667 -14 -68.5 -28.667 -116.5 -44c-7.33301 -2 -15.333 -4.5 -24 -7.5s-19 -5.5 -31 -7.5c1.33301 -12.667 2.5 -27.5 3.5 -44.5s1.5 -33.167 1.5 -48.5c0 -108 -31.167 -190.667 -93.5 -248s-142.5 -86 -240.5 -86
c-25.333 0 -57.833 2.33301 -97.5 7s-74.5 11 -104.5 19v162h9c17.333 -6.66699 41.166 -14.667 71.499 -24s62.166 -14 95.499 -14c70.667 0 122.334 13.333 155.001 40s49 68.667 49 126c0 12.667 -0.333008 26.5 -1 41.5s-1.66699 29.167 -3 42.5
c-12.667 -1.33301 -26.167 -2.33301 -40.5 -3s-27.5 -1 -39.5 -1c-108 0 -206.167 15.167 -294.5 45.5s-165.166 77.833 -230.499 142.5c-64 63.333 -114 143.833 -150 241.5s-54 211.167 -54 340.5c0 122.667 17.333 232.334 52 329.001s84.667 178.334 150 245.001
c63.333 64.667 139.833 114 229.5 148s189.167 51 298.5 51c80 0 159.833 -9.66699 239.5 -29s168.167 -53.333 265.5 -102v-235h-15c-82 68.667 -163.333 118.667 -244 150s-167 47 -259 47c-75.333 0 -143.166 -12.167 -203.499 -36.5s-114.166 -62.166 -161.499 -113.499
c-46 -50 -81.833 -113.167 -107.5 -189.5s-38.5 -164.5 -38.5 -264.5c0 -104.667 14.167 -194.667 42.5 -270s64.833 -136.666 109.5 -183.999c46.667 -49.333 101.167 -85.833 163.5 -109.5s128.166 -35.5 197.499 -35.5c95.333 0 184.666 16.333 267.999 49
s161.333 81.667 234 147h14v-232z" />
    <glyph glyph-name="Egrave" unicode="&#xc8;" horiz-adv-x="1295" 
d="M1181 0h-981v1489h981v-176h-783v-408h783v-176h-783v-553h783v-176zM822 1675h-149l-273 374h243z" />
    <glyph glyph-name="Eacute" unicode="&#xc9;" horiz-adv-x="1295" 
d="M1181 0h-981v1489h981v-176h-783v-408h783v-176h-783v-553h783v-176zM993 2049l-273 -374h-149l179 374h243z" />
    <glyph glyph-name="Ecircumflex" unicode="&#xca;" horiz-adv-x="1295" 
d="M1181 0h-981v1489h981v-176h-783v-408h783v-176h-783v-553h783v-176zM1031 1670h-159l-185 256l-184 -256h-155l228 379h227z" />
    <glyph glyph-name="Edieresis" unicode="&#xcb;" horiz-adv-x="1295" 
d="M1181 0h-981v1489h981v-176h-783v-408h783v-176h-783v-553h783v-176zM1038 1677h-199v195h199v-195zM625 1677h-199v195h199v-195z" />
    <glyph glyph-name="Igrave" unicode="&#xcc;" horiz-adv-x="862" 
d="M725 0h-588v152h195v1185h-195v152h588v-152h-195v-1185h195v-152zM568 1675h-149l-273 374h243z" />
    <glyph glyph-name="Iacute" unicode="&#xcd;" horiz-adv-x="862" 
d="M725 0h-588v152h195v1185h-195v152h588v-152h-195v-1185h195v-152zM725 2049l-273 -374h-149l179 374h243z" />
    <glyph glyph-name="Icircumflex" unicode="&#xce;" horiz-adv-x="862" 
d="M725 0h-588v152h195v1185h-195v152h588v-152h-195v-1185h195v-152zM776 1670h-159l-185 256l-184 -256h-155l228 379h227z" />
    <glyph glyph-name="Idieresis" unicode="&#xcf;" horiz-adv-x="862" 
d="M725 0h-588v152h195v1185h-195v152h588v-152h-195v-1185h195v-152zM738 1677h-199v195h199v-195zM325 1677h-199v195h199v-195z" />
    <glyph glyph-name="Eth" unicode="&#xd0;" horiz-adv-x="1588" 
d="M1468 743c0 -135.333 -29.499 -258.001 -88.499 -368.001s-137.5 -195.333 -235.5 -256c-68 -42 -143.833 -72.333 -227.5 -91s-193.834 -28 -330.501 -28h-376v740h-196v143h196v606h372c145.333 0 261 -10.5 347 -31.5s158.333 -49.833 217 -86.5
c101.333 -63.333 180.333 -147.666 237 -252.999s85 -230.333 85 -375zM1261 745.999c0 116.667 -20.332 215.001 -60.999 295.001s-101.334 143 -182.001 189c-58.667 33.333 -121 56.5 -187 69.5s-145 19.5 -237 19.5h-188v-436h361v-143h-361v-570h188
c95.333 0 178.5 7 249.5 21s136.167 40 195.5 78c74 47.333 129.5 109.666 166.5 186.999s55.5 174 55.5 290z" />
    <glyph glyph-name="Ntilde" unicode="&#xd1;" horiz-adv-x="1532" 
d="M1336 0h-245l-706 1332v-1332h-185v1489h307l644 -1216v1216h185v-1489zM1208 1992c-7.33301 -101.333 -32.998 -177.668 -76.998 -229.001s-103 -77 -177 -77c-36 0 -69.333 6.5 -100 19.5s-59.667 31.833 -87 56.5c-31.333 28.667 -57.833 50.167 -79.5 64.5
s-45.5 21.5 -71.5 21.5c-34.667 0 -60.667 -15 -78 -45s-27.333 -70.333 -30 -121h-131c5.33301 100.667 31.666 176.667 78.999 228s105.333 77 174 77c33.333 0 65.5 -6.5 96.5 -19.5s60.5 -31.5 88.5 -55.5c31.333 -27.333 59.166 -47.833 83.499 -61.5
s47.5 -20.5 69.5 -20.5c34 0 60.5 15.333 79.5 46s29.5 69.334 31.5 116.001h129z" />
    <glyph glyph-name="Ograve" unicode="&#xd2;" horiz-adv-x="1612" 
d="M1310 1318c60.667 -66.667 107.168 -148.331 139.501 -244.998s48.5 -206.334 48.5 -329.001s-16.5 -232.5 -49.5 -329.5s-79.167 -177.833 -138.5 -242.5c-61.333 -67.333 -133.833 -118 -217.5 -152s-179.167 -51 -286.5 -51c-104.667 0 -199.834 17.333 -285.501 52
s-158.5 85 -218.5 151s-106.167 147 -138.5 243s-48.5 205.667 -48.5 329c0 121.333 16 230.166 48 326.499s78.667 178.833 140 247.5c58.667 65.333 131.5 115.333 218.5 150s181.833 52 284.5 52c106.667 0 202.5 -17.5 287.5 -52.5s157.167 -84.833 216.5 -149.5z
M1292 744.003c0 193.333 -43.334 342.5 -130.001 447.5s-205 157.5 -355 157.5c-151.333 0 -270.166 -52.5 -356.499 -157.5s-129.5 -254.167 -129.5 -447.5c0 -195.333 44 -344.833 132 -448.5s206 -155.5 354 -155.5s265.833 51.833 353.5 155.5
s131.5 253.167 131.5 448.5zM932 1675h-149l-273 374h243z" />
    <glyph glyph-name="Oacute" unicode="&#xd3;" horiz-adv-x="1612" 
d="M1310 1318c60.667 -66.667 107.168 -148.331 139.501 -244.998s48.5 -206.334 48.5 -329.001s-16.5 -232.5 -49.5 -329.5s-79.167 -177.833 -138.5 -242.5c-61.333 -67.333 -133.833 -118 -217.5 -152s-179.167 -51 -286.5 -51c-104.667 0 -199.834 17.333 -285.501 52
s-158.5 85 -218.5 151s-106.167 147 -138.5 243s-48.5 205.667 -48.5 329c0 121.333 16 230.166 48 326.499s78.667 178.833 140 247.5c58.667 65.333 131.5 115.333 218.5 150s181.833 52 284.5 52c106.667 0 202.5 -17.5 287.5 -52.5s157.167 -84.833 216.5 -149.5z
M1292 744.003c0 193.333 -43.334 342.5 -130.001 447.5s-205 157.5 -355 157.5c-151.333 0 -270.166 -52.5 -356.499 -157.5s-129.5 -254.167 -129.5 -447.5c0 -195.333 44 -344.833 132 -448.5s206 -155.5 354 -155.5s265.833 51.833 353.5 155.5
s131.5 253.167 131.5 448.5zM1083 2049l-273 -374h-149l179 374h243z" />
    <glyph glyph-name="Ocircumflex" unicode="&#xd4;" horiz-adv-x="1612" 
d="M1310 1318c60.667 -66.667 107.168 -148.331 139.501 -244.998s48.5 -206.334 48.5 -329.001s-16.5 -232.5 -49.5 -329.5s-79.167 -177.833 -138.5 -242.5c-61.333 -67.333 -133.833 -118 -217.5 -152s-179.167 -51 -286.5 -51c-104.667 0 -199.834 17.333 -285.501 52
s-158.5 85 -218.5 151s-106.167 147 -138.5 243s-48.5 205.667 -48.5 329c0 121.333 16 230.166 48 326.499s78.667 178.833 140 247.5c58.667 65.333 131.5 115.333 218.5 150s181.833 52 284.5 52c106.667 0 202.5 -17.5 287.5 -52.5s157.167 -84.833 216.5 -149.5z
M1292 744.003c0 193.333 -43.334 342.5 -130.001 447.5s-205 157.5 -355 157.5c-151.333 0 -270.166 -52.5 -356.499 -157.5s-129.5 -254.167 -129.5 -447.5c0 -195.333 44 -344.833 132 -448.5s206 -155.5 354 -155.5s265.833 51.833 353.5 155.5
s131.5 253.167 131.5 448.5zM1136 1670h-159l-185 256l-184 -256h-155l228 379h227z" />
    <glyph glyph-name="Otilde" unicode="&#xd5;" horiz-adv-x="1612" 
d="M1310 1318c60.667 -66.667 107.168 -148.331 139.501 -244.998s48.5 -206.334 48.5 -329.001s-16.5 -232.5 -49.5 -329.5s-79.167 -177.833 -138.5 -242.5c-61.333 -67.333 -133.833 -118 -217.5 -152s-179.167 -51 -286.5 -51c-104.667 0 -199.834 17.333 -285.501 52
s-158.5 85 -218.5 151s-106.167 147 -138.5 243s-48.5 205.667 -48.5 329c0 121.333 16 230.166 48 326.499s78.667 178.833 140 247.5c58.667 65.333 131.5 115.333 218.5 150s181.833 52 284.5 52c106.667 0 202.5 -17.5 287.5 -52.5s157.167 -84.833 216.5 -149.5z
M1292 744.003c0 193.333 -43.334 342.5 -130.001 447.5s-205 157.5 -355 157.5c-151.333 0 -270.166 -52.5 -356.499 -157.5s-129.5 -254.167 -129.5 -447.5c0 -195.333 44 -344.833 132 -448.5s206 -155.5 354 -155.5s265.833 51.833 353.5 155.5
s131.5 253.167 131.5 448.5zM1207 1992c-7.33301 -101.333 -32.998 -177.668 -76.998 -229.001s-103 -77 -177 -77c-36 0 -69.333 6.5 -100 19.5s-59.667 31.833 -87 56.5c-31.333 28.667 -57.833 50.167 -79.5 64.5s-45.5 21.5 -71.5 21.5c-34.667 0 -60.667 -15 -78 -45
s-27.333 -70.333 -30 -121h-131c5.33301 100.667 31.666 176.667 78.999 228s105.333 77 174 77c33.333 0 65.5 -6.5 96.5 -19.5s60.5 -31.5 88.5 -55.5c31.333 -27.333 59.166 -47.833 83.499 -61.5s47.5 -20.5 69.5 -20.5c34 0 60.5 15.333 79.5 46
s29.5 69.334 31.5 116.001h129z" />
    <glyph glyph-name="Odieresis" unicode="&#xd6;" horiz-adv-x="1612" 
d="M1307 1318c60.667 -66.667 107.168 -148.331 139.501 -244.998s48.5 -206.334 48.5 -329.001s-16.5 -232.5 -49.5 -329.5s-79.167 -177.833 -138.5 -242.5c-61.333 -67.333 -133.833 -118 -217.5 -152s-179.167 -51 -286.5 -51c-104.667 0 -199.834 17.333 -285.501 52
s-158.5 85 -218.5 151s-106.167 147 -138.5 243s-48.5 205.667 -48.5 329c0 121.333 16 230.166 48 326.499s78.667 178.833 140 247.5c58.667 65.333 131.5 115.333 218.5 150s181.833 52 284.5 52c106.667 0 202.5 -17.5 287.5 -52.5s157.167 -84.833 216.5 -149.5z
M1289 744.003c0 193.333 -43.334 342.5 -130.001 447.5s-205 157.5 -355 157.5c-151.333 0 -270.166 -52.5 -356.499 -157.5s-129.5 -254.167 -129.5 -447.5c0 -195.333 44 -344.833 132 -448.5s206 -155.5 354 -155.5s265.833 51.833 353.5 155.5
s131.5 253.167 131.5 448.5zM1108 1677h-199v195h199v-195zM695 1677h-199v195h199v-195z" />
    <glyph glyph-name="multiply" unicode="&#xd7;" horiz-adv-x="1676" 
d="M1385 216l-111 -111l-436 440l-436 -440l-111 111l440 436l-440 436l111 111l436 -440l436 440l111 -111l-440 -436z" />
    <glyph glyph-name="Oslash" unicode="&#xd8;" horiz-adv-x="1612" 
d="M1498 744c0 -122.667 -16.5029 -232.499 -49.5029 -329.499s-79.167 -177.833 -138.5 -242.5c-61.333 -67.333 -133.833 -118 -217.5 -152s-179.167 -51 -286.5 -51c-76.667 0 -148.5 9.66699 -215.5 29s-126.833 47.333 -179.5 84l-159 -228h-132l205 294
c-67.333 66.667 -119.166 150 -155.499 250s-54.5 215.333 -54.5 346c0 121.333 16 230.166 48 326.499s78.667 178.833 140 247.5c58.667 65.333 131.5 115.333 218.5 150s181.833 52 284.5 52c78.667 0 150.334 -9.16699 215.001 -27.5s124.334 -45.833 179.001 -82.5
l142 201h132l-188 -268c67.333 -66.667 119.5 -149.5 156.5 -248.5s55.5 -215.833 55.5 -350.5zM1097 1260c-38 30.667 -81.001 53.501 -129.001 68.501s-101.667 22.5 -161 22.5c-73.333 0 -140 -12.833 -200 -38.5s-112 -64.5 -156 -116.5
c-42.667 -50.667 -75.5 -114.167 -98.5 -190.5s-34.5 -163.5 -34.5 -261.5c0 -93.333 9.83301 -177.333 29.5 -252s48.834 -137.334 87.501 -188.001zM1295 744.002c0 92.667 -9.99902 176.999 -29.999 252.999s-49.333 139 -88 189l-664 -957
c40 -30 84.167 -52.667 132.5 -68s102.166 -23 161.499 -23c73.333 0 140.5 13.333 201.5 40s112.167 65.334 153.5 116.001c44.667 54.667 78 119.5 100 194.5s33 160.167 33 255.5z" />
    <glyph glyph-name="Ugrave" unicode="&#xd9;" horiz-adv-x="1499" 
d="M1321 598c0 -108 -11.834 -202.167 -35.501 -282.5s-62.5 -147.166 -116.5 -200.499c-51.333 -50.667 -111.333 -87.667 -180 -111s-148.667 -35 -240 -35c-93.333 0 -174.666 12.333 -243.999 37s-127.666 61 -174.999 109c-54 54.667 -92.833 120.667 -116.5 198
s-35.5 172.333 -35.5 285v891h198v-901c0 -80.667 5.5 -144.334 16.5 -191.001s29.5 -89 55.5 -127c29.333 -43.333 69.166 -76 119.499 -98s110.833 -33 181.5 -33c71.333 0 132 10.833 182 32.5s90 54.5 120 98.5c26 38 44.5 81.5 55.5 130.5s16.5 109.833 16.5 182.5v906
h198v-891zM931.999 1675h-149l-273 374h243z" />
    <glyph glyph-name="Uacute" unicode="&#xda;" horiz-adv-x="1499" 
d="M1321 598c0 -108 -11.834 -202.167 -35.501 -282.5s-62.5 -147.166 -116.5 -200.499c-51.333 -50.667 -111.333 -87.667 -180 -111s-148.667 -35 -240 -35c-93.333 0 -174.666 12.333 -243.999 37s-127.666 61 -174.999 109c-54 54.667 -92.833 120.667 -116.5 198
s-35.5 172.333 -35.5 285v891h198v-901c0 -80.667 5.5 -144.334 16.5 -191.001s29.5 -89 55.5 -127c29.333 -43.333 69.166 -76 119.499 -98s110.833 -33 181.5 -33c71.333 0 132 10.833 182 32.5s90 54.5 120 98.5c26 38 44.5 81.5 55.5 130.5s16.5 109.833 16.5 182.5v906
h198v-891zM1073 2049l-273 -374h-149l179 374h243z" />
    <glyph glyph-name="Ucircumflex" unicode="&#xdb;" horiz-adv-x="1499" 
d="M1321 598c0 -108 -11.834 -202.167 -35.501 -282.5s-62.5 -147.166 -116.5 -200.499c-51.333 -50.667 -111.333 -87.667 -180 -111s-148.667 -35 -240 -35c-93.333 0 -174.666 12.333 -243.999 37s-127.666 61 -174.999 109c-54 54.667 -92.833 120.667 -116.5 198
s-35.5 172.333 -35.5 285v891h198v-901c0 -80.667 5.5 -144.334 16.5 -191.001s29.5 -89 55.5 -127c29.333 -43.333 69.166 -76 119.499 -98s110.833 -33 181.5 -33c71.333 0 132 10.833 182 32.5s90 54.5 120 98.5c26 38 44.5 81.5 55.5 130.5s16.5 109.833 16.5 182.5v906
h198v-891zM1084 1670h-159l-185 256l-184 -256h-155l228 379h227z" />
    <glyph glyph-name="Udieresis" unicode="&#xdc;" horiz-adv-x="1499" 
d="M1321 598c0 -108 -11.834 -202.167 -35.501 -282.5s-62.5 -147.166 -116.5 -200.499c-51.333 -50.667 -111.333 -87.667 -180 -111s-148.667 -35 -240 -35c-93.333 0 -174.666 12.333 -243.999 37s-127.666 61 -174.999 109c-54 54.667 -92.833 120.667 -116.5 198
s-35.5 172.333 -35.5 285v891h198v-901c0 -80.667 5.5 -144.334 16.5 -191.001s29.5 -89 55.5 -127c29.333 -43.333 69.166 -76 119.499 -98s110.833 -33 181.5 -33c71.333 0 132 10.833 182 32.5s90 54.5 120 98.5c26 38 44.5 81.5 55.5 130.5s16.5 109.833 16.5 182.5v906
h198v-891zM1056 1677h-199v195h199v-195zM642.999 1677h-199v195h199v-195z" />
    <glyph glyph-name="Yacute" unicode="&#xdd;" horiz-adv-x="1260" 
d="M1254 1489l-524 -836v-653h-198v632l-526 857h219l407 -666l411 666h211zM935 2049l-273 -374h-149l179 374h243z" />
    <glyph glyph-name="Thorn" unicode="&#xde;" horiz-adv-x="1240" 
d="M1174 787c0 -61.333 -11.668 -120.167 -35.001 -176.5s-55 -103.5 -95 -141.5c-52 -50 -114.5 -87 -187.5 -111s-159.833 -36 -260.5 -36h-198v-322h-198v1489h198v-270h205c88.667 0 165.334 -7.5 230.001 -22.5s119.334 -37.167 164.001 -66.5
c55.333 -35.333 98.666 -81.333 129.999 -138s47 -125 47 -205zM967.999 781.999c0 48 -8.66797 89.833 -26.001 125.5s-44.666 65.167 -81.999 88.5c-32 20 -69.333 34.167 -112 42.5s-94 12.5 -154 12.5h-196v-563h167c79.333 0 144.333 6.83301 195 20.5
s91.667 35.5 123 65.5c29.333 27.333 50.833 58 64.5 92s20.5 72.667 20.5 116z" />
    <glyph glyph-name="germandbls" unicode="&#xdf;" horiz-adv-x="1270" 
d="M1165 481c0 -142.667 -45.167 -262.502 -135.5 -359.502s-208.5 -145.5 -354.5 -145.5c-29.333 0 -63.166 2.5 -101.499 7.5s-69.5 11.833 -93.5 20.5v165h10c28 -16 58.5 -27 91.5 -33s68.167 -9 105.5 -9c49.333 0 92.333 9.66699 129 29s66 45.333 88 78
c23.333 34.667 40.166 73.167 50.499 115.5s15.5 88.833 15.5 139.5c0 110.667 -35.167 194.167 -105.5 250.5s-171.5 84.5 -303.5 84.5v150c104.667 0 182.667 19.833 234 59.5s77 102.5 77 188.5c0 23.333 -3.66699 46 -11 68s-21 43.333 -41 64
c-18 19.333 -41.667 34.833 -71 46.5s-64.333 17.5 -105 17.5c-38 0 -72.333 -4.83301 -103 -14.5s-59.334 -27.5 -86.001 -53.5c-24.667 -24 -44.5 -58 -59.5 -102s-22.5 -97.667 -22.5 -161v-1087h-188v1080c0 82.667 12 154.5 36 215.5s57.333 112.167 100 153.5
c40 38.667 89.833 67.834 149.5 87.501s120.834 29.5 183.501 29.5c122 0 221.167 -29 297.5 -87s114.5 -137.333 114.5 -238c0 -74.667 -23.667 -141.667 -71 -201s-108.666 -99.666 -183.999 -120.999v-9c109.333 -24.667 195.666 -74.167 258.999 -148.5
s95 -167.833 95 -280.5z" />
    <glyph glyph-name="agrave" unicode="&#xe0;" horiz-adv-x="1230" 
d="M1053 0l-186.995 0.000976562v119l-67.5 -47.5c-28.333 -20.333 -55.833 -36.5 -82.5 -48.5c-31.333 -15.333 -67.333 -28.166 -108 -38.499s-88.334 -15.5 -143.001 -15.5c-100.667 0 -186 33.333 -256 100s-105 151.667 -105 255c0 84.667 18.167 153.167 54.5 205.5
s88.166 93.5 155.499 123.5c68 30 149.667 50.333 245 61s197.666 18.667 306.999 24v29c0 42.667 -7.5 78 -22.5 106s-36.5 50 -64.5 66c-26.667 15.333 -58.667 25.666 -96 30.999s-76.333 8 -117 8c-49.333 0 -104.333 -6.5 -165 -19.5s-123.334 -31.833 -188.001 -56.5
h-10v191c36.667 10 89.667 21 159 33s137.666 18 204.999 18c78.667 0 147.167 -6.5 205.5 -19.5s108.833 -35.167 151.5 -66.5c42 -30.667 74 -70.334 96 -119.001s33 -109 33 -181v-758zM866.005 275.001l-0.000976562 311c-57.333 -3.33301 -124.833 -8.33301 -202.5 -15
s-139.167 -16.334 -184.5 -29.001c-54 -15.333 -97.667 -39.166 -131 -71.499s-50 -76.833 -50 -133.5c0 -64 19.333 -112.167 58 -144.5s97.667 -48.5 177 -48.5c66 0 126.333 12.833 181 38.5s105.334 56.5 152.001 92.5zM738.004 1302h-149l-273 374h243z" />
    <glyph glyph-name="aacute" unicode="&#xe1;" horiz-adv-x="1230" 
d="M1053 0l-186.995 0.000976562v119l-67.5 -47.5c-28.333 -20.333 -55.833 -36.5 -82.5 -48.5c-31.333 -15.333 -67.333 -28.166 -108 -38.499s-88.334 -15.5 -143.001 -15.5c-100.667 0 -186 33.333 -256 100s-105 151.667 -105 255c0 84.667 18.167 153.167 54.5 205.5
s88.166 93.5 155.499 123.5c68 30 149.667 50.333 245 61s197.666 18.667 306.999 24v29c0 42.667 -7.5 78 -22.5 106s-36.5 50 -64.5 66c-26.667 15.333 -58.667 25.666 -96 30.999s-76.333 8 -117 8c-49.333 0 -104.333 -6.5 -165 -19.5s-123.334 -31.833 -188.001 -56.5
h-10v191c36.667 10 89.667 21 159 33s137.666 18 204.999 18c78.667 0 147.167 -6.5 205.5 -19.5s108.833 -35.167 151.5 -66.5c42 -30.667 74 -70.334 96 -119.001s33 -109 33 -181v-758zM866.005 275.001l-0.000976562 311c-57.333 -3.33301 -124.833 -8.33301 -202.5 -15
s-139.167 -16.334 -184.5 -29.001c-54 -15.333 -97.667 -39.166 -131 -71.499s-50 -76.833 -50 -133.5c0 -64 19.333 -112.167 58 -144.5s97.667 -48.5 177 -48.5c66 0 126.333 12.833 181 38.5s105.334 56.5 152.001 92.5zM934.004 1676l-273 -374h-149l179 374h243z" />
    <glyph glyph-name="acircumflex" unicode="&#xe2;" horiz-adv-x="1230" 
d="M1053 0l-186.995 0.000976562v119l-67.5 -47.5c-28.333 -20.333 -55.833 -36.5 -82.5 -48.5c-31.333 -15.333 -67.333 -28.166 -108 -38.499s-88.334 -15.5 -143.001 -15.5c-100.667 0 -186 33.333 -256 100s-105 151.667 -105 255c0 84.667 18.167 153.167 54.5 205.5
s88.166 93.5 155.499 123.5c68 30 149.667 50.333 245 61s197.666 18.667 306.999 24v29c0 42.667 -7.5 78 -22.5 106s-36.5 50 -64.5 66c-26.667 15.333 -58.667 25.666 -96 30.999s-76.333 8 -117 8c-49.333 0 -104.333 -6.5 -165 -19.5s-123.334 -31.833 -188.001 -56.5
h-10v191c36.667 10 89.667 21 159 33s137.666 18 204.999 18c78.667 0 147.167 -6.5 205.5 -19.5s108.833 -35.167 151.5 -66.5c42 -30.667 74 -70.334 96 -119.001s33 -109 33 -181v-758zM866.005 275.001l-0.000976562 311c-57.333 -3.33301 -124.833 -8.33301 -202.5 -15
s-139.167 -16.334 -184.5 -29.001c-54 -15.333 -97.667 -39.166 -131 -71.499s-50 -76.833 -50 -133.5c0 -64 19.333 -112.167 58 -144.5s97.667 -48.5 177 -48.5c66 0 126.333 12.833 181 38.5s105.334 56.5 152.001 92.5zM961.004 1297h-159l-185 256l-184 -256h-155
l228 379h227z" />
    <glyph glyph-name="atilde" unicode="&#xe3;" horiz-adv-x="1230" 
d="M1053 0l-186.995 0.000976562v119l-67.5 -47.5c-28.333 -20.333 -55.833 -36.5 -82.5 -48.5c-31.333 -15.333 -67.333 -28.166 -108 -38.499s-88.334 -15.5 -143.001 -15.5c-100.667 0 -186 33.333 -256 100s-105 151.667 -105 255c0 84.667 18.167 153.167 54.5 205.5
s88.166 93.5 155.499 123.5c68 30 149.667 50.333 245 61s197.666 18.667 306.999 24v29c0 42.667 -7.5 78 -22.5 106s-36.5 50 -64.5 66c-26.667 15.333 -58.667 25.666 -96 30.999s-76.333 8 -117 8c-49.333 0 -104.333 -6.5 -165 -19.5s-123.334 -31.833 -188.001 -56.5
h-10v191c36.667 10 89.667 21 159 33s137.666 18 204.999 18c78.667 0 147.167 -6.5 205.5 -19.5s108.833 -35.167 151.5 -66.5c42 -30.667 74 -70.334 96 -119.001s33 -109 33 -181v-758zM866.005 275.001l-0.000976562 311c-57.333 -3.33301 -124.833 -8.33301 -202.5 -15
s-139.167 -16.334 -184.5 -29.001c-54 -15.333 -97.667 -39.166 -131 -71.499s-50 -76.833 -50 -133.5c0 -64 19.333 -112.167 58 -144.5s97.667 -48.5 177 -48.5c66 0 126.333 12.833 181 38.5s105.334 56.5 152.001 92.5zM1038 1619
c-7.33301 -101.333 -32.998 -177.668 -76.998 -229.001s-103 -77 -177 -77c-36 0 -69.333 6.5 -100 19.5s-59.667 31.833 -87 56.5c-31.333 28.667 -57.833 50.167 -79.5 64.5s-45.5 21.5 -71.5 21.5c-34.667 0 -60.667 -15 -78 -45s-27.333 -70.333 -30 -121h-131
c5.33301 100.667 31.666 176.667 78.999 228s105.333 77 174 77c33.333 0 65.5 -6.5 96.5 -19.5s60.5 -31.5 88.5 -55.5c31.333 -27.333 59.166 -47.833 83.499 -61.5s47.5 -20.5 69.5 -20.5c34 0 60.5 15.333 79.5 46s29.5 69.334 31.5 116.001h129z" />
    <glyph glyph-name="adieresis" unicode="&#xe4;" horiz-adv-x="1230" 
d="M1053 0l-186.995 0.000976562v119l-67.5 -47.5c-28.333 -20.333 -55.833 -36.5 -82.5 -48.5c-31.333 -15.333 -67.333 -28.166 -108 -38.499s-88.334 -15.5 -143.001 -15.5c-100.667 0 -186 33.333 -256 100s-105 151.667 -105 255c0 84.667 18.167 153.167 54.5 205.5
s88.166 93.5 155.499 123.5c68 30 149.667 50.333 245 61s197.666 18.667 306.999 24v29c0 42.667 -7.5 78 -22.5 106s-36.5 50 -64.5 66c-26.667 15.333 -58.667 25.666 -96 30.999s-76.333 8 -117 8c-49.333 0 -104.333 -6.5 -165 -19.5s-123.334 -31.833 -188.001 -56.5
h-10v191c36.667 10 89.667 21 159 33s137.666 18 204.999 18c78.667 0 147.167 -6.5 205.5 -19.5s108.833 -35.167 151.5 -66.5c42 -30.667 74 -70.334 96 -119.001s33 -109 33 -181v-758zM866.005 275.001l-0.000976562 311c-57.333 -3.33301 -124.833 -8.33301 -202.5 -15
s-139.167 -16.334 -184.5 -29.001c-54 -15.333 -97.667 -39.166 -131 -71.499s-50 -76.833 -50 -133.5c0 -64 19.333 -112.167 58 -144.5s97.667 -48.5 177 -48.5c66 0 126.333 12.833 181 38.5s105.334 56.5 152.001 92.5zM926.004 1304h-199v195h199v-195zM513.004 1304
h-199v195h199v-195z" />
    <glyph glyph-name="aring" unicode="&#xe5;" horiz-adv-x="1230" 
d="M1053 0l-186.995 0.000976562v119l-67.5 -47.5c-28.333 -20.333 -55.833 -36.5 -82.5 -48.5c-31.333 -15.333 -67.333 -28.166 -108 -38.499s-88.334 -15.5 -143.001 -15.5c-100.667 0 -186 33.333 -256 100s-105 151.667 -105 255c0 84.667 18.167 153.167 54.5 205.5
s88.166 93.5 155.499 123.5c68 30 149.667 50.333 245 61s197.666 18.667 306.999 24v29c0 42.667 -7.5 78 -22.5 106s-36.5 50 -64.5 66c-26.667 15.333 -58.667 25.666 -96 30.999s-76.333 8 -117 8c-49.333 0 -104.333 -6.5 -165 -19.5s-123.334 -31.833 -188.001 -56.5
h-10v191c36.667 10 89.667 21 159 33s137.666 18 204.999 18c78.667 0 147.167 -6.5 205.5 -19.5s108.833 -35.167 151.5 -66.5c42 -30.667 74 -70.334 96 -119.001s33 -109 33 -181v-758zM866.005 275.001l-0.000976562 311c-57.333 -3.33301 -124.833 -8.33301 -202.5 -15
s-139.167 -16.334 -184.5 -29.001c-54 -15.333 -97.667 -39.166 -131 -71.499s-50 -76.833 -50 -133.5c0 -64 19.333 -112.167 58 -144.5s97.667 -48.5 177 -48.5c66 0 126.333 12.833 181 38.5s105.334 56.5 152.001 92.5zM956.004 1630c0 -95.333 -34 -176 -102 -242
s-150.667 -99 -248 -99c-96 0 -178.333 32.833 -247 98.5s-103 146.5 -103 242.5c0 95.333 34 175.666 102 240.999s150.667 98 248 98c98 0 180.833 -32.667 248.5 -98s101.5 -145.666 101.5 -240.999zM811.004 1630c0 57.333 -19.5 105.833 -58.5 145.5
s-87.833 59.5 -146.5 59.5s-107.5 -19.667 -146.5 -59s-58.5 -88 -58.5 -146s19.667 -106.667 59 -146s88 -59 146 -59c58.667 0 107.5 19.667 146.5 59s58.5 88 58.5 146z" />
    <glyph glyph-name="ae" unicode="&#xe6;" horiz-adv-x="1956" 
d="M1855 559l-818.999 -0.000976562c0 -76 10 -141 30 -195s48.333 -98.333 85 -133c34.667 -32 75.667 -55.5 123 -70.5s99.666 -22.5 156.999 -22.5c74 0 146.5 13.833 217.5 41.5s128.5 58.834 172.5 93.501h12v-205c-52 -23.333 -113.5 -44.833 -184.5 -64.5
s-142.833 -29.5 -215.5 -29.5c-110.667 0 -205.5 17.333 -284.5 52s-143.833 86.334 -194.5 155.001l-67 -59c-30.667 -26.667 -62.667 -49.334 -96 -68.001c-42 -24 -87.667 -43.833 -137 -59.5s-112.333 -23.5 -189 -23.5c-100 0 -185.167 32.333 -255.5 97
s-105.5 147.667 -105.5 249c0 82.667 18 149.5 54 200.5s87.667 90.5 155 118.5c63.333 26 143.666 43.667 240.999 53s200 15 308 17v61c0 43.333 -7.66699 79.166 -23 107.499s-36.666 50.166 -63.999 65.499c-26.667 15.333 -58.667 25.833 -96 31.5s-76 8.5 -116 8.5
c-52.667 0 -108.834 -7 -168.501 -21s-119.5 -33 -179.5 -57h-13v191c36.667 10 89.334 21.333 158.001 34s136.667 19 204 19c106 0 194.167 -15.5 264.5 -46.5s124.5 -76.833 162.5 -137.5c46 54.667 102.667 99.334 170 134.001s142.666 52 225.999 52
c144.667 0 258.834 -42.667 342.501 -128s125.5 -211.666 125.5 -378.999v-82zM1673 702.999c-3.33301 45.333 -11.168 85 -23.501 119s-29.166 63.333 -50.499 88c-22.667 26 -52.167 46.333 -88.5 61s-80.833 22 -133.5 22c-88.667 0 -163 -25 -223 -75
s-98.333 -121.667 -115 -215h634zM893.999 297.999c-13.333 35.333 -23.501 74.998 -30.501 118.998s-10.5 91 -10.5 141c-70 -2 -137 -4.5 -201 -7.5s-123.333 -11.5 -178 -25.5c-52.667 -13.333 -95.167 -35.166 -127.5 -65.499s-48.5 -73.166 -48.5 -128.499
c0 -63.333 19.333 -110.333 58 -141s97.334 -46 176.001 -46c66 0 131.167 14.333 195.5 43s119.833 65.667 166.5 111z" />
    <glyph glyph-name="ccedilla" unicode="&#xe7;" horiz-adv-x="1067" 
d="M1011 70c-22 -10 -45.8242 -20.165 -71.4912 -30.498s-48.167 -18.5 -67.5 -24.5c2 -12.667 3.83301 -28.5 5.5 -47.5s2.5 -37.833 2.5 -56.5c0 -108 -30.5 -190.667 -91.5 -248s-140.167 -86 -237.5 -86c-24.667 0 -56.334 2.33301 -95.001 7s-73 11 -103 19v160h9
c17.333 -6.66699 40.666 -14.334 69.999 -23.001s60.666 -13 93.999 -13c69.333 0 120.333 13 153 39s49 68.333 49 127c0 14.667 -0.5 29.667 -1.5 45s-2.16699 29.666 -3.5 42.999c-10.667 -1.33301 -20.834 -2.66602 -30.501 -3.99902s-22.834 -2 -39.501 -2
c-80.667 0 -154.667 11.833 -222 35.5s-125 59.5 -173 107.5c-48.667 48 -86.334 108.667 -113.001 182s-40 159 -40 257c0 182.667 50.167 326 150.5 430s232.833 156 397.5 156c64 0 126.833 -9 188.5 -27s118.167 -40 169.5 -66v-209h-10
c-57.333 44.667 -116.5 79 -177.5 103s-120.5 36 -178.5 36c-106.667 0 -190.834 -35.833 -252.501 -107.5s-92.5 -176.834 -92.5 -315.501c0 -134.667 30.167 -238.167 90.5 -310.5s145.166 -108.5 254.499 -108.5c38 0 76.667 5 116 15s74.666 23 105.999 39
c27.333 14 53 28.833 77 44.5s43 29.167 57 40.5h10v-207z" />
    <glyph glyph-name="egrave" unicode="&#xe8;" horiz-adv-x="1220" 
d="M1120 539l-823.003 0.000976562c0 -68.667 10.333 -128.5 31 -179.5s49 -92.833 85 -125.5c34.667 -32 75.834 -56 123.501 -72s100.167 -24 157.5 -24c76 0 152.5 15.167 229.5 45.5s131.833 60.166 164.5 89.499h10v-205c-63.333 -26.667 -128 -49 -194 -67
s-135.333 -27 -208 -27c-185.333 0 -330 50.167 -434 150.5s-156 242.833 -156 427.5c0 182.667 49.833 327.667 149.5 435s230.834 161 393.501 161c150.667 0 266.834 -44 348.501 -132s122.5 -213 122.5 -375v-102zM936.997 683.001
c-0.666992 98.667 -25.499 175 -74.499 229s-123.5 81 -223.5 81c-100.667 0 -180.834 -29.667 -240.501 -89s-93.5 -133 -101.5 -221h640zM758.998 1302h-149l-273 374h243z" />
    <glyph glyph-name="eacute" unicode="&#xe9;" horiz-adv-x="1220" 
d="M1120 539l-823.003 0.000976562c0 -68.667 10.333 -128.5 31 -179.5s49 -92.833 85 -125.5c34.667 -32 75.834 -56 123.501 -72s100.167 -24 157.5 -24c76 0 152.5 15.167 229.5 45.5s131.833 60.166 164.5 89.499h10v-205c-63.333 -26.667 -128 -49 -194 -67
s-135.333 -27 -208 -27c-185.333 0 -330 50.167 -434 150.5s-156 242.833 -156 427.5c0 182.667 49.833 327.667 149.5 435s230.834 161 393.501 161c150.667 0 266.834 -44 348.501 -132s122.5 -213 122.5 -375v-102zM936.997 683.001
c-0.666992 98.667 -25.499 175 -74.499 229s-123.5 81 -223.5 81c-100.667 0 -180.834 -29.667 -240.501 -89s-93.5 -133 -101.5 -221h640zM959.998 1676l-273 -374h-149l179 374h243z" />
    <glyph glyph-name="ecircumflex" unicode="&#xea;" horiz-adv-x="1220" 
d="M1120 539l-823.003 0.000976562c0 -68.667 10.333 -128.5 31 -179.5s49 -92.833 85 -125.5c34.667 -32 75.834 -56 123.501 -72s100.167 -24 157.5 -24c76 0 152.5 15.167 229.5 45.5s131.833 60.166 164.5 89.499h10v-205c-63.333 -26.667 -128 -49 -194 -67
s-135.333 -27 -208 -27c-185.333 0 -330 50.167 -434 150.5s-156 242.833 -156 427.5c0 182.667 49.833 327.667 149.5 435s230.834 161 393.501 161c150.667 0 266.834 -44 348.501 -132s122.5 -213 122.5 -375v-102zM936.997 683.001
c-0.666992 98.667 -25.499 175 -74.499 229s-123.5 81 -223.5 81c-100.667 0 -180.834 -29.667 -240.501 -89s-93.5 -133 -101.5 -221h640zM985.998 1297h-159l-185 256l-184 -256h-155l228 379h227z" />
    <glyph glyph-name="edieresis" unicode="&#xeb;" horiz-adv-x="1220" 
d="M1120 539l-823.003 0.000976562c0 -68.667 10.333 -128.5 31 -179.5s49 -92.833 85 -125.5c34.667 -32 75.834 -56 123.501 -72s100.167 -24 157.5 -24c76 0 152.5 15.167 229.5 45.5s131.833 60.166 164.5 89.499h10v-205c-63.333 -26.667 -128 -49 -194 -67
s-135.333 -27 -208 -27c-185.333 0 -330 50.167 -434 150.5s-156 242.833 -156 427.5c0 182.667 49.833 327.667 149.5 435s230.834 161 393.501 161c150.667 0 266.834 -44 348.501 -132s122.5 -213 122.5 -375v-102zM936.997 683.001
c-0.666992 98.667 -25.499 175 -74.499 229s-123.5 81 -223.5 81c-100.667 0 -180.834 -29.667 -240.501 -89s-93.5 -133 -101.5 -221h640zM950.998 1304h-199v195h199v-195zM537.998 1304h-199v195h199v-195z" />
    <glyph glyph-name="igrave" unicode="&#xec;" horiz-adv-x="562" 
d="M375 0h-188v1117h188v-1117zM401 1302h-149l-273 374h243z" />
    <glyph glyph-name="iacute" unicode="&#xed;" horiz-adv-x="562" 
d="M375 0h-188v1117h188v-1117zM582 1676l-273 -374h-149l179 374h243z" />
    <glyph glyph-name="icircumflex" unicode="&#xee;" horiz-adv-x="562" 
d="M572 1297h-151l-143 267l-142 -267h-147l178 379h227zM375 0h-188v1117h188v-1117z" />
    <glyph glyph-name="idieresis" unicode="&#xef;" horiz-adv-x="562" 
d="M557 1304h-189v195h189v-195zM194 1304h-189v195h189v-195zM375 0h-188v1117h188v-1117z" />
    <glyph glyph-name="eth" unicode="&#xf0;" horiz-adv-x="1253" 
d="M1137 637c0 -216 -47.332 -381.332 -141.999 -495.999s-222.334 -172 -383.001 -172c-152.667 0 -275.167 45 -367.5 135s-138.5 216.667 -138.5 380c0 150.667 45.667 270 137 358s204.333 132 339 132c72 0 133.833 -8.83301 185.5 -26.5s106.167 -44.167 163.5 -79.5
c-21.333 74.667 -54.5 147.667 -99.5 219s-96.5 131.666 -154.5 180.999l-264 -162l-66 97l237 142c-56 44.667 -108 80.5 -156 107.5s-103 56.167 -165 87.5v16h295l84 -58.5l86 -59.5l210 128l66 -97l-186 -109c102 -98 180.667 -206.5 236 -325.5s83 -251.5 83 -397.5z
M847.001 226.001c32.667 39.333 57.668 87.167 75.001 143.5s26 134.5 26 234.5c0 21.333 -0.5 41.166 -1.5 59.499s-2.16699 37.5 -3.5 57.5c-50 30 -102.5 52.167 -157.5 66.5s-111.167 21.5 -168.5 21.5c-98 0 -175.167 -29.167 -231.5 -87.5
s-84.5 -138.166 -84.5 -239.499c0 -120 28.167 -209 84.5 -267s132.166 -87 227.499 -87c44 0 86.5 7.33301 127.5 22s76.5 40 106.5 76z" />
    <glyph glyph-name="ntilde" unicode="&#xf1;" horiz-adv-x="1296" 
d="M1119 0h-188.001v636c0 51.333 -3 99.5 -9 144.5s-17 80.167 -33 105.5c-16.667 28 -40.667 48.833 -72 62.5s-72 20.5 -122 20.5c-51.333 0 -105 -12.667 -161 -38s-109.667 -57.666 -161 -96.999v-834h-188v1117h188v-124c58.667 48.667 119.334 86.667 182.001 114
s127 41 193 41c120.667 0 212.667 -36.333 276 -109s95 -177.334 95 -314.001v-725zM1075 1619c-7.33301 -101.333 -32.998 -177.668 -76.998 -229.001s-103 -77 -177 -77c-36 0 -69.333 6.5 -100 19.5s-59.667 31.833 -87 56.5c-31.333 28.667 -57.833 50.167 -79.5 64.5
s-45.5 21.5 -71.5 21.5c-34.667 0 -60.667 -15 -78 -45s-27.333 -70.333 -30 -121h-131c5.33301 100.667 31.666 176.667 78.999 228s105.333 77 174 77c33.333 0 65.5 -6.5 96.5 -19.5s60.5 -31.5 88.5 -55.5c31.333 -27.333 59.166 -47.833 83.499 -61.5
s47.5 -20.5 69.5 -20.5c34 0 60.5 15.333 79.5 46s29.5 69.334 31.5 116.001h129z" />
    <glyph glyph-name="ograve" unicode="&#xf2;" horiz-adv-x="1243" 
d="M1137 558c0 -182 -46.667 -325.667 -140 -431s-218.333 -158 -375 -158c-158 0 -283.5 52.667 -376.5 158s-139.5 249 -139.5 431s46.5 325.833 139.5 431.5s218.5 158.5 376.5 158.5c156.667 0 281.667 -52.833 375 -158.5s140 -249.5 140 -431.5zM943 558
c0 144.667 -28.332 252.167 -84.999 322.5s-135.334 105.5 -236.001 105.5c-102 0 -181.167 -35.167 -237.5 -105.5s-84.5 -177.833 -84.5 -322.5c0 -140 28.333 -246.167 85 -318.5s135.667 -108.5 237 -108.5c100 0 178.5 35.833 235.5 107.5s85.5 178.167 85.5 319.5z
M732.001 1302h-149l-273 374h243z" />
    <glyph glyph-name="oacute" unicode="&#xf3;" horiz-adv-x="1243" 
d="M1137 558c0 -182 -46.667 -325.667 -140 -431s-218.333 -158 -375 -158c-158 0 -283.5 52.667 -376.5 158s-139.5 249 -139.5 431s46.5 325.833 139.5 431.5s218.5 158.5 376.5 158.5c156.667 0 281.667 -52.833 375 -158.5s140 -249.5 140 -431.5zM943 558
c0 144.667 -28.332 252.167 -84.999 322.5s-135.334 105.5 -236.001 105.5c-102 0 -181.167 -35.167 -237.5 -105.5s-84.5 -177.833 -84.5 -322.5c0 -140 28.333 -246.167 85 -318.5s135.667 -108.5 237 -108.5c100 0 178.5 35.833 235.5 107.5s85.5 178.167 85.5 319.5z
M933.001 1676l-273 -374h-149l179 374h243z" />
    <glyph glyph-name="ocircumflex" unicode="&#xf4;" horiz-adv-x="1243" 
d="M1137 558c0 -182 -46.667 -325.667 -140 -431s-218.333 -158 -375 -158c-158 0 -283.5 52.667 -376.5 158s-139.5 249 -139.5 431s46.5 325.833 139.5 431.5s218.5 158.5 376.5 158.5c156.667 0 281.667 -52.833 375 -158.5s140 -249.5 140 -431.5zM943 558
c0 144.667 -28.332 252.167 -84.999 322.5s-135.334 105.5 -236.001 105.5c-102 0 -181.167 -35.167 -237.5 -105.5s-84.5 -177.833 -84.5 -322.5c0 -140 28.333 -246.167 85 -318.5s135.667 -108.5 237 -108.5c100 0 178.5 35.833 235.5 107.5s85.5 178.167 85.5 319.5z
M963.001 1297h-159l-185 256l-184 -256h-155l228 379h227z" />
    <glyph glyph-name="otilde" unicode="&#xf5;" horiz-adv-x="1243" 
d="M1137 558c0 -182 -46.667 -325.667 -140 -431s-218.333 -158 -375 -158c-158 0 -283.5 52.667 -376.5 158s-139.5 249 -139.5 431s46.5 325.833 139.5 431.5s218.5 158.5 376.5 158.5c156.667 0 281.667 -52.833 375 -158.5s140 -249.5 140 -431.5zM943 558
c0 144.667 -28.332 252.167 -84.999 322.5s-135.334 105.5 -236.001 105.5c-102 0 -181.167 -35.167 -237.5 -105.5s-84.5 -177.833 -84.5 -322.5c0 -140 28.333 -246.167 85 -318.5s135.667 -108.5 237 -108.5c100 0 178.5 35.833 235.5 107.5s85.5 178.167 85.5 319.5z
M1038 1619c-7.33301 -101.333 -32.998 -177.668 -76.998 -229.001s-103 -77 -177 -77c-36 0 -69.333 6.5 -100 19.5s-59.667 31.833 -87 56.5c-31.333 28.667 -57.833 50.167 -79.5 64.5s-45.5 21.5 -71.5 21.5c-34.667 0 -60.667 -15 -78 -45s-27.333 -70.333 -30 -121
h-131c5.33301 100.667 31.666 176.667 78.999 228s105.333 77 174 77c33.333 0 65.5 -6.5 96.5 -19.5s60.5 -31.5 88.5 -55.5c31.333 -27.333 59.166 -47.833 83.499 -61.5s47.5 -20.5 69.5 -20.5c34 0 60.5 15.333 79.5 46s29.5 69.334 31.5 116.001h129z" />
    <glyph glyph-name="odieresis" unicode="&#xf6;" horiz-adv-x="1243" 
d="M1137 558c0 -182 -46.667 -325.667 -140 -431s-218.333 -158 -375 -158c-158 0 -283.5 52.667 -376.5 158s-139.5 249 -139.5 431s46.5 325.833 139.5 431.5s218.5 158.5 376.5 158.5c156.667 0 281.667 -52.833 375 -158.5s140 -249.5 140 -431.5zM943 558
c0 144.667 -28.332 252.167 -84.999 322.5s-135.334 105.5 -236.001 105.5c-102 0 -181.167 -35.167 -237.5 -105.5s-84.5 -177.833 -84.5 -322.5c0 -140 28.333 -246.167 85 -318.5s135.667 -108.5 237 -108.5c100 0 178.5 35.833 235.5 107.5s85.5 178.167 85.5 319.5z
M928.001 1304h-199v195h199v-195zM515.001 1304h-199v195h199v-195z" />
    <glyph glyph-name="divide" unicode="&#xf7;" horiz-adv-x="1676" 
d="M957 1022h-238v275h238v-275zM1466 572h-1256v160h1256v-160zM957 7h-238v275h238v-275z" />
    <glyph glyph-name="oslash" unicode="&#xf8;" horiz-adv-x="1243" 
d="M1137 558c0 -182 -46.667 -325.665 -140 -430.998s-218.333 -158 -375 -158c-56 0 -107.833 7 -155.5 21s-91.167 34 -130.5 60l-133 -198h-110l171 256c-50 51.333 -88.833 114.666 -116.5 189.999s-41.5 162 -41.5 260c0 182 46.5 325.833 139.5 431.5
s218.5 158.5 376.5 158.5c58 0 110.667 -7.33301 158 -22s89 -33.667 125 -57l116 172h111l-155 -231c50.667 -50.667 90 -113.334 118 -188.001s42 -162.667 42 -264zM813 930.002c-24.667 19.333 -53.499 33.833 -86.499 43.5s-67.833 14.5 -104.5 14.5
c-103.333 0 -183.333 -36.667 -240 -110s-85 -180 -85 -320c0 -64.667 5.66699 -121.667 17 -171s28.666 -92 51.999 -128zM946.001 558.002c0 64.667 -5.83203 122.334 -17.499 173.001s-28.834 94 -51.501 130l-448 -671c26 -20.667 54.833 -36 86.5 -46
s67.167 -15 106.5 -15c100 0 179 36.167 237 108.5s87 179.166 87 320.499z" />
    <glyph glyph-name="ugrave" unicode="&#xf9;" horiz-adv-x="1296" 
d="M1111 0l-188.002 -0.000976562v124c-63.333 -50 -124 -88.333 -182 -115s-122 -40 -192 -40c-117.333 0 -208.666 35.833 -273.999 107.5s-98 176.834 -98 315.501v725h188v-636c0 -56.667 2.66699 -105.167 8 -145.5s16.666 -74.833 33.999 -103.5
c18 -29.333 41.333 -50.666 70 -63.999s70.334 -20 125.001 -20c48.667 0 101.834 12.667 159.501 38s111.5 57.666 161.5 96.999v834h188v-1117zM763.998 1302h-149l-273 374h243z" />
    <glyph glyph-name="uacute" unicode="&#xfa;" horiz-adv-x="1296" 
d="M1111 0l-188.002 -0.000976562v124c-63.333 -50 -124 -88.333 -182 -115s-122 -40 -192 -40c-117.333 0 -208.666 35.833 -273.999 107.5s-98 176.834 -98 315.501v725h188v-636c0 -56.667 2.66699 -105.167 8 -145.5s16.666 -74.833 33.999 -103.5
c18 -29.333 41.333 -50.666 70 -63.999s70.334 -20 125.001 -20c48.667 0 101.834 12.667 159.501 38s111.5 57.666 161.5 96.999v834h188v-1117zM944.998 1676l-273 -374h-149l179 374h243z" />
    <glyph glyph-name="ucircumflex" unicode="&#xfb;" horiz-adv-x="1296" 
d="M1111 0l-188.002 -0.000976562v124c-63.333 -50 -124 -88.333 -182 -115s-122 -40 -192 -40c-117.333 0 -208.666 35.833 -273.999 107.5s-98 176.834 -98 315.501v725h188v-636c0 -56.667 2.66699 -105.167 8 -145.5s16.666 -74.833 33.999 -103.5
c18 -29.333 41.333 -50.666 70 -63.999s70.334 -20 125.001 -20c48.667 0 101.834 12.667 159.501 38s111.5 57.666 161.5 96.999v834h188v-1117zM984.998 1297h-159l-185 256l-184 -256h-155l228 379h227z" />
    <glyph glyph-name="udieresis" unicode="&#xfc;" horiz-adv-x="1296" 
d="M1111 0l-188.002 -0.000976562v124c-63.333 -50 -124 -88.333 -182 -115s-122 -40 -192 -40c-117.333 0 -208.666 35.833 -273.999 107.5s-98 176.834 -98 315.501v725h188v-636c0 -56.667 2.66699 -105.167 8 -145.5s16.666 -74.833 33.999 -103.5
c18 -29.333 41.333 -50.666 70 -63.999s70.334 -20 125.001 -20c48.667 0 101.834 12.667 159.501 38s111.5 57.666 161.5 96.999v834h188v-1117zM954.998 1304h-199v195h199v-195zM541.998 1304h-199v195h199v-195z" />
    <glyph glyph-name="yacute" unicode="&#xfd;" horiz-adv-x="1212" 
d="M1151 1117l-652 -1529h-201l208 466l-445 1063h204l343 -828l346 828h197zM928 1676l-273 -374h-149l179 374h243z" />
    <glyph glyph-name="thorn" unicode="&#xfe;" horiz-adv-x="1276" 
d="M1168 572c0 -90.667 -12.999 -173.5 -38.999 -248.5s-62.667 -138.5 -110 -190.5c-44 -49.333 -95.833 -87.5 -155.5 -114.5s-122.834 -40.5 -189.501 -40.5c-58 0 -110.5 6.33301 -157.5 19s-94.833 32.334 -143.5 59.001v-468h-188v1968h188v-556
c50 42 106.167 77.167 168.5 105.5s128.833 42.5 199.5 42.5c134.667 0 239.5 -50.833 314.5 -152.5s112.5 -242.834 112.5 -423.501zM974.001 567c0 134.667 -23 235.332 -69 301.999s-116.667 100 -212 100c-54 0 -108.333 -11.667 -163 -35s-107 -54 -157 -92v-633
c53.333 -24 99.166 -40.333 137.499 -49s81.833 -13 130.5 -13c104.667 0 186.334 35.333 245.001 106s88 175.334 88 314.001z" />
    <glyph glyph-name="ydieresis" unicode="&#xff;" horiz-adv-x="1212" 
d="M1151 1117l-652 -1529h-201l208 466l-445 1063h204l343 -828l346 828h197zM923 1304h-199v195h199v-195zM510 1304h-199v195h199v-195z" />
    <glyph glyph-name="Amacron" unicode="&#x100;" horiz-adv-x="1400" 
d="M1374 0h-211l-146 415h-644l-146 -415h-201l542 1489h264zM956 585l-261 731l-262 -731h523zM1071 1698h-742v154h742v-154z" />
    <glyph glyph-name="amacron" unicode="&#x101;" horiz-adv-x="1230" 
d="M1053 0l-186.995 0.000976562v119l-67.5 -47.5c-28.333 -20.333 -55.833 -36.5 -82.5 -48.5c-31.333 -15.333 -67.333 -28.166 -108 -38.499s-88.334 -15.5 -143.001 -15.5c-100.667 0 -186 33.333 -256 100s-105 151.667 -105 255c0 84.667 18.167 153.167 54.5 205.5
s88.166 93.5 155.499 123.5c68 30 149.667 50.333 245 61s197.666 18.667 306.999 24v29c0 42.667 -7.5 78 -22.5 106s-36.5 50 -64.5 66c-26.667 15.333 -58.667 25.666 -96 30.999s-76.333 8 -117 8c-49.333 0 -104.333 -6.5 -165 -19.5s-123.334 -31.833 -188.001 -56.5
h-10v191c36.667 10 89.667 21 159 33s137.666 18 204.999 18c78.667 0 147.167 -6.5 205.5 -19.5s108.833 -35.167 151.5 -66.5c42 -30.667 74 -70.334 96 -119.001s33 -109 33 -181v-758zM866.005 275.001l-0.000976562 311c-57.333 -3.33301 -124.833 -8.33301 -202.5 -15
s-139.167 -16.334 -184.5 -29.001c-54 -15.333 -97.667 -39.166 -131 -71.499s-50 -76.833 -50 -133.5c0 -64 19.333 -112.167 58 -144.5s97.667 -48.5 177 -48.5c66 0 126.333 12.833 181 38.5s105.334 56.5 152.001 92.5zM983.004 1335h-742v154h742v-154z" />
    <glyph glyph-name="Abreve" unicode="&#x102;" horiz-adv-x="1400" 
d="M1374 0h-211l-146 415h-644l-146 -415h-201l542 1489h264zM956 585l-261 731l-262 -731h523zM1075 2049c-6.66699 -112 -42.832 -203.667 -108.499 -275s-154.834 -107 -267.501 -107s-201.834 35.667 -267.501 107s-101.5 163 -107.5 275h166
c8 -88 29.833 -152 65.5 -192s83.834 -60 144.501 -60c59.333 0 106.833 20 142.5 60s58.167 104 67.5 192h165z" />
    <glyph glyph-name="abreve" unicode="&#x103;" horiz-adv-x="1230" 
d="M1053 0l-186.995 0.000976562v119l-67.5 -47.5c-28.333 -20.333 -55.833 -36.5 -82.5 -48.5c-31.333 -15.333 -67.333 -28.166 -108 -38.499s-88.334 -15.5 -143.001 -15.5c-100.667 0 -186 33.333 -256 100s-105 151.667 -105 255c0 84.667 18.167 153.167 54.5 205.5
s88.166 93.5 155.499 123.5c68 30 149.667 50.333 245 61s197.666 18.667 306.999 24v29c0 42.667 -7.5 78 -22.5 106s-36.5 50 -64.5 66c-26.667 15.333 -58.667 25.666 -96 30.999s-76.333 8 -117 8c-49.333 0 -104.333 -6.5 -165 -19.5s-123.334 -31.833 -188.001 -56.5
h-10v191c36.667 10 89.667 21 159 33s137.666 18 204.999 18c78.667 0 147.167 -6.5 205.5 -19.5s108.833 -35.167 151.5 -66.5c42 -30.667 74 -70.334 96 -119.001s33 -109 33 -181v-758zM866.005 275.001l-0.000976562 311c-57.333 -3.33301 -124.833 -8.33301 -202.5 -15
s-139.167 -16.334 -184.5 -29.001c-54 -15.333 -97.667 -39.166 -131 -71.499s-50 -76.833 -50 -133.5c0 -64 19.333 -112.167 58 -144.5s97.667 -48.5 177 -48.5c66 0 126.333 12.833 181 38.5s105.334 56.5 152.001 92.5zM984.004 1676
c-6.66699 -112 -42.832 -203.667 -108.499 -275s-154.834 -107 -267.501 -107s-201.834 35.667 -267.501 107s-101.5 163 -107.5 275h166c8 -88 29.833 -152 65.5 -192s83.834 -60 144.501 -60c59.333 0 106.833 20 142.5 60s58.167 104 67.5 192h165z" />
    <glyph glyph-name="Aogonek" unicode="&#x104;" horiz-adv-x="1400" 
d="M1579 -391c-34.667 -9.33301 -64.5 -16 -89.5 -20s-51.5 -6 -79.5 -6c-92.667 0 -167.167 26.167 -223.5 78.5s-84.5 126.5 -84.5 222.5c0 42.667 5 81.667 15 117l21 74l-121 340h-644l-146 -415h-201l542 1489h264l542 -1489h-97c-4 -18 -7.16699 -35.833 -9.5 -53.5
s-3.5 -35.5 -3.5 -53.5c0 -54.667 13.833 -95 41.5 -121s71.5 -39 131.5 -39c24 0 49.5 4.5 76.5 13.5s46.167 16.167 57.5 21.5h8v-159zM956 585l-261 731l-262 -731h523z" />
    <glyph glyph-name="aogonek" unicode="&#x105;" horiz-adv-x="1230" 
d="M1326 -391c-34.667 -9.33301 -64.4951 -15.999 -89.4951 -19.999s-51.5 -6 -79.5 -6c-92.667 0 -167.167 26.333 -223.5 79s-84.5 126.667 -84.5 222c0 25.333 2.16699 47.833 6.5 67.5l10.5 48.5v119l-67.5 -47.5c-28.333 -20.333 -55.833 -36.5 -82.5 -48.5
c-31.333 -15.333 -67.333 -28.166 -108 -38.499s-88.334 -15.5 -143.001 -15.5c-100.667 0 -186 33.333 -256 100s-105 151.667 -105 255c0 84.667 18.167 153.167 54.5 205.5s88.166 93.5 155.499 123.5c68 30 149.667 50.333 245 61s197.666 18.667 306.999 24v29
c0 42.667 -7.5 78 -22.5 106s-36.5 50 -64.5 66c-26.667 15.333 -58.667 25.666 -96 30.999s-76.333 8 -117 8c-49.333 0 -104.333 -6.5 -165 -19.5s-123.334 -31.833 -188.001 -56.5h-10v191c36.667 10 89.667 21 159 33s137.666 18 204.999 18
c78.667 0 147.167 -6.5 205.5 -19.5s108.833 -35.167 151.5 -66.5c42 -30.667 74 -70.334 96 -119.001s33 -109 33 -181v-758h-29c-4 -18 -7.16699 -35.333 -9.5 -52s-3.5 -35 -3.5 -55c0 -54.667 13.833 -95 41.5 -121s71.5 -39 131.5 -39c24 0 49.5 4.5 76.5 13.5
s46.167 16.167 57.5 21.5h8v-159zM866.005 275.001l-0.000976562 311c-57.333 -3.33301 -124.833 -8.33301 -202.5 -15s-139.167 -16.334 -184.5 -29.001c-54 -15.333 -97.667 -39.166 -131 -71.499s-50 -76.833 -50 -133.5c0 -64 19.333 -112.167 58 -144.5
s97.667 -48.5 177 -48.5c66 0 126.333 12.833 181 38.5s105.334 56.5 152.001 92.5z" />
    <glyph glyph-name="Cacute" unicode="&#x106;" horiz-adv-x="1430" 
d="M1350 108l-99.5 -45.0039c-29.667 -14 -68.5 -28.667 -116.5 -44c-40.667 -12.667 -84.834 -23.5 -132.501 -32.5s-100.167 -13.5 -157.5 -13.5c-108 0 -206.167 15.167 -294.5 45.5s-165.166 77.833 -230.499 142.5c-64 63.333 -114 143.833 -150 241.5
s-54 211.167 -54 340.5c0 122.667 17.333 232.334 52 329.001s84.667 178.334 150 245.001c63.333 64.667 139.833 114 229.5 148s189.167 51 298.5 51c80 0 159.833 -9.66699 239.5 -29s168.167 -53.333 265.5 -102v-235h-15c-82 68.667 -163.333 118.667 -244 150
s-167 47 -259 47c-75.333 0 -143.166 -12.167 -203.499 -36.5s-114.166 -62.166 -161.499 -113.499c-46 -50 -81.833 -113.167 -107.5 -189.5s-38.5 -164.5 -38.5 -264.5c0 -104.667 14.167 -194.667 42.5 -270s64.833 -136.666 109.5 -183.999
c46.667 -49.333 101.167 -85.833 163.5 -109.5s128.166 -35.5 197.499 -35.5c95.333 0 184.666 16.333 267.999 49s161.333 81.667 234 147h14v-232zM1073 2049l-273 -374h-149l179 374h243z" />
    <glyph glyph-name="cacute" unicode="&#x107;" horiz-adv-x="1067" 
d="M1011 70c-62.667 -30 -122.164 -53.332 -178.497 -69.999s-116.166 -25 -179.499 -25c-80.667 0 -154.667 11.833 -222 35.5s-125 59.5 -173 107.5c-48.667 48 -86.334 108.667 -113.001 182s-40 159 -40 257c0 182.667 50.167 326 150.5 430s232.833 156 397.5 156
c64 0 126.833 -9 188.5 -27s118.167 -40 169.5 -66v-209h-10c-57.333 44.667 -116.5 79 -177.5 103s-120.5 36 -178.5 36c-106.667 0 -190.834 -35.833 -252.501 -107.5s-92.5 -176.834 -92.5 -315.501c0 -134.667 30.167 -238.167 90.5 -310.5
s145.166 -108.5 254.499 -108.5c38 0 76.667 5 116 15s74.666 23 105.999 39c27.333 14 53 28.833 77 44.5s43 29.167 57 40.5h10v-207zM913.003 1676l-273 -374h-149l179 374h243z" />
    <glyph glyph-name="Ccircumflex" unicode="&#x108;" horiz-adv-x="1430" 
d="M1350 108l-99.5 -45.0039c-29.667 -14 -68.5 -28.667 -116.5 -44c-40.667 -12.667 -84.834 -23.5 -132.501 -32.5s-100.167 -13.5 -157.5 -13.5c-108 0 -206.167 15.167 -294.5 45.5s-165.166 77.833 -230.499 142.5c-64 63.333 -114 143.833 -150 241.5
s-54 211.167 -54 340.5c0 122.667 17.333 232.334 52 329.001s84.667 178.334 150 245.001c63.333 64.667 139.833 114 229.5 148s189.167 51 298.5 51c80 0 159.833 -9.66699 239.5 -29s168.167 -53.333 265.5 -102v-235h-15c-82 68.667 -163.333 118.667 -244 150
s-167 47 -259 47c-75.333 0 -143.166 -12.167 -203.499 -36.5s-114.166 -62.166 -161.499 -113.499c-46 -50 -81.833 -113.167 -107.5 -189.5s-38.5 -164.5 -38.5 -264.5c0 -104.667 14.167 -194.667 42.5 -270s64.833 -136.666 109.5 -183.999
c46.667 -49.333 101.167 -85.833 163.5 -109.5s128.166 -35.5 197.499 -35.5c95.333 0 184.666 16.333 267.999 49s161.333 81.667 234 147h14v-232zM1162 1670h-159l-185 256l-184 -256h-155l228 379h227z" />
    <glyph glyph-name="ccircumflex" unicode="&#x109;" horiz-adv-x="1067" 
d="M1011 70c-62.667 -30 -122.164 -53.332 -178.497 -69.999s-116.166 -25 -179.499 -25c-80.667 0 -154.667 11.833 -222 35.5s-125 59.5 -173 107.5c-48.667 48 -86.334 108.667 -113.001 182s-40 159 -40 257c0 182.667 50.167 326 150.5 430s232.833 156 397.5 156
c64 0 126.833 -9 188.5 -27s118.167 -40 169.5 -66v-209h-10c-57.333 44.667 -116.5 79 -177.5 103s-120.5 36 -178.5 36c-106.667 0 -190.834 -35.833 -252.501 -107.5s-92.5 -176.834 -92.5 -315.501c0 -134.667 30.167 -238.167 90.5 -310.5
s145.166 -108.5 254.499 -108.5c38 0 76.667 5 116 15s74.666 23 105.999 39c27.333 14 53 28.833 77 44.5s43 29.167 57 40.5h10v-207zM981.003 1297h-159l-185 256l-184 -256h-155l228 379h227z" />
    <glyph glyph-name="Cdot" unicode="&#x10a;" horiz-adv-x="1430" 
d="M1350 108l-99.5 -45.0039c-29.667 -14 -68.5 -28.667 -116.5 -44c-40.667 -12.667 -84.834 -23.5 -132.501 -32.5s-100.167 -13.5 -157.5 -13.5c-108 0 -206.167 15.167 -294.5 45.5s-165.166 77.833 -230.499 142.5c-64 63.333 -114 143.833 -150 241.5
s-54 211.167 -54 340.5c0 122.667 17.333 232.334 52 329.001s84.667 178.334 150 245.001c63.333 64.667 139.833 114 229.5 148s189.167 51 298.5 51c80 0 159.833 -9.66699 239.5 -29s168.167 -53.333 265.5 -102v-235h-15c-82 68.667 -163.333 118.667 -244 150
s-167 47 -259 47c-75.333 0 -143.166 -12.167 -203.499 -36.5s-114.166 -62.166 -161.499 -113.499c-46 -50 -81.833 -113.167 -107.5 -189.5s-38.5 -164.5 -38.5 -264.5c0 -104.667 14.167 -194.667 42.5 -270s64.833 -136.666 109.5 -183.999
c46.667 -49.333 101.167 -85.833 163.5 -109.5s128.166 -35.5 197.499 -35.5c95.333 0 184.666 16.333 267.999 49s161.333 81.667 234 147h14v-232zM925 1677h-212v195h212v-195z" />
    <glyph glyph-name="cdot" unicode="&#x10b;" horiz-adv-x="1067" 
d="M1011 70c-62.667 -30 -122.164 -53.332 -178.497 -69.999s-116.166 -25 -179.499 -25c-80.667 0 -154.667 11.833 -222 35.5s-125 59.5 -173 107.5c-48.667 48 -86.334 108.667 -113.001 182s-40 159 -40 257c0 182.667 50.167 326 150.5 430s232.833 156 397.5 156
c64 0 126.833 -9 188.5 -27s118.167 -40 169.5 -66v-209h-10c-57.333 44.667 -116.5 79 -177.5 103s-120.5 36 -178.5 36c-106.667 0 -190.834 -35.833 -252.501 -107.5s-92.5 -176.834 -92.5 -315.501c0 -134.667 30.167 -238.167 90.5 -310.5
s145.166 -108.5 254.499 -108.5c38 0 76.667 5 116 15s74.666 23 105.999 39c27.333 14 53 28.833 77 44.5s43 29.167 57 40.5h10v-207zM746.003 1304h-212v195h212v-195z" />
    <glyph glyph-name="Ccaron" unicode="&#x10c;" horiz-adv-x="1430" 
d="M1350 108l-99.5 -45.0039c-29.667 -14 -68.5 -28.667 -116.5 -44c-40.667 -12.667 -84.834 -23.5 -132.501 -32.5s-100.167 -13.5 -157.5 -13.5c-108 0 -206.167 15.167 -294.5 45.5s-165.166 77.833 -230.499 142.5c-64 63.333 -114 143.833 -150 241.5
s-54 211.167 -54 340.5c0 122.667 17.333 232.334 52 329.001s84.667 178.334 150 245.001c63.333 64.667 139.833 114 229.5 148s189.167 51 298.5 51c80 0 159.833 -9.66699 239.5 -29s168.167 -53.333 265.5 -102v-235h-15c-82 68.667 -163.333 118.667 -244 150
s-167 47 -259 47c-75.333 0 -143.166 -12.167 -203.499 -36.5s-114.166 -62.166 -161.499 -113.499c-46 -50 -81.833 -113.167 -107.5 -189.5s-38.5 -164.5 -38.5 -264.5c0 -104.667 14.167 -194.667 42.5 -270s64.833 -136.666 109.5 -183.999
c46.667 -49.333 101.167 -85.833 163.5 -109.5s128.166 -35.5 197.499 -35.5c95.333 0 184.666 16.333 267.999 49s161.333 81.667 234 147h14v-232zM1157 2049l-228 -379h-227l-228 379h159l185 -256l184 256h155z" />
    <glyph glyph-name="ccaron" unicode="&#x10d;" horiz-adv-x="1067" 
d="M1011 70c-62.667 -30 -122.164 -53.332 -178.497 -69.999s-116.166 -25 -179.499 -25c-80.667 0 -154.667 11.833 -222 35.5s-125 59.5 -173 107.5c-48.667 48 -86.334 108.667 -113.001 182s-40 159 -40 257c0 182.667 50.167 326 150.5 430s232.833 156 397.5 156
c64 0 126.833 -9 188.5 -27s118.167 -40 169.5 -66v-209h-10c-57.333 44.667 -116.5 79 -177.5 103s-120.5 36 -178.5 36c-106.667 0 -190.834 -35.833 -252.501 -107.5s-92.5 -176.834 -92.5 -315.501c0 -134.667 30.167 -238.167 90.5 -310.5
s145.166 -108.5 254.499 -108.5c38 0 76.667 5 116 15s74.666 23 105.999 39c27.333 14 53 28.833 77 44.5s43 29.167 57 40.5h10v-207zM979.003 1676l-228 -379h-227l-228 379h159l185 -256l184 256h155z" />
    <glyph glyph-name="Dcaron" unicode="&#x10e;" horiz-adv-x="1578" 
d="M1458 743c0 -135.333 -29.499 -258.001 -88.499 -368.001s-137.5 -195.333 -235.5 -256c-68 -42 -143.833 -72.333 -227.5 -91s-193.834 -28 -330.501 -28h-376v1489h372c145.333 0 260.833 -10.5 346.5 -31.5s158.167 -49.833 217.5 -86.5
c101.333 -63.333 180.333 -147.666 237 -252.999s85 -230.333 85 -375zM1251 745.999c0 116.667 -20.332 215.001 -60.999 295.001s-101.334 143 -182.001 189c-58.667 33.333 -121 56.5 -187 69.5s-145 19.5 -237 19.5h-186v-1149h186c95.333 0 178.5 7 249.5 21
s136.167 40 195.5 78c74 47.333 129.5 109.666 166.5 186.999s55.5 174 55.5 290zM1029 2049l-228 -379h-227l-228 379h159l185 -256l184 256h155z" />
    <glyph glyph-name="dcaron" unicode="&#x10f;" horiz-adv-x="1326" 
d="M1575 1556l-250 -505h-127l152 505h225zM1091 0l-187.999 -0.000976562v117c-54 -46.667 -110.333 -83 -169 -109s-122.334 -39 -191.001 -39c-133.333 0 -239.166 51.333 -317.499 154s-117.5 245 -117.5 427c0 94.667 13.5 179 40.5 253s63.5 137 109.5 189
c45.333 50.667 98.166 89.334 158.499 116.001s122.833 40 187.5 40c58.667 0 110.667 -6.16699 156 -18.5s93 -31.5 143 -57.5v484h188v-1556zM903.001 274.999v640.999c-50.667 22.667 -96 38.334 -136 47.001s-83.667 13 -131 13c-105.333 0 -187.333 -36.667 -246 -110
s-88 -177.333 -88 -312c0 -132.667 22.667 -233.5 68 -302.5s118 -103.5 218 -103.5c53.333 0 107.333 11.833 162 35.5s105.667 54.167 153 91.5z" />
    <glyph glyph-name="Dslash" unicode="&#x110;" horiz-adv-x="1588" 
d="M1468 743c0 -135.333 -29.499 -258.001 -88.499 -368.001s-137.5 -195.333 -235.5 -256c-68 -42 -143.833 -72.333 -227.5 -91s-193.834 -28 -330.501 -28h-376v740h-196v143h196v606h372c145.333 0 261 -10.5 347 -31.5s158.333 -49.833 217 -86.5
c101.333 -63.333 180.333 -147.666 237 -252.999s85 -230.333 85 -375zM1261 745.999c0 116.667 -20.332 215.001 -60.999 295.001s-101.334 143 -182.001 189c-58.667 33.333 -121 56.5 -187 69.5s-145 19.5 -237 19.5h-188v-436h361v-143h-361v-570h188
c95.333 0 178.5 7 249.5 21s136.167 40 195.5 78c74 47.333 129.5 109.666 166.5 186.999s55.5 174 55.5 290z" />
    <glyph glyph-name="dmacron" unicode="&#x111;" horiz-adv-x="1276" 
d="M1275 1268h-184v-1268h-188v117c-51.333 -44 -105.833 -79.667 -163.5 -107s-123.167 -41 -196.5 -41c-132 0 -237.5 50.333 -316.5 151s-118.5 242 -118.5 424c0 94.667 13.667 178.5 41 251.5s63.666 135.167 108.999 186.5c45.333 50.667 98.333 89.167 159 115.5
s123 39.5 187 39.5c59.333 0 111.333 -6 156 -18s92.334 -31 143.001 -57v206h-363v134h363v154h188v-154h184v-134zM903 275v633c-52.667 22.667 -98.167 38 -136.5 46s-81.833 12 -130.5 12c-104 0 -185.667 -35.667 -245 -107s-89 -175 -89 -311
c0 -130 22.5 -229.167 67.5 -297.5s117.833 -102.5 218.5 -102.5c53.333 0 107.333 11.833 162 35.5s105.667 54.167 153 91.5z" />
    <glyph glyph-name="Emacron" unicode="&#x112;" horiz-adv-x="1295" 
d="M1181 0h-981v1489h981v-176h-783v-408h783v-176h-783v-553h783v-176zM1073 1698h-742v154h742v-154z" />
    <glyph glyph-name="emacron" unicode="&#x113;" horiz-adv-x="1220" 
d="M1120 539l-823.003 0.000976562c0 -68.667 10.333 -128.5 31 -179.5s49 -92.833 85 -125.5c34.667 -32 75.834 -56 123.501 -72s100.167 -24 157.5 -24c76 0 152.5 15.167 229.5 45.5s131.833 60.166 164.5 89.499h10v-205c-63.333 -26.667 -128 -49 -194 -67
s-135.333 -27 -208 -27c-185.333 0 -330 50.167 -434 150.5s-156 242.833 -156 427.5c0 182.667 49.833 327.667 149.5 435s230.834 161 393.501 161c150.667 0 266.834 -44 348.501 -132s122.5 -213 122.5 -375v-102zM936.997 683.001
c-0.666992 98.667 -25.499 175 -74.499 229s-123.5 81 -223.5 81c-100.667 0 -180.834 -29.667 -240.501 -89s-93.5 -133 -101.5 -221h640zM1013 1335h-742v154h742v-154z" />
    <glyph glyph-name="Ebreve" unicode="&#x114;" horiz-adv-x="1295" 
d="M1181 0h-981v1489h981v-176h-783v-408h783v-176h-783v-553h783v-176zM1090 2049c-6.66699 -112 -42.832 -203.667 -108.499 -275s-154.834 -107 -267.501 -107s-201.834 35.667 -267.501 107s-101.5 163 -107.5 275h166c8 -88 29.833 -152 65.5 -192
s83.834 -60 144.501 -60c59.333 0 106.833 20 142.5 60s58.167 104 67.5 192h165z" />
    <glyph glyph-name="ebreve" unicode="&#x115;" horiz-adv-x="1220" 
d="M1120 539l-823.003 0.000976562c0 -68.667 10.333 -128.5 31 -179.5s49 -92.833 85 -125.5c34.667 -32 75.834 -56 123.501 -72s100.167 -24 157.5 -24c76 0 152.5 15.167 229.5 45.5s131.833 60.166 164.5 89.499h10v-205c-63.333 -26.667 -128 -49 -194 -67
s-135.333 -27 -208 -27c-185.333 0 -330 50.167 -434 150.5s-156 242.833 -156 427.5c0 182.667 49.833 327.667 149.5 435s230.834 161 393.501 161c150.667 0 266.834 -44 348.501 -132s122.5 -213 122.5 -375v-102zM936.997 683.001
c-0.666992 98.667 -25.499 175 -74.499 229s-123.5 81 -223.5 81c-100.667 0 -180.834 -29.667 -240.501 -89s-93.5 -133 -101.5 -221h640zM1024 1676c-6.66699 -112 -42.832 -203.667 -108.499 -275s-154.834 -107 -267.501 -107s-201.834 35.667 -267.501 107
s-101.5 163 -107.5 275h166c8 -88 29.833 -152 65.5 -192s83.834 -60 144.501 -60c59.333 0 106.833 20 142.5 60s58.167 104 67.5 192h165z" />
    <glyph glyph-name="Edot" unicode="&#x116;" horiz-adv-x="1295" 
d="M1181 0h-981v1489h981v-176h-783v-408h783v-176h-783v-553h783v-176zM836 1677h-212v195h212v-195z" />
    <glyph glyph-name="edot" unicode="&#x117;" horiz-adv-x="1220" 
d="M1120 539l-823.003 0.000976562c0 -68.667 10.333 -128.5 31 -179.5s49 -92.833 85 -125.5c34.667 -32 75.834 -56 123.501 -72s100.167 -24 157.5 -24c76 0 152.5 15.167 229.5 45.5s131.833 60.166 164.5 89.499h10v-205c-63.333 -26.667 -128 -49 -194 -67
s-135.333 -27 -208 -27c-185.333 0 -330 50.167 -434 150.5s-156 242.833 -156 427.5c0 182.667 49.833 327.667 149.5 435s230.834 161 393.501 161c150.667 0 266.834 -44 348.501 -132s122.5 -213 122.5 -375v-102zM936.997 683.001
c-0.666992 98.667 -25.499 175 -74.499 229s-123.5 81 -223.5 81c-100.667 0 -180.834 -29.667 -240.501 -89s-93.5 -133 -101.5 -221h640zM756.998 1304h-212v195h212v-195z" />
    <glyph glyph-name="Eogonek" unicode="&#x118;" horiz-adv-x="1295" 
d="M1229 -391c-34.667 -9.33301 -64.5 -16 -89.5 -20s-51.5 -6 -79.5 -6c-92.667 0 -167.167 26.333 -223.5 79s-84.5 126.667 -84.5 222c0 24 1.83301 44.5 5.5 61.5l11.5 54.5h-569v1489h981v-176h-783v-408h783v-176h-783v-553h783v-176h-254
c-4 -18 -7.16699 -35.833 -9.5 -53.5s-3.5 -35.5 -3.5 -53.5c0 -54.667 13.833 -95 41.5 -121s71.5 -39 131.5 -39c24 0 49.5 4.5 76.5 13.5s46.167 16.167 57.5 21.5h8v-159z" />
    <glyph glyph-name="eogonek" unicode="&#x119;" horiz-adv-x="1220" 
d="M1120 539l-823.004 0.00195312c0 -68.667 10.333 -128.5 31 -179.5s49 -92.833 85 -125.5c34.667 -32 75.834 -56 123.501 -72s100.167 -24 157.5 -24c76 0 152.5 15.167 229.5 45.5s131.833 60.166 164.5 89.499h10v-205c-49.333 -20.667 -99.833 -39.167 -151.5 -55.5
s-104.5 -27.5 -158.5 -33.5c-1.33301 -13.333 -2.5 -28 -3.5 -44s-1.5 -30 -1.5 -42c0 -54.667 13.833 -95 41.5 -121s71.5 -39 131.5 -39c24 0 49.5 4.5 76.5 13.5s46.167 16.167 57.5 21.5h8v-159c-34.667 -9.33301 -64.5 -16 -89.5 -20s-51.5 -6 -79.5 -6
c-92.667 0 -167.167 26.333 -223.5 79s-84.5 126.667 -84.5 222c0 16 1 32.333 3 49s4.33301 31 7 43c-165.333 12 -294.166 67.667 -386.499 167s-138.5 235.666 -138.5 408.999c0 182.667 49.833 327.667 149.5 435s230.834 161 393.501 161
c150.667 0 266.834 -44 348.501 -132s122.5 -213 122.5 -375v-102zM936.996 683.002c-0.666992 98.667 -25.499 175 -74.499 229s-123.5 81 -223.5 81c-100.667 0 -180.834 -29.667 -240.501 -89s-93.5 -133 -101.5 -221h640z" />
    <glyph glyph-name="Ecaron" unicode="&#x11a;" horiz-adv-x="1295" 
d="M1181 0h-981v1489h981v-176h-783v-408h783v-176h-783v-553h783v-176zM1023 2049l-228 -379h-227l-228 379h159l185 -256l184 256h155z" />
    <glyph glyph-name="ecaron" unicode="&#x11b;" horiz-adv-x="1220" 
d="M1120 539l-823.003 0.000976562c0 -68.667 10.333 -128.5 31 -179.5s49 -92.833 85 -125.5c34.667 -32 75.834 -56 123.501 -72s100.167 -24 157.5 -24c76 0 152.5 15.167 229.5 45.5s131.833 60.166 164.5 89.499h10v-205c-63.333 -26.667 -128 -49 -194 -67
s-135.333 -27 -208 -27c-185.333 0 -330 50.167 -434 150.5s-156 242.833 -156 427.5c0 182.667 49.833 327.667 149.5 435s230.834 161 393.501 161c150.667 0 266.834 -44 348.501 -132s122.5 -213 122.5 -375v-102zM936.997 683.001
c-0.666992 98.667 -25.499 175 -74.499 229s-123.5 81 -223.5 81c-100.667 0 -180.834 -29.667 -240.501 -89s-93.5 -133 -101.5 -221h640zM985.998 1676l-228 -379h-227l-228 379h159l185 -256l184 256h155z" />
    <glyph glyph-name="Gcircumflex" unicode="&#x11c;" horiz-adv-x="1588" 
d="M1442 110c-81.333 -37.333 -170.167 -69.834 -266.5 -97.501s-189.5 -41.5 -279.5 -41.5c-116 0 -222.333 16 -319 48s-179 80 -247 144c-68.667 64.667 -121.667 145.5 -159 242.5s-56 210.5 -56 340.5c0 238 69.5 425.833 208.5 563.5s329.833 206.5 572.5 206.5
c84.667 0 171.167 -10.167 259.5 -30.5s183.5 -54.833 285.5 -103.5v-235h-18c-20.667 16 -50.667 37 -90 63s-78 47.667 -116 65c-46 20.667 -98.167 37.834 -156.5 51.501s-124.5 20.5 -198.5 20.5c-166.667 0 -298.5 -53.5 -395.5 -160.5s-145.5 -251.833 -145.5 -434.5
c0 -192.667 50.667 -342.5 152 -449.5s239.333 -160.5 414 -160.5c64 0 127.833 6.33301 191.5 19s119.5 29 167.5 49v365h-399v174h595v-639zM1201 1670h-159l-185 256l-184 -256h-155l228 379h227z" />
    <glyph glyph-name="gcircumflex" unicode="&#x11d;" horiz-adv-x="1276" 
d="M1091 127c0 -189.333 -43.0049 -328.331 -129.005 -416.998s-218.333 -133 -397 -133c-59.333 0 -117.166 4.16699 -173.499 12.5s-111.833 20.166 -166.5 35.499v192h10c30.667 -12 79.334 -26.833 146.001 -44.5s133.334 -26.5 200.001 -26.5c64 0 117 7.66699 159 23
s74.667 36.666 98 63.999c23.333 26 40 57.333 50 94s15 77.667 15 123v102c-56.667 -45.333 -110.834 -79.166 -162.501 -101.499s-117.5 -33.5 -197.5 -33.5c-133.333 0 -239.166 48.167 -317.499 144.5s-117.5 232.166 -117.5 407.499c0 96 13.5 178.833 40.5 248.5
s63.833 129.834 110.5 180.501c43.333 47.333 96 84.166 158 110.499s123.667 39.5 185 39.5c64.667 0 118.834 -6.5 162.501 -19.5s89.834 -32.833 138.501 -59.5l12 48h176v-990zM902.995 307.002l-0.000976562 608.999c-50 22.667 -96.5 38.834 -139.5 48.501
s-85.833 14.5 -128.5 14.5c-103.333 0 -184.666 -34.667 -243.999 -104s-89 -170 -89 -302c0 -125.333 22 -220.333 66 -285s117 -97 219 -97c54.667 0 109.5 10.5 164.5 31.5s105.5 49.167 151.5 84.5zM987.994 1297h-159l-185 256l-184 -256h-155l228 379h227z" />
    <glyph glyph-name="Gbreve" unicode="&#x11e;" horiz-adv-x="1588" 
d="M1442 110c-81.333 -37.333 -170.167 -69.834 -266.5 -97.501s-189.5 -41.5 -279.5 -41.5c-116 0 -222.333 16 -319 48s-179 80 -247 144c-68.667 64.667 -121.667 145.5 -159 242.5s-56 210.5 -56 340.5c0 238 69.5 425.833 208.5 563.5s329.833 206.5 572.5 206.5
c84.667 0 171.167 -10.167 259.5 -30.5s183.5 -54.833 285.5 -103.5v-235h-18c-20.667 16 -50.667 37 -90 63s-78 47.667 -116 65c-46 20.667 -98.167 37.834 -156.5 51.501s-124.5 20.5 -198.5 20.5c-166.667 0 -298.5 -53.5 -395.5 -160.5s-145.5 -251.833 -145.5 -434.5
c0 -192.667 50.667 -342.5 152 -449.5s239.333 -160.5 414 -160.5c64 0 127.833 6.33301 191.5 19s119.5 29 167.5 49v365h-399v174h595v-639zM1233 2049c-6.66699 -112 -42.832 -203.667 -108.499 -275s-154.834 -107 -267.501 -107s-201.834 35.667 -267.501 107
s-101.5 163 -107.5 275h166c8 -88 29.833 -152 65.5 -192s83.834 -60 144.501 -60c59.333 0 106.833 20 142.5 60s58.167 104 67.5 192h165z" />
    <glyph glyph-name="gbreve" unicode="&#x11f;" horiz-adv-x="1276" 
d="M1091 127c0 -189.333 -43.0049 -328.331 -129.005 -416.998s-218.333 -133 -397 -133c-59.333 0 -117.166 4.16699 -173.499 12.5s-111.833 20.166 -166.5 35.499v192h10c30.667 -12 79.334 -26.833 146.001 -44.5s133.334 -26.5 200.001 -26.5c64 0 117 7.66699 159 23
s74.667 36.666 98 63.999c23.333 26 40 57.333 50 94s15 77.667 15 123v102c-56.667 -45.333 -110.834 -79.166 -162.501 -101.499s-117.5 -33.5 -197.5 -33.5c-133.333 0 -239.166 48.167 -317.499 144.5s-117.5 232.166 -117.5 407.499c0 96 13.5 178.833 40.5 248.5
s63.833 129.834 110.5 180.501c43.333 47.333 96 84.166 158 110.499s123.667 39.5 185 39.5c64.667 0 118.834 -6.5 162.501 -19.5s89.834 -32.833 138.501 -59.5l12 48h176v-990zM902.995 307.002l-0.000976562 608.999c-50 22.667 -96.5 38.834 -139.5 48.501
s-85.833 14.5 -128.5 14.5c-103.333 0 -184.666 -34.667 -243.999 -104s-89 -170 -89 -302c0 -125.333 22 -220.333 66 -285s117 -97 219 -97c54.667 0 109.5 10.5 164.5 31.5s105.5 49.167 151.5 84.5zM1023.99 1676c-6.66699 -112 -42.832 -203.667 -108.499 -275
s-154.834 -107 -267.501 -107s-201.834 35.667 -267.501 107s-101.5 163 -107.5 275h166c8 -88 29.833 -152 65.5 -192s83.834 -60 144.501 -60c59.333 0 106.833 20 142.5 60s58.167 104 67.5 192h165z" />
    <glyph glyph-name="Gdot" unicode="&#x120;" horiz-adv-x="1588" 
d="M1442 110c-81.333 -37.333 -170.167 -69.834 -266.5 -97.501s-189.5 -41.5 -279.5 -41.5c-116 0 -222.333 16 -319 48s-179 80 -247 144c-68.667 64.667 -121.667 145.5 -159 242.5s-56 210.5 -56 340.5c0 238 69.5 425.833 208.5 563.5s329.833 206.5 572.5 206.5
c84.667 0 171.167 -10.167 259.5 -30.5s183.5 -54.833 285.5 -103.5v-235h-18c-20.667 16 -50.667 37 -90 63s-78 47.667 -116 65c-46 20.667 -98.167 37.834 -156.5 51.501s-124.5 20.5 -198.5 20.5c-166.667 0 -298.5 -53.5 -395.5 -160.5s-145.5 -251.833 -145.5 -434.5
c0 -192.667 50.667 -342.5 152 -449.5s239.333 -160.5 414 -160.5c64 0 127.833 6.33301 191.5 19s119.5 29 167.5 49v365h-399v174h595v-639zM962.999 1677h-212v195h212v-195z" />
    <glyph glyph-name="gdot" unicode="&#x121;" horiz-adv-x="1276" 
d="M1091 127c0 -189.333 -43.0049 -328.331 -129.005 -416.998s-218.333 -133 -397 -133c-59.333 0 -117.166 4.16699 -173.499 12.5s-111.833 20.166 -166.5 35.499v192h10c30.667 -12 79.334 -26.833 146.001 -44.5s133.334 -26.5 200.001 -26.5c64 0 117 7.66699 159 23
s74.667 36.666 98 63.999c23.333 26 40 57.333 50 94s15 77.667 15 123v102c-56.667 -45.333 -110.834 -79.166 -162.501 -101.499s-117.5 -33.5 -197.5 -33.5c-133.333 0 -239.166 48.167 -317.499 144.5s-117.5 232.166 -117.5 407.499c0 96 13.5 178.833 40.5 248.5
s63.833 129.834 110.5 180.501c43.333 47.333 96 84.166 158 110.499s123.667 39.5 185 39.5c64.667 0 118.834 -6.5 162.501 -19.5s89.834 -32.833 138.501 -59.5l12 48h176v-990zM902.995 307.002l-0.000976562 608.999c-50 22.667 -96.5 38.834 -139.5 48.501
s-85.833 14.5 -128.5 14.5c-103.333 0 -184.666 -34.667 -243.999 -104s-89 -170 -89 -302c0 -125.333 22 -220.333 66 -285s117 -97 219 -97c54.667 0 109.5 10.5 164.5 31.5s105.5 49.167 151.5 84.5zM745.994 1304h-212v195h212v-195z" />
    <glyph glyph-name="Gcedilla" unicode="&#x122;" horiz-adv-x="1588" 
d="M898 -107c0 14 -0.496094 28.165 -1.49609 42.498s-2.16699 26.5 -3.5 36.5c-115.333 0 -221 15.833 -317 47.5s-178 79.5 -246 143.5c-68.667 64.667 -121.667 145.5 -159 242.5s-56 210.5 -56 340.5c0 238 69.5 425.833 208.5 563.5s329.833 206.5 572.5 206.5
c84.667 0 171.167 -10.167 259.5 -30.5s183.5 -54.833 285.5 -103.5v-235h-18c-20.667 16 -50.667 37 -90 63s-78 47.667 -116 65c-46 20.667 -98.167 37.834 -156.5 51.501s-124.5 20.5 -198.5 20.5c-166.667 0 -298.5 -53.5 -395.5 -160.5s-145.5 -251.833 -145.5 -434.5
c0 -192.667 50.667 -342.5 152 -449.5s239.333 -160.5 414 -160.5c64 0 127.833 6.33301 191.5 19s119.5 29 167.5 49v365h-399v174h595v-639c-60 -27.333 -125.333 -52.666 -196 -75.999s-137.334 -40 -200.001 -50c0.666992 -9.33301 1.5 -20.166 2.5 -32.499
s1.5 -25.833 1.5 -40.5c0 -108 -30.5 -190.667 -91.5 -248s-140.167 -86 -237.5 -86c-24.667 0 -56.334 2.33301 -95.001 7s-73 11 -103 19v160h9c17.333 -6.66699 40.666 -14.334 69.999 -23.001s60.666 -13 93.999 -13c69.333 0 120.333 13 153 39s49 68.333 49 127z" />
    <glyph glyph-name="gcedilla" unicode="&#x123;" horiz-adv-x="1276" 
d="M1091 127c0 -189.333 -43.0049 -328.331 -129.005 -416.998s-218.333 -133 -397 -133c-59.333 0 -117.166 4.16699 -173.499 12.5s-111.833 20.166 -166.5 35.499v192h10c30.667 -12 79.334 -26.833 146.001 -44.5s133.334 -26.5 200.001 -26.5c64 0 117 7.66699 159 23
s74.667 36.666 98 63.999c23.333 26 40 57.333 50 94s15 77.667 15 123v102c-56.667 -45.333 -110.834 -79.166 -162.501 -101.499s-117.5 -33.5 -197.5 -33.5c-133.333 0 -239.166 48.167 -317.499 144.5s-117.5 232.166 -117.5 407.499c0 96 13.5 178.833 40.5 248.5
s63.833 129.834 110.5 180.501c43.333 47.333 96 84.166 158 110.499s123.667 39.5 185 39.5c64.667 0 118.834 -6.5 162.501 -19.5s89.834 -32.833 138.501 -59.5l12 48h176v-990zM902.995 307.002l-0.000976562 608.999c-50 22.667 -96.5 38.834 -139.5 48.501
s-85.833 14.5 -128.5 14.5c-103.333 0 -184.666 -34.667 -243.999 -104s-89 -170 -89 -302c0 -125.333 22 -220.333 66 -285s117 -97 219 -97c54.667 0 109.5 10.5 164.5 31.5s105.5 49.167 151.5 84.5zM885.994 1676l-179 -374h-243l273 374h149z" />
    <glyph glyph-name="Hcircumflex" unicode="&#x124;" horiz-adv-x="1539" 
d="M1339 0h-198v729h-743v-729h-198v1489h198v-584h743v584h198v-1489zM1111 1670h-159l-185 256l-184 -256h-155l228 379h227z" />
    <glyph glyph-name="hcircumflex" unicode="&#x125;" horiz-adv-x="1296" 
d="M1119 0h-188.001v636c0 51.333 -3 99.5 -9 144.5s-17 80.167 -33 105.5c-16.667 28 -40.667 48.833 -72 62.5s-72 20.5 -122 20.5c-51.333 0 -105 -12.667 -161 -38s-109.667 -57.666 -161 -96.999v-834h-188v1556h188v-563c58.667 48.667 119.334 86.667 182.001 114
s127 41 193 41c120.667 0 212.667 -36.333 276 -109s95 -177.334 95 -314.001v-725zM1027 1670h-159l-185 256l-184 -256h-155l228 379h227z" />
    <glyph glyph-name="Hbar" unicode="&#x126;" horiz-adv-x="1539" 
d="M1507 1109h-168v-1109h-198v729h-743v-729h-198v1109h-168v140h168v240h198v-240h743v240h198v-240h168v-140zM1141 905v204h-743v-204h743z" />
    <glyph glyph-name="hbar" unicode="&#x127;" horiz-adv-x="1296" 
d="M1119 0h-188.001v636c0 51.333 -3 99.5 -9 144.5s-17 80.167 -33 105.5c-16.667 28 -40.667 48.833 -72 62.5s-72 20.5 -122 20.5c-51.333 0 -105 -12.667 -161 -38s-109.667 -57.666 -161 -96.999v-834h-188v1268h-166v134h166v154h188v-154h321v-134h-321v-275
c58.667 48.667 119.334 86.667 182.001 114s127 41 193 41c120.667 0 212.667 -36.333 276 -109s95 -177.334 95 -314.001v-725z" />
    <glyph glyph-name="Itilde" unicode="&#x128;" horiz-adv-x="862" 
d="M725 0h-588v152h195v1185h-195v152h588v-152h-195v-1185h195v-152zM819 1992c-4.66699 -101.333 -27.8311 -177.165 -69.498 -227.498s-96.5 -75.5 -164.5 -75.5c-34.667 0 -65.834 6 -93.501 18s-54.167 30.667 -79.5 56c-30 28.667 -55 50 -75 64s-40.667 21 -62 21
c-32 0 -55.5 -15.167 -70.5 -45.5s-23.167 -70.5 -24.5 -120.5h-136c2 90.667 24 163.667 66 219s97.667 83 167 83c34 0 64.5 -6 91.5 -18s53.833 -30.333 80.5 -55c28 -26.667 53.167 -46.834 75.5 -60.501s43.166 -20.5 62.499 -20.5c30.667 0 54.167 15.167 70.5 45.5
s24.833 69.166 25.5 116.499h136z" />
    <glyph glyph-name="itilde" unicode="&#x129;" horiz-adv-x="562" 
d="M375 0h-188v1117h188v-1117zM577 1596c0 -86 -17.1689 -150.667 -51.502 -194s-78.166 -65 -131.499 -65c-26.667 0 -49.667 4.33301 -69 13s-39 23.667 -59 45c-21.333 23.333 -39.5 40.666 -54.5 51.999s-30.167 17 -45.5 17c-23.333 0 -40.5 -11.5 -51.5 -34.5
s-16.5 -56.167 -16.5 -99.5h-112c0 86 17.333 150.667 52 194s78 65 130 65c31.333 0 55.333 -4.5 72 -13.5s35.667 -23.833 57 -44.5c22 -23.333 40.333 -40.666 55 -51.999s29.334 -17 44.001 -17c24 0 41.5 12 52.5 36s16.5 56.667 16.5 98h112z" />
    <glyph glyph-name="Imacron" unicode="&#x12a;" horiz-adv-x="862" 
d="M725 0h-588v152h195v1185h-195v152h588v-152h-195v-1185h195v-152zM767 1698h-672v154h672v-154z" />
    <glyph glyph-name="imacron" unicode="&#x12b;" horiz-adv-x="562" 
d="M566 1335h-570v154h570v-154zM375 0h-188v1117h188v-1117z" />
    <glyph glyph-name="Ibreve" unicode="&#x12c;" horiz-adv-x="862" 
d="M725 0h-588v152h195v1185h-195v152h588v-152h-195v-1185h195v-152zM735 2003c0 -112 -24.5 -202.5 -73.5 -271.5s-125.5 -103.5 -229.5 -103.5c-102 0 -178.167 34.5 -228.5 103.5s-75.5 159.5 -75.5 271.5h158c0 -89.333 11.5 -153 34.5 -191s60.167 -57 111.5 -57
c48.667 0 85 18.333 109 55s36 101 36 193h158z" />
    <glyph glyph-name="ibreve" unicode="&#x12d;" horiz-adv-x="562" 
d="M560 1640c0 -102.667 -23.168 -186 -69.501 -250s-116.166 -96 -209.499 -96c-92 0 -161.667 31.667 -209 95s-71 147 -71 251h146c0 -81.333 10.833 -139.833 32.5 -175.5s55.5 -53.5 101.5 -53.5c43.333 0 76.333 16.333 99 49s34 92.667 34 180h146zM374.999 0h-188
v1117h188v-1117z" />
    <glyph glyph-name="Iogonek" unicode="&#x12e;" horiz-adv-x="862" 
d="M372 0l-235.001 0.00195312v152h195v1185h-195v152h588v-152h-195v-1185h195v-152h-194l-10.5 -48.5c-3 -13.667 -4.5 -33.167 -4.5 -58.5c0 -54 11 -94.333 33 -121s62.333 -40 121 -40c22 0 43.833 3.16699 65.5 9.5s38.834 13.166 51.501 20.499h9v-158
c-24 -6.66699 -49.5 -11.834 -76.5 -15.501s-51.833 -5.5 -74.5 -5.5c-90 0 -160.667 26.667 -212 80s-77 126.666 -77 219.999c0 22.667 1.5 42.834 4.5 60.501s6.83301 36.5 11.5 56.5z" />
    <glyph glyph-name="iogonek" unicode="&#x12f;" horiz-adv-x="562" 
d="M387 1304h-212v195h212v-195zM582 -396c-24 -6.66699 -49.501 -11.833 -76.501 -15.5s-51.833 -5.5 -74.5 -5.5c-88.667 0 -159 26.333 -211 79s-78 126.334 -78 221.001c0 42 6.16699 81.5 18.5 118.5l26.5 80.5v1035h188v-1117h-60c-4 -17.333 -7.16699 -35 -9.5 -53
s-3.5 -36 -3.5 -54c0 -54 11 -94.333 33 -121s62.333 -40 121 -40c22 0 43.833 3.16699 65.5 9.5s38.834 13.166 51.501 20.499h9v-158z" />
    <glyph glyph-name="Idot" unicode="&#x130;" horiz-adv-x="862" 
d="M725 0h-588v152h195v1185h-195v152h588v-152h-195v-1185h195v-152zM537 1677h-212v195h212v-195z" />
    <glyph glyph-name="dotlessi" unicode="&#x131;" horiz-adv-x="562" 
d="M375 0h-188v1117h188v-1117z" />
    <glyph glyph-name="IJ" unicode="&#x132;" horiz-adv-x="1783" 
d="M725 0h-588v152h195v1185h-195v152h588v-152h-195v-1185h195v-152zM1598 387c0 -130.667 -39.8311 -231.335 -119.498 -302.002s-186.5 -106 -320.5 -106c-32 0 -74.667 2.83301 -128 8.5s-98 12.5 -134 20.5v185h11c27.333 -9.33301 61 -19 101 -29s81 -15 123 -15
c61.333 0 110.166 7 146.499 21s63.166 34 80.499 60c18 26.667 29.5 59.334 34.5 98.001s7.5 83.334 7.5 134.001v869h-315v158h513v-1102z" />
    <glyph glyph-name="ij" unicode="&#x133;" horiz-adv-x="1257" 
d="M387 1304h-212v195h212v-195zM375 0h-188v1117h188v-1117zM1085 1304h-212v195h212v-195zM1073 -27c0 -130.667 -33.333 -229.335 -100 -296.002s-156 -100 -268 -100c-26.667 0 -61.834 2.66699 -105.501 8s-80.167 12 -109.5 20v179h10
c18.667 -7.33301 43.834 -15.666 75.501 -24.999s62.5 -14 92.5 -14c48 0 86.667 6.66699 116 20s51.333 33.333 66 60s24.167 58.834 28.5 96.501s6.5 83.5 6.5 137.5v900h-233v158h421v-1144z" />
    <glyph glyph-name="Jcircumflex" unicode="&#x134;" horiz-adv-x="931" 
d="M746 387c0 -130.667 -39.8311 -231.335 -119.498 -302.002s-186.5 -106 -320.5 -106c-32 0 -74.667 2.83301 -128 8.5s-98 12.5 -134 20.5v185h11c27.333 -9.33301 61 -19 101 -29s81 -15 123 -15c61.333 0 110.166 7 146.499 21s63.166 34 80.499 60
c18 26.667 29.5 59.334 34.5 98.001s7.5 83.334 7.5 134.001v869h-315v158h513v-1102zM845.002 1670h-159l-185 256l-184 -256h-155l228 379h227z" />
    <glyph glyph-name="jcircumflex" unicode="&#x135;" horiz-adv-x="705" 
d="M521 -27c0 -130.667 -33.333 -229.335 -100 -296.002s-156 -100 -268 -100c-26.667 0 -61.834 2.66699 -105.501 8s-80.167 12 -109.5 20v179h10c18.667 -7.33301 43.834 -15.666 75.501 -24.999s62.5 -14 92.5 -14c48 0 86.667 6.66699 116 20s51.333 33.333 66 60
s24.167 58.834 28.5 96.501s6.5 83.5 6.5 137.5v900h-233v158h421v-1144zM687 1297h-159l-185 256l-184 -256h-155l228 379h227z" />
    <glyph glyph-name="Kcedilla" unicode="&#x136;" horiz-adv-x="1419" 
d="M1397 0h-257l-589 663l-148 -158v-505h-198v1489h198v-777l723 777h240l-665 -700zM875 -89c0 -108 -30.4971 -190.666 -91.4971 -247.999s-140.167 -86 -237.5 -86c-24.667 0 -56.334 2.33301 -95.001 7s-73 11 -103 19v160h9
c17.333 -6.66699 40.666 -14.334 69.999 -23.001s60.666 -13 93.999 -13c69.333 0 120.333 13 153 39s49 68.333 49 127c0 19.333 -1 41.166 -3 65.499s-4 44.833 -6 61.5h153c1.33301 -12.667 3 -27.667 5 -45s3 -38.666 3 -63.999z" />
    <glyph glyph-name="kcedilla" unicode="&#x137;" horiz-adv-x="1212" 
d="M1199 0h-248l-448 489l-122 -116v-373h-188v1556h188v-998l543 559h237l-519 -516zM748 -89c0 -108 -30.4971 -190.666 -91.4971 -247.999s-140.167 -86 -237.5 -86c-24.667 0 -56.334 2.33301 -95.001 7s-73 11 -103 19v160h9
c17.333 -6.66699 40.666 -14.334 69.999 -23.001s60.666 -13 93.999 -13c69.333 0 120.333 13 153 39s49 68.333 49 127c0 19.333 -1 41.166 -3 65.499s-4 44.833 -6 61.5h153c1.33301 -12.667 3 -27.667 5 -45s3 -38.666 3 -63.999z" />
    <glyph glyph-name="kgreenlandic" unicode="&#x138;" horiz-adv-x="1212" 
d="M1199 0h-248l-448 489l-122 -116v-373h-188v1117h188v-559l543 559h237l-519 -516z" />
    <glyph glyph-name="Lacute" unicode="&#x139;" horiz-adv-x="1140" 
d="M1142 0h-942v1489h198v-1313h744v-176zM643 2049l-273 -374h-149l179 374h243z" />
    <glyph glyph-name="lacute" unicode="&#x13a;" horiz-adv-x="562" 
d="M375 0h-188v1556h188v-1556zM593 2049l-273 -374h-149l179 374h243z" />
    <glyph glyph-name="Lcedilla" unicode="&#x13b;" horiz-adv-x="1140" 
d="M703 0l-502.996 0.000976562v1489h198v-1313h744v-176h-285c1.33301 -12 2.66602 -25.833 3.99902 -41.5s2 -31.5 2 -47.5c0 -108 -30.5 -190.667 -91.5 -248s-140.167 -86 -237.5 -86c-24.667 0 -56.334 2.33301 -95.001 7s-73 11 -103 19v160h9
c17.333 -6.66699 40.666 -14.334 69.999 -23.001s60.666 -13 93.999 -13c69.333 0 120.333 13 153 39s49 68.333 49 127c0 20 -1 40.333 -3 61s-3.66699 36 -5 46z" />
    <glyph glyph-name="lcedilla" unicode="&#x13c;" horiz-adv-x="562" 
d="M329 0h-142.002v1556h188v-1536h108c0.666992 -12 1.83398 -27.167 3.50098 -45.5s2.5 -39.5 2.5 -63.5c0 -108 -29 -190.667 -87 -248s-131.333 -86 -220 -86c-24.667 0 -53.667 2 -87 6s-63.333 10 -90 18v160h9c16 -7.33301 37 -14.833 63 -22.5
s52.333 -11.5 79 -11.5c62.667 0 107.667 13.167 135 39.5s41 68.5 41 126.5c0 14 -0.166992 29.5 -0.5 46.5s-1.16602 37.167 -2.49902 60.5z" />
    <glyph glyph-name="Lcaron" unicode="&#x13d;" horiz-adv-x="1140" 
d="M1142 0h-942v1489h198v-1313h744v-176zM947 1556l-250 -505h-127l152 505h225z" />
    <glyph glyph-name="lcaron" unicode="&#x13e;" horiz-adv-x="606" 
d="M852 1556l-250 -505h-127l152 505h225zM375 0h-188v1556h188v-1556z" />
    <glyph glyph-name="Ldot" unicode="&#x13f;" horiz-adv-x="1140" 
d="M1142 0h-942v1489h198v-1313h744v-176zM986 519h-233v267h233v-267z" />
    <glyph glyph-name="ldot" unicode="&#x140;" horiz-adv-x="939" 
d="M375 0h-188v1556h188v-1556zM866 520h-231v265h231v-265z" />
    <glyph glyph-name="Lslash" unicode="&#x141;" horiz-adv-x="1150" 
d="M1152 0h-942v535l-186 -152v163l186 149v794h198v-648l349 283v-163l-349 -280v-505h744v-176z" />
    <glyph glyph-name="lslash" unicode="&#x142;" horiz-adv-x="582" 
d="M566 890l-181 -145v-745h-188v608l-173 -141v159l173 138v792h188v-655l181 148v-159z" />
    <glyph glyph-name="Nacute" unicode="&#x143;" horiz-adv-x="1532" 
d="M1336 0h-245l-706 1332v-1332h-185v1489h307l644 -1216v1216h185v-1489zM1083 2049l-273 -374h-149l179 374h243z" />
    <glyph glyph-name="nacute" unicode="&#x144;" horiz-adv-x="1296" 
d="M1119 0h-188.001v636c0 51.333 -3 99.5 -9 144.5s-17 80.167 -33 105.5c-16.667 28 -40.667 48.833 -72 62.5s-72 20.5 -122 20.5c-51.333 0 -105 -12.667 -161 -38s-109.667 -57.666 -161 -96.999v-834h-188v1117h188v-124c58.667 48.667 119.334 86.667 182.001 114
s127 41 193 41c120.667 0 212.667 -36.333 276 -109s95 -177.334 95 -314.001v-725zM962.999 1676l-273 -374h-149l179 374h243z" />
    <glyph glyph-name="Ncedilla" unicode="&#x145;" horiz-adv-x="1532" 
d="M1336 0h-245l-706 1332v-1332h-185v1489h307l644 -1216v1216h185v-1489zM878 -89c0 -108 -30.4971 -190.666 -91.4971 -247.999s-140.167 -86 -237.5 -86c-24.667 0 -56.334 2.33301 -95.001 7s-73 11 -103 19v160h9c17.333 -6.66699 40.666 -14.334 69.999 -23.001
s60.666 -13 93.999 -13c69.333 0 120.333 13 153 39s49 68.333 49 127c0 19.333 -1 41.166 -3 65.499s-4 44.833 -6 61.5h153c1.33301 -12.667 3 -27.667 5 -45s3 -38.666 3 -63.999z" />
    <glyph glyph-name="ncedilla" unicode="&#x146;" horiz-adv-x="1296" 
d="M1119 0h-188.001v636c0 51.333 -3 99.5 -9 144.5s-17 80.167 -33 105.5c-16.667 28 -40.667 48.833 -72 62.5s-72 20.5 -122 20.5c-51.333 0 -105 -12.667 -161 -38s-109.667 -57.666 -161 -96.999v-834h-188v1117h188v-124c58.667 48.667 119.334 86.667 182.001 114
s127 41 193 41c120.667 0 212.667 -36.333 276 -109s95 -177.334 95 -314.001v-725zM762.999 -89c0 -108 -30.4971 -190.666 -91.4971 -247.999s-140.167 -86 -237.5 -86c-24.667 0 -56.334 2.33301 -95.001 7s-73 11 -103 19v160h9
c17.333 -6.66699 40.666 -14.334 69.999 -23.001s60.666 -13 93.999 -13c69.333 0 120.333 13 153 39s49 68.333 49 127c0 19.333 -1 41.166 -3 65.499s-4 44.833 -6 61.5h153c1.33301 -12.667 3 -27.667 5 -45s3 -38.666 3 -63.999z" />
    <glyph glyph-name="Ncaron" unicode="&#x147;" horiz-adv-x="1532" 
d="M1336 0h-245l-706 1332v-1332h-185v1489h307l644 -1216v1216h185v-1489zM1151 2049l-228 -379h-227l-228 379h159l185 -256l184 256h155z" />
    <glyph glyph-name="ncaron" unicode="&#x148;" horiz-adv-x="1296" 
d="M1119 0h-188.001v636c0 51.333 -3 99.5 -9 144.5s-17 80.167 -33 105.5c-16.667 28 -40.667 48.833 -72 62.5s-72 20.5 -122 20.5c-51.333 0 -105 -12.667 -161 -38s-109.667 -57.666 -161 -96.999v-834h-188v1117h188v-124c58.667 48.667 119.334 86.667 182.001 114
s127 41 193 41c120.667 0 212.667 -36.333 276 -109s95 -177.334 95 -314.001v-725zM1017 1676l-228 -379h-227l-228 379h159l185 -256l184 256h155z" />
    <glyph glyph-name="napostrophe" unicode="&#x149;" horiz-adv-x="1496" 
d="M1319 0h-188.001v636c0 51.333 -3 99.5 -9 144.5s-17 80.167 -33 105.5c-16.667 28 -40.667 48.833 -72 62.5s-72 20.5 -122 20.5c-51.333 0 -105 -12.667 -161 -38s-109.667 -57.666 -161 -96.999v-834h-188v1117h188v-124c58.667 48.667 119.334 86.667 182.001 114
s127 41 193 41c120.667 0 212.667 -36.333 276 -109s95 -177.334 95 -314.001v-725zM408.999 1556l-271 -559h-138l165 559h244z" />
    <glyph glyph-name="Eng" unicode="&#x14a;" horiz-adv-x="1532" 
d="M1152 -10l-767 1342v-1332h-185v1489h307l644 -1120v1120h185v-1512c0 -127.333 -34.333 -225.833 -103 -295.5s-163 -104.5 -283 -104.5c-26 0 -52.5 1.33301 -79.5 4s-52.833 6 -77.5 10v168h11c14.667 -3.33301 31.667 -6.66602 51 -9.99902s39 -5 59 -5
c84.667 0 145.5 18 182.5 54s55.5 100 55.5 192z" />
    <glyph glyph-name="eng" unicode="&#x14b;" horiz-adv-x="1296" 
d="M931 49l-0.000976562 587.001c0 51.333 -3 99.5 -9 144.5s-17 80.167 -33 105.5c-16.667 28 -40.667 48.833 -72 62.5s-72 20.5 -122 20.5c-51.333 0 -105 -12.667 -161 -38s-109.667 -57.666 -161 -96.999v-834h-188v1117h188v-124
c58.667 48.667 119.334 86.667 182.001 114s127 41 193 41c120.667 0 212.667 -36.333 276 -109s95 -177.334 95 -314.001v-753c0 -127.333 -34 -225 -102 -293s-162 -102 -282 -102c-26 0 -52 1.16699 -78 3.5s-51.667 5.5 -77 9.5v168h11
c14.667 -3.33301 32 -6.66602 52 -9.99902s38.667 -5 56 -5c50.667 0 92.167 6.33301 124.5 19s56.166 31.667 71.499 57c14.667 25.333 24.334 55.666 29.001 90.999s7 81.666 7 138.999z" />
    <glyph glyph-name="Omacron" unicode="&#x14c;" horiz-adv-x="1612" 
d="M1310 1318c60.667 -66.667 107.168 -148.331 139.501 -244.998s48.5 -206.334 48.5 -329.001s-16.5 -232.5 -49.5 -329.5s-79.167 -177.833 -138.5 -242.5c-61.333 -67.333 -133.833 -118 -217.5 -152s-179.167 -51 -286.5 -51c-104.667 0 -199.834 17.333 -285.501 52
s-158.5 85 -218.5 151s-106.167 147 -138.5 243s-48.5 205.667 -48.5 329c0 121.333 16 230.166 48 326.499s78.667 178.833 140 247.5c58.667 65.333 131.5 115.333 218.5 150s181.833 52 284.5 52c106.667 0 202.5 -17.5 287.5 -52.5s157.167 -84.833 216.5 -149.5z
M1292 744.003c0 193.333 -43.334 342.5 -130.001 447.5s-205 157.5 -355 157.5c-151.333 0 -270.166 -52.5 -356.499 -157.5s-129.5 -254.167 -129.5 -447.5c0 -195.333 44 -344.833 132 -448.5s206 -155.5 354 -155.5s265.833 51.833 353.5 155.5
s131.5 253.167 131.5 448.5zM1177 1708h-742v154h742v-154z" />
    <glyph glyph-name="omacron" unicode="&#x14d;" horiz-adv-x="1243" 
d="M1137 558c0 -182 -46.667 -325.667 -140 -431s-218.333 -158 -375 -158c-158 0 -283.5 52.667 -376.5 158s-139.5 249 -139.5 431s46.5 325.833 139.5 431.5s218.5 158.5 376.5 158.5c156.667 0 281.667 -52.833 375 -158.5s140 -249.5 140 -431.5zM943 558
c0 144.667 -28.332 252.167 -84.999 322.5s-135.334 105.5 -236.001 105.5c-102 0 -181.167 -35.167 -237.5 -105.5s-84.5 -177.833 -84.5 -322.5c0 -140 28.333 -246.167 85 -318.5s135.667 -108.5 237 -108.5c100 0 178.5 35.833 235.5 107.5s85.5 178.167 85.5 319.5z
M993.001 1335h-742v154h742v-154z" />
    <glyph glyph-name="Obreve" unicode="&#x14e;" horiz-adv-x="1612" 
d="M1310 1318c60.667 -66.667 107.168 -148.331 139.501 -244.998s48.5 -206.334 48.5 -329.001s-16.5 -232.5 -49.5 -329.5s-79.167 -177.833 -138.5 -242.5c-61.333 -67.333 -133.833 -118 -217.5 -152s-179.167 -51 -286.5 -51c-104.667 0 -199.834 17.333 -285.501 52
s-158.5 85 -218.5 151s-106.167 147 -138.5 243s-48.5 205.667 -48.5 329c0 121.333 16 230.166 48 326.499s78.667 178.833 140 247.5c58.667 65.333 131.5 115.333 218.5 150s181.833 52 284.5 52c106.667 0 202.5 -17.5 287.5 -52.5s157.167 -84.833 216.5 -149.5z
M1292 744.003c0 193.333 -43.334 342.5 -130.001 447.5s-205 157.5 -355 157.5c-151.333 0 -270.166 -52.5 -356.499 -157.5s-129.5 -254.167 -129.5 -447.5c0 -195.333 44 -344.833 132 -448.5s206 -155.5 354 -155.5s265.833 51.833 353.5 155.5
s131.5 253.167 131.5 448.5zM1182 2049c-6.66699 -112 -42.832 -203.667 -108.499 -275s-154.834 -107 -267.501 -107s-201.834 35.667 -267.501 107s-101.5 163 -107.5 275h166c8 -88 29.833 -152 65.5 -192s83.834 -60 144.501 -60c59.333 0 106.833 20 142.5 60
s58.167 104 67.5 192h165z" />
    <glyph glyph-name="obreve" unicode="&#x14f;" horiz-adv-x="1243" 
d="M1137 558c0 -182 -46.667 -325.667 -140 -431s-218.333 -158 -375 -158c-158 0 -283.5 52.667 -376.5 158s-139.5 249 -139.5 431s46.5 325.833 139.5 431.5s218.5 158.5 376.5 158.5c156.667 0 281.667 -52.833 375 -158.5s140 -249.5 140 -431.5zM943 558
c0 144.667 -28.332 252.167 -84.999 322.5s-135.334 105.5 -236.001 105.5c-102 0 -181.167 -35.167 -237.5 -105.5s-84.5 -177.833 -84.5 -322.5c0 -140 28.333 -246.167 85 -318.5s135.667 -108.5 237 -108.5c100 0 178.5 35.833 235.5 107.5s85.5 178.167 85.5 319.5z
M998.001 1676c-6.66699 -112 -42.832 -203.667 -108.499 -275s-154.834 -107 -267.501 -107s-201.834 35.667 -267.501 107s-101.5 163 -107.5 275h166c8 -88 29.833 -152 65.5 -192s83.834 -60 144.501 -60c59.333 0 106.833 20 142.5 60s58.167 104 67.5 192h165z" />
    <glyph glyph-name="Odblacute" unicode="&#x150;" horiz-adv-x="1612" 
d="M1310 1318c60.667 -66.667 107.168 -148.331 139.501 -244.998s48.5 -206.334 48.5 -329.001s-16.5 -232.5 -49.5 -329.5s-79.167 -177.833 -138.5 -242.5c-61.333 -67.333 -133.833 -118 -217.5 -152s-179.167 -51 -286.5 -51c-104.667 0 -199.834 17.333 -285.501 52
s-158.5 85 -218.5 151s-106.167 147 -138.5 243s-48.5 205.667 -48.5 329c0 121.333 16 230.166 48 326.499s78.667 178.833 140 247.5c58.667 65.333 131.5 115.333 218.5 150s181.833 52 284.5 52c106.667 0 202.5 -17.5 287.5 -52.5s157.167 -84.833 216.5 -149.5z
M1292 744.003c0 193.333 -43.334 342.5 -130.001 447.5s-205 157.5 -355 157.5c-151.333 0 -270.166 -52.5 -356.499 -157.5s-129.5 -254.167 -129.5 -447.5c0 -195.333 44 -344.833 132 -448.5s206 -155.5 354 -155.5s265.833 51.833 353.5 155.5
s131.5 253.167 131.5 448.5zM1283 2049l-258 -374h-139l169 374h228zM879 2049l-258 -374h-139l169 374h228z" />
    <glyph glyph-name="odblacute" unicode="&#x151;" horiz-adv-x="1243" 
d="M1137 558c0 -182 -46.667 -325.667 -140 -431s-218.333 -158 -375 -158c-158 0 -283.5 52.667 -376.5 158s-139.5 249 -139.5 431s46.5 325.833 139.5 431.5s218.5 158.5 376.5 158.5c156.667 0 281.667 -52.833 375 -158.5s140 -249.5 140 -431.5zM943 558
c0 144.667 -28.332 252.167 -84.999 322.5s-135.334 105.5 -236.001 105.5c-102 0 -181.167 -35.167 -237.5 -105.5s-84.5 -177.833 -84.5 -322.5c0 -140 28.333 -246.167 85 -318.5s135.667 -108.5 237 -108.5c100 0 178.5 35.833 235.5 107.5s85.5 178.167 85.5 319.5z
M1103 1676l-258 -374h-139l169 374h228zM699.001 1676l-258 -374h-139l169 374h228z" />
    <glyph glyph-name="OE" unicode="&#x152;" horiz-adv-x="2191" 
d="M2076 0h-1074c-130.667 0 -239.167 9 -325.5 27s-163.833 48.667 -232.5 92c-96.667 60.667 -174.834 145.334 -234.501 254.001s-89.5 232 -89.5 370c0 143.333 29 267.666 87 372.999s137.667 190 239 254c52.667 34 120.5 62.333 203.5 85s201.833 34 356.5 34h1070
v-176h-763v-408h763v-176h-763v-553h763v-176zM1116 172l-0.00195312 1145h-122c-97.333 0 -176.166 -5.33301 -236.499 -16s-122.166 -34 -185.499 -70c-77.333 -44 -137.5 -107.333 -180.5 -190s-64.5 -181 -64.5 -295s18.833 -210.667 56.5 -290
s92.834 -141.666 165.501 -186.999c60.667 -38 125.667 -63.667 195 -77s152.666 -20 249.999 -20h122z" />
    <glyph glyph-name="oe" unicode="&#x153;" horiz-adv-x="2010" 
d="M1910 539l-804.001 0.00195312c0 -69.333 10 -129.333 30 -180s47.333 -92.334 82 -125.001s75.5 -56.834 122.5 -72.501s97.833 -23.5 152.5 -23.5c72.667 0 143.167 13.167 211.5 39.5s125.833 58.166 172.5 95.499h12v-205c-65.333 -28 -129.833 -50.667 -193.5 -68
s-130.5 -26 -200.5 -26c-112 0 -206.667 20.333 -284 61s-140.666 95.667 -189.999 165c-46 -74 -103.833 -131 -173.5 -171s-148.167 -60 -235.5 -60c-155.333 0 -278.5 52.667 -369.5 158s-136.5 249 -136.5 431c0 184.667 46.5 329.167 139.5 433.5
s215.167 156.5 366.5 156.5c93.333 0 173.333 -20.167 240 -60.5s122.667 -98.5 168 -174.5c47.333 70.667 106.833 127.5 178.5 170.5s155.167 64.5 250.5 64.5c150 0 264.333 -44.667 343 -134s118 -213.666 118 -372.999v-102zM1727 683.002
c-2 103.333 -27.167 180.833 -75.5 232.5s-119.5 77.5 -213.5 77.5c-92.667 0 -168.167 -27.333 -226.5 -82s-92.833 -130.667 -103.5 -228h619zM923.999 558.002c0 143.333 -27.333 250.5 -82 321.5s-131 106.5 -229 106.5c-102 0 -179.667 -37.333 -233 -112
s-80 -180 -80 -316c0 -141.333 27.833 -247.833 83.5 -319.5s132.167 -107.5 229.5 -107.5s173.5 35.5 228.5 106.5s82.5 177.833 82.5 320.5z" />
    <glyph glyph-name="Racute" unicode="&#x154;" horiz-adv-x="1424" 
d="M1432 0l-257 -0.000976562l-498 592h-279v-592h-198v1489h417c90 0 165 -5.83301 225 -17.5s114 -32.5 162 -62.5c54 -34 96.167 -76.833 126.5 -128.5s45.5 -117.167 45.5 -196.5c0 -107.333 -27 -197.166 -81 -269.499s-128.333 -126.833 -223 -163.5zM969 1070
c0 42.667 -7.50293 80.5 -22.5029 113.5s-39.833 60.833 -74.5 83.5c-28.667 19.333 -62.667 32.833 -102 40.5s-85.666 11.5 -138.999 11.5h-233v-562h200c62.667 0 117.334 5.5 164.001 16.5s86.334 31.5 119.001 61.5c30 28 52.167 60.167 66.5 96.5
s21.5 82.5 21.5 138.5zM952.997 2049l-273 -374h-149l179 374h243z" />
    <glyph glyph-name="racute" unicode="&#x155;" horiz-adv-x="874" 
d="M882 912l-10.001 0.00195312c-28 6.66699 -55.167 11.5 -81.5 14.5s-57.5 4.5 -93.5 4.5c-58 0 -114 -12.833 -168 -38.5s-106 -58.834 -156 -99.501v-793h-188v1117h188v-165c74.667 60 140.5 102.5 197.5 127.5s115.167 37.5 174.5 37.5
c32.667 0 56.334 -0.833008 71.001 -2.5s36.667 -4.83398 66 -9.50098v-193zM762.999 1676l-273 -374h-149l179 374h243z" />
    <glyph glyph-name="Rcedilla" unicode="&#x156;" horiz-adv-x="1424" 
d="M1432 0l-257 -0.000976562l-498 592h-279v-592h-198v1489h417c90 0 165 -5.83301 225 -17.5s114 -32.5 162 -62.5c54 -34 96.167 -76.833 126.5 -128.5s45.5 -117.167 45.5 -196.5c0 -107.333 -27 -197.166 -81 -269.499s-128.333 -126.833 -223 -163.5zM969 1070
c0 42.667 -7.50293 80.5 -22.5029 113.5s-39.833 60.833 -74.5 83.5c-28.667 19.333 -62.667 32.833 -102 40.5s-85.666 11.5 -138.999 11.5h-233v-562h200c62.667 0 117.334 5.5 164.001 16.5s86.334 31.5 119.001 61.5c30 28 52.167 60.167 66.5 96.5
s21.5 82.5 21.5 138.5zM869.997 -89.001c0 -108 -30.4971 -190.666 -91.4971 -247.999s-140.167 -86 -237.5 -86c-24.667 0 -56.334 2.33301 -95.001 7s-73 11 -103 19v160h9c17.333 -6.66699 40.666 -14.334 69.999 -23.001s60.666 -13 93.999 -13
c69.333 0 120.333 13 153 39s49 68.333 49 127c0 19.333 -1 41.166 -3 65.499s-4 44.833 -6 61.5h153c1.33301 -12.667 3 -27.667 5 -45s3 -38.666 3 -63.999z" />
    <glyph glyph-name="rcedilla" unicode="&#x157;" horiz-adv-x="874" 
d="M99 -261.5c26 -7.66699 52.3301 -11.498 78.9971 -11.498c62.667 0 107.667 13.167 135 39.5s41 68.5 41 126.5c0 14 -0.166992 29.5 -0.5 46.5s-1.16602 37.167 -2.49902 60.5h-166v1117h188v-165c74.667 60 140.5 102.5 197.5 127.5s115.167 37.5 174.5 37.5
c32.667 0 56.334 -0.833008 71.001 -2.5s36.667 -4.83398 66 -9.50098v-193h-10c-28 6.66699 -55.167 11.5 -81.5 14.5s-57.5 4.5 -93.5 4.5c-58 0 -114 -12.833 -168 -38.5s-106 -58.834 -156 -99.501v-773h132c0.666992 -12 1.83398 -27.167 3.50098 -45.5
s2.5 -39.5 2.5 -63.5c0 -108 -29 -190.667 -87 -248s-131.333 -86 -220 -86c-24.667 0 -53.667 2 -87 6s-63.333 10 -90 18v160h9c16 -7.33301 37 -14.833 63 -22.5z" />
    <glyph glyph-name="Rcaron" unicode="&#x158;" horiz-adv-x="1424" 
d="M1432 0l-257 -0.000976562l-498 592h-279v-592h-198v1489h417c90 0 165 -5.83301 225 -17.5s114 -32.5 162 -62.5c54 -34 96.167 -76.833 126.5 -128.5s45.5 -117.167 45.5 -196.5c0 -107.333 -27 -197.166 -81 -269.499s-128.333 -126.833 -223 -163.5zM969 1070
c0 42.667 -7.50293 80.5 -22.5029 113.5s-39.833 60.833 -74.5 83.5c-28.667 19.333 -62.667 32.833 -102 40.5s-85.666 11.5 -138.999 11.5h-233v-562h200c62.667 0 117.334 5.5 164.001 16.5s86.334 31.5 119.001 61.5c30 28 52.167 60.167 66.5 96.5
s21.5 82.5 21.5 138.5zM998.997 2049l-228 -379h-227l-228 379h159l185 -256l184 256h155z" />
    <glyph glyph-name="rcaron" unicode="&#x159;" horiz-adv-x="874" 
d="M882 912l-10.001 0.00195312c-28 6.66699 -55.167 11.5 -81.5 14.5s-57.5 4.5 -93.5 4.5c-58 0 -114 -12.833 -168 -38.5s-106 -58.834 -156 -99.501v-793h-188v1117h188v-165c74.667 60 140.5 102.5 197.5 127.5s115.167 37.5 174.5 37.5
c32.667 0 56.334 -0.833008 71.001 -2.5s36.667 -4.83398 66 -9.50098v-193zM828.999 1676l-228 -379h-227l-228 379h159l185 -256l184 256h155z" />
    <glyph glyph-name="Sacute" unicode="&#x15a;" horiz-adv-x="1400" 
d="M1282 425c0 -58 -13.502 -115.336 -40.502 -172.003s-64.833 -104.667 -113.5 -144c-53.333 -42.667 -115.5 -76 -186.5 -100s-156.5 -36 -256.5 -36c-107.333 0 -203.833 10 -289.5 30s-172.834 49.667 -261.501 89v248h14c75.333 -62.667 162.333 -111 261 -145
s191.334 -51 278.001 -51c122.667 0 218.167 23 286.5 69s102.5 107.333 102.5 184c0 66 -16.167 114.667 -48.5 146s-81.5 55.666 -147.5 72.999c-50 13.333 -104.167 24.333 -162.5 33s-120.166 19.667 -185.499 33c-132 28 -229.833 75.833 -293.5 143.5
s-95.5 155.834 -95.5 264.501c0 124.667 52.667 226.834 158 306.501s239 119.5 401 119.5c104.667 0 200.667 -10 288 -30s164.666 -44.667 231.999 -74v-234h-14c-56.667 48 -131.167 87.833 -223.5 119.5s-186.833 47.5 -283.5 47.5c-106 0 -191.167 -22 -255.5 -66
s-96.5 -100.667 -96.5 -170c0 -62 16 -110.667 48 -146s88.333 -62.333 169 -81c42.667 -9.33301 103.334 -20.666 182.001 -33.999s145.334 -27 200.001 -41c110.667 -29.333 194 -73.666 250 -132.999s84 -142.333 84 -249zM982.998 2049l-273 -374h-149l179 374h243z" />
    <glyph glyph-name="sacute" unicode="&#x15b;" horiz-adv-x="1067" 
d="M983 322c0 -102 -42.167 -185.666 -126.5 -250.999s-199.5 -98 -345.5 -98c-82.667 0 -158.5 9.83301 -227.5 29.5s-126.833 41.167 -173.5 64.5v211h10c59.333 -44.667 125.333 -80.167 198 -106.5s142.334 -39.5 209.001 -39.5c82.667 0 147.334 13.333 194.001 40
s70 68.667 70 126c0 44 -12.667 77.333 -38 100s-74 42 -146 58c-26.667 6 -61.5 13 -104.5 21s-82.167 16.667 -117.5 26c-98 26 -167.5 64.167 -208.5 114.5s-61.5 112.166 -61.5 185.499c0 46 9.5 89.333 28.5 130s47.833 77 86.5 109
c37.333 31.333 84.833 56.166 142.5 74.499s122.167 27.5 193.5 27.5c66.667 0 134.167 -8.16699 202.5 -24.5s125.166 -36.166 170.499 -59.499v-201h-10c-48 35.333 -106.333 65.166 -175 89.499s-136 36.5 -202 36.5c-68.667 0 -126.667 -13.167 -174 -39.5
s-71 -65.5 -71 -117.5c0 -46 14.333 -80.667 43 -104c28 -23.333 73.333 -42.333 136 -57c34.667 -8 73.5 -16 116.5 -24s78.833 -15.333 107.5 -22c87.333 -20 154.666 -54.333 201.999 -103c47.333 -49.333 71 -114.666 71 -195.999zM855 1676l-273 -374h-149l179 374h243
z" />
    <glyph glyph-name="Scircumflex" unicode="&#x15c;" horiz-adv-x="1400" 
d="M1282 425c0 -58 -13.502 -115.336 -40.502 -172.003s-64.833 -104.667 -113.5 -144c-53.333 -42.667 -115.5 -76 -186.5 -100s-156.5 -36 -256.5 -36c-107.333 0 -203.833 10 -289.5 30s-172.834 49.667 -261.501 89v248h14c75.333 -62.667 162.333 -111 261 -145
s191.334 -51 278.001 -51c122.667 0 218.167 23 286.5 69s102.5 107.333 102.5 184c0 66 -16.167 114.667 -48.5 146s-81.5 55.666 -147.5 72.999c-50 13.333 -104.167 24.333 -162.5 33s-120.166 19.667 -185.499 33c-132 28 -229.833 75.833 -293.5 143.5
s-95.5 155.834 -95.5 264.501c0 124.667 52.667 226.834 158 306.501s239 119.5 401 119.5c104.667 0 200.667 -10 288 -30s164.666 -44.667 231.999 -74v-234h-14c-56.667 48 -131.167 87.833 -223.5 119.5s-186.833 47.5 -283.5 47.5c-106 0 -191.167 -22 -255.5 -66
s-96.5 -100.667 -96.5 -170c0 -62 16 -110.667 48 -146s88.333 -62.333 169 -81c42.667 -9.33301 103.334 -20.666 182.001 -33.999s145.334 -27 200.001 -41c110.667 -29.333 194 -73.666 250 -132.999s84 -142.333 84 -249zM1067 1670h-159l-185 256l-184 -256h-155
l228 379h227z" />
    <glyph glyph-name="scircumflex" unicode="&#x15d;" horiz-adv-x="1067" 
d="M983 322c0 -102 -42.167 -185.666 -126.5 -250.999s-199.5 -98 -345.5 -98c-82.667 0 -158.5 9.83301 -227.5 29.5s-126.833 41.167 -173.5 64.5v211h10c59.333 -44.667 125.333 -80.167 198 -106.5s142.334 -39.5 209.001 -39.5c82.667 0 147.334 13.333 194.001 40
s70 68.667 70 126c0 44 -12.667 77.333 -38 100s-74 42 -146 58c-26.667 6 -61.5 13 -104.5 21s-82.167 16.667 -117.5 26c-98 26 -167.5 64.167 -208.5 114.5s-61.5 112.166 -61.5 185.499c0 46 9.5 89.333 28.5 130s47.833 77 86.5 109
c37.333 31.333 84.833 56.166 142.5 74.499s122.167 27.5 193.5 27.5c66.667 0 134.167 -8.16699 202.5 -24.5s125.166 -36.166 170.499 -59.499v-201h-10c-48 35.333 -106.333 65.166 -175 89.499s-136 36.5 -202 36.5c-68.667 0 -126.667 -13.167 -174 -39.5
s-71 -65.5 -71 -117.5c0 -46 14.333 -80.667 43 -104c28 -23.333 73.333 -42.333 136 -57c34.667 -8 73.5 -16 116.5 -24s78.833 -15.333 107.5 -22c87.333 -20 154.666 -54.333 201.999 -103c47.333 -49.333 71 -114.666 71 -195.999zM912 1297h-159l-185 256l-184 -256
h-155l228 379h227z" />
    <glyph glyph-name="Scedilla" unicode="&#x15e;" horiz-adv-x="1400" 
d="M1282 425c0 -58 -13.498 -115.336 -40.498 -172.003s-64.833 -104.667 -113.5 -144c-29.333 -23.333 -61.333 -44.166 -96 -62.499s-72.667 -33.166 -114 -44.499c2 -14.667 3.5 -29.334 4.5 -44.001s1.5 -30.334 1.5 -47.001c0 -104.667 -29.833 -186.5 -89.5 -245.5
s-140.834 -88.5 -243.501 -88.5c-24.667 0 -56.334 2.33301 -95.001 7s-73 11 -103 19v162h9c17.333 -6.66699 39.666 -14.667 66.999 -24s59.666 -14 96.999 -14c69.333 0 120.333 13 153 39s49 68.333 49 127c0 16 -0.5 30.833 -1.5 44.5s-2.16699 26.5 -3.5 38.5
l-38.5 -2c-12.333 -0.666992 -25.5 -1 -39.5 -1c-107.333 0 -203.833 10 -289.5 30s-172.834 49.667 -261.501 89v248h14c75.333 -62.667 162.333 -111 261 -145s191.334 -51 278.001 -51c122.667 0 218.167 23 286.5 69s102.5 107.333 102.5 184
c0 66 -16.167 114.667 -48.5 146s-81.5 55.666 -147.5 72.999c-50 13.333 -104.167 24.333 -162.5 33s-120.166 19.667 -185.499 33c-132 28 -229.833 75.833 -293.5 143.5s-95.5 155.834 -95.5 264.501c0 124.667 52.667 226.834 158 306.501s239 119.5 401 119.5
c104.667 0 200.667 -10 288 -30s164.666 -44.667 231.999 -74v-234h-14c-56.667 48 -131.167 87.833 -223.5 119.5s-186.833 47.5 -283.5 47.5c-106 0 -191.167 -22 -255.5 -66s-96.5 -100.667 -96.5 -170c0 -62 16 -110.667 48 -146s88.333 -62.333 169 -81
c42.667 -9.33301 103.334 -20.666 182.001 -33.999s145.334 -27 200.001 -41c110.667 -29.333 194 -73.666 250 -132.999s84 -142.333 84 -249z" />
    <glyph glyph-name="scedilla" unicode="&#x15f;" horiz-adv-x="1067" 
d="M983 322c0 -71.333 -21.165 -134.165 -63.498 -188.498s-100.5 -95.5 -174.5 -123.5c1.33301 -12.667 2.83301 -28 4.5 -46s2.5 -35.667 2.5 -53c0 -108 -30.5 -190.667 -91.5 -248s-140.167 -86 -237.5 -86c-24.667 0 -56.334 2.33301 -95.001 7s-73 11 -103 19v160h9
c17.333 -6.66699 40.666 -14.334 69.999 -23.001s60.666 -13 93.999 -13c69.333 0 120.333 13 153 39s49 68.333 49 127c0 16 -0.5 31.5 -1.5 46.5s-2.16699 27.5 -3.5 37.5c-14 -1.33301 -27.667 -2.33301 -41 -3s-27.666 -1 -42.999 -1
c-82.667 0 -158.5 9.83301 -227.5 29.5s-126.833 41.167 -173.5 64.5v211h10c59.333 -44.667 125.333 -80.167 198 -106.5s142.334 -39.5 209.001 -39.5c82.667 0 147.334 13.333 194.001 40s70 68.667 70 126c0 44 -12.667 77.333 -38 100s-74 42 -146 58
c-26.667 6 -61.5 13 -104.5 21s-82.167 16.667 -117.5 26c-98 26 -167.5 64.167 -208.5 114.5s-61.5 112.166 -61.5 185.499c0 46 9.5 89.333 28.5 130s47.833 77 86.5 109c37.333 31.333 84.833 56.166 142.5 74.499s122.167 27.5 193.5 27.5
c66.667 0 134.167 -8.16699 202.5 -24.5s125.166 -36.166 170.499 -59.499v-201h-10c-48 35.333 -106.333 65.166 -175 89.499s-136 36.5 -202 36.5c-68.667 0 -126.667 -13.167 -174 -39.5s-71 -65.5 -71 -117.5c0 -46 14.333 -80.667 43 -104
c28 -23.333 73.333 -42.333 136 -57c34.667 -8 73.5 -16 116.5 -24s78.833 -15.333 107.5 -22c87.333 -20 154.666 -54.333 201.999 -103c47.333 -49.333 71 -114.666 71 -195.999z" />
    <glyph glyph-name="Scaron" unicode="&#x160;" horiz-adv-x="1400" 
d="M1282 425c0 -58 -13.502 -115.336 -40.502 -172.003s-64.833 -104.667 -113.5 -144c-53.333 -42.667 -115.5 -76 -186.5 -100s-156.5 -36 -256.5 -36c-107.333 0 -203.833 10 -289.5 30s-172.834 49.667 -261.501 89v248h14c75.333 -62.667 162.333 -111 261 -145
s191.334 -51 278.001 -51c122.667 0 218.167 23 286.5 69s102.5 107.333 102.5 184c0 66 -16.167 114.667 -48.5 146s-81.5 55.666 -147.5 72.999c-50 13.333 -104.167 24.333 -162.5 33s-120.166 19.667 -185.499 33c-132 28 -229.833 75.833 -293.5 143.5
s-95.5 155.834 -95.5 264.501c0 124.667 52.667 226.834 158 306.501s239 119.5 401 119.5c104.667 0 200.667 -10 288 -30s164.666 -44.667 231.999 -74v-234h-14c-56.667 48 -131.167 87.833 -223.5 119.5s-186.833 47.5 -283.5 47.5c-106 0 -191.167 -22 -255.5 -66
s-96.5 -100.667 -96.5 -170c0 -62 16 -110.667 48 -146s88.333 -62.333 169 -81c42.667 -9.33301 103.334 -20.666 182.001 -33.999s145.334 -27 200.001 -41c110.667 -29.333 194 -73.666 250 -132.999s84 -142.333 84 -249zM1066 2049l-228 -379h-227l-228 379h159
l185 -256l184 256h155z" />
    <glyph glyph-name="scaron" unicode="&#x161;" horiz-adv-x="1067" 
d="M983 322c0 -102 -42.167 -185.666 -126.5 -250.999s-199.5 -98 -345.5 -98c-82.667 0 -158.5 9.83301 -227.5 29.5s-126.833 41.167 -173.5 64.5v211h10c59.333 -44.667 125.333 -80.167 198 -106.5s142.334 -39.5 209.001 -39.5c82.667 0 147.334 13.333 194.001 40
s70 68.667 70 126c0 44 -12.667 77.333 -38 100s-74 42 -146 58c-26.667 6 -61.5 13 -104.5 21s-82.167 16.667 -117.5 26c-98 26 -167.5 64.167 -208.5 114.5s-61.5 112.166 -61.5 185.499c0 46 9.5 89.333 28.5 130s47.833 77 86.5 109
c37.333 31.333 84.833 56.166 142.5 74.499s122.167 27.5 193.5 27.5c66.667 0 134.167 -8.16699 202.5 -24.5s125.166 -36.166 170.499 -59.499v-201h-10c-48 35.333 -106.333 65.166 -175 89.499s-136 36.5 -202 36.5c-68.667 0 -126.667 -13.167 -174 -39.5
s-71 -65.5 -71 -117.5c0 -46 14.333 -80.667 43 -104c28 -23.333 73.333 -42.333 136 -57c34.667 -8 73.5 -16 116.5 -24s78.833 -15.333 107.5 -22c87.333 -20 154.666 -54.333 201.999 -103c47.333 -49.333 71 -114.666 71 -195.999zM907 1676l-228 -379h-227l-228 379
h159l185 -256l184 256h155z" />
    <glyph glyph-name="Tcedilla" unicode="&#x162;" horiz-adv-x="1262" 
d="M1262 1313l-531.997 0.000976562v-1276c2 -13.333 4.5 -32 7.5 -56s4.5 -47.333 4.5 -70c0 -108 -30.5 -190.667 -91.5 -248s-140.167 -86 -237.5 -86c-24.667 0 -56.334 2.33301 -95.001 7s-73 11 -103 19v160h9c17.333 -6.66699 40.666 -14.334 69.999 -23.001
s60.666 -13 93.999 -13c69.333 0 120.333 13 153 39s49 68.333 49 127c0 20 -0.833008 39 -2.5 57s-3.5 34.667 -5.5 50h-50v1313h-532v176h1262v-176z" />
    <glyph glyph-name="tcedilla" unicode="&#x163;" horiz-adv-x="807" 
d="M765 10l-25.998 -6.5c-9.33301 -2.33301 -19.333 -4.5 -30 -6.5c1.33301 -12 2.66602 -25.333 3.99902 -40s2 -30 2 -46c0 -108 -30.5 -190.667 -91.5 -248s-140.167 -86 -237.5 -86c-24.667 0 -56.334 2.33301 -95.001 7s-73 11 -103 19v160h9
c17.333 -6.66699 40.666 -14.334 69.999 -23.001s60.666 -13 93.999 -13c69.333 0 120.333 13 153 39s49 68.333 49 127c0 15.333 -0.5 30.833 -1.5 46.5s-2.16699 28.834 -3.5 39.501h-20c-114 0 -200.667 30.5 -260 91.5s-89 159.167 -89 294.5v594h-127v158h127v321h188
v-321h388v-158h-388v-509c0 -58.667 1.33301 -104.5 4 -137.5s12 -63.833 28 -92.5c14.667 -26.667 34.834 -46.167 60.501 -58.5s64.834 -18.5 117.501 -18.5c30.667 0 62.667 4.5 96 13.5s57.333 16.5 72 22.5h10v-169z" />
    <glyph glyph-name="Tcaron" unicode="&#x164;" horiz-adv-x="1262" 
d="M1262 1313h-532v-1313h-198v1313h-532v176h1262v-176zM971 2049l-228 -379h-227l-228 379h159l185 -256l184 256h155z" />
    <glyph glyph-name="tcaron" unicode="&#x165;" horiz-adv-x="807" 
d="M765 10c-35.333 -9.33301 -73.834 -16.999 -115.501 -22.999s-78.834 -9 -111.501 -9c-114 0 -200.667 30.667 -260 92s-89 159.666 -89 294.999v594h-127v158h127v321h188v-321h388v-158h-388v-509c0 -58.667 1.33301 -104.5 4 -137.5s12 -63.833 28 -92.5
c14.667 -26.667 34.834 -46.167 60.501 -58.5s64.834 -18.5 117.501 -18.5c30.667 0 62.667 4.5 96 13.5s57.333 16.5 72 22.5h10v-169zM889.999 1797l-250 -495h-127l152 495h225z" />
    <glyph glyph-name="Tbar" unicode="&#x166;" horiz-adv-x="1262" 
d="M532 740h-332v143h332v430h-532v176h1262v-176h-532v-430h332v-143h-332v-740h-198v740z" />
    <glyph glyph-name="tbar" unicode="&#x167;" horiz-adv-x="807" 
d="M765 10c-35.333 -9.33301 -73.834 -16.999 -115.501 -22.999s-78.834 -9 -111.501 -9c-114 0 -200.667 30.667 -260 92s-89 159.666 -89 294.999v168h-127v134h127v292h-127v158h127v321h188v-321h388v-158h-388v-292h301v-134h-301v-83
c0 -58.667 1.33301 -104.5 4 -137.5s12 -63.833 28 -92.5c14.667 -26.667 34.834 -46.167 60.501 -58.5s64.834 -18.5 117.501 -18.5c30.667 0 62.667 4.5 96 13.5s57.333 16.5 72 22.5h10v-169z" />
    <glyph glyph-name="Utilde" unicode="&#x168;" horiz-adv-x="1499" 
d="M1321 598c0 -108 -11.834 -202.167 -35.501 -282.5s-62.5 -147.166 -116.5 -200.499c-51.333 -50.667 -111.333 -87.667 -180 -111s-148.667 -35 -240 -35c-93.333 0 -174.666 12.333 -243.999 37s-127.666 61 -174.999 109c-54 54.667 -92.833 120.667 -116.5 198
s-35.5 172.333 -35.5 285v891h198v-901c0 -80.667 5.5 -144.334 16.5 -191.001s29.5 -89 55.5 -127c29.333 -43.333 69.166 -76 119.499 -98s110.833 -33 181.5 -33c71.333 0 132 10.833 182 32.5s90 54.5 120 98.5c26 38 44.5 81.5 55.5 130.5s16.5 109.833 16.5 182.5v906
h198v-891zM1165 1992c-7.33301 -101.333 -32.998 -177.668 -76.998 -229.001s-103 -77 -177 -77c-36 0 -69.333 6.5 -100 19.5s-59.667 31.833 -87 56.5c-31.333 28.667 -57.833 50.167 -79.5 64.5s-45.5 21.5 -71.5 21.5c-34.667 0 -60.667 -15 -78 -45
s-27.333 -70.333 -30 -121h-131c5.33301 100.667 31.666 176.667 78.999 228s105.333 77 174 77c33.333 0 65.5 -6.5 96.5 -19.5s60.5 -31.5 88.5 -55.5c31.333 -27.333 59.166 -47.833 83.499 -61.5s47.5 -20.5 69.5 -20.5c34 0 60.5 15.333 79.5 46
s29.5 69.334 31.5 116.001h129z" />
    <glyph glyph-name="utilde" unicode="&#x169;" horiz-adv-x="1296" 
d="M1111 0l-188.002 -0.000976562v124c-63.333 -50 -124 -88.333 -182 -115s-122 -40 -192 -40c-117.333 0 -208.666 35.833 -273.999 107.5s-98 176.834 -98 315.501v725h188v-636c0 -56.667 2.66699 -105.167 8 -145.5s16.666 -74.833 33.999 -103.5
c18 -29.333 41.333 -50.666 70 -63.999s70.334 -20 125.001 -20c48.667 0 101.834 12.667 159.501 38s111.5 57.666 161.5 96.999v834h188v-1117zM1074 1619c-7.33301 -101.333 -32.998 -177.668 -76.998 -229.001s-103 -77 -177 -77c-36 0 -69.333 6.5 -100 19.5
s-59.667 31.833 -87 56.5c-31.333 28.667 -57.833 50.167 -79.5 64.5s-45.5 21.5 -71.5 21.5c-34.667 0 -60.667 -15 -78 -45s-27.333 -70.333 -30 -121h-131c5.33301 100.667 31.666 176.667 78.999 228s105.333 77 174 77c33.333 0 65.5 -6.5 96.5 -19.5
s60.5 -31.5 88.5 -55.5c31.333 -27.333 59.166 -47.833 83.499 -61.5s47.5 -20.5 69.5 -20.5c34 0 60.5 15.333 79.5 46s29.5 69.334 31.5 116.001h129z" />
    <glyph glyph-name="Umacron" unicode="&#x16a;" horiz-adv-x="1499" 
d="M1321 598c0 -108 -11.834 -202.167 -35.501 -282.5s-62.5 -147.166 -116.5 -200.499c-51.333 -50.667 -111.333 -87.667 -180 -111s-148.667 -35 -240 -35c-93.333 0 -174.666 12.333 -243.999 37s-127.666 61 -174.999 109c-54 54.667 -92.833 120.667 -116.5 198
s-35.5 172.333 -35.5 285v891h198v-901c0 -80.667 5.5 -144.334 16.5 -191.001s29.5 -89 55.5 -127c29.333 -43.333 69.166 -76 119.499 -98s110.833 -33 181.5 -33c71.333 0 132 10.833 182 32.5s90 54.5 120 98.5c26 38 44.5 81.5 55.5 130.5s16.5 109.833 16.5 182.5v906
h198v-891zM1121 1708h-742v154h742v-154z" />
    <glyph glyph-name="umacron" unicode="&#x16b;" horiz-adv-x="1296" 
d="M1111 0l-188.002 -0.000976562v124c-63.333 -50 -124 -88.333 -182 -115s-122 -40 -192 -40c-117.333 0 -208.666 35.833 -273.999 107.5s-98 176.834 -98 315.501v725h188v-636c0 -56.667 2.66699 -105.167 8 -145.5s16.666 -74.833 33.999 -103.5
c18 -29.333 41.333 -50.666 70 -63.999s70.334 -20 125.001 -20c48.667 0 101.834 12.667 159.501 38s111.5 57.666 161.5 96.999v834h188v-1117zM1023 1335h-742v154h742v-154z" />
    <glyph glyph-name="Ubreve" unicode="&#x16c;" horiz-adv-x="1499" 
d="M1321 598c0 -108 -11.834 -202.167 -35.501 -282.5s-62.5 -147.166 -116.5 -200.499c-51.333 -50.667 -111.333 -87.667 -180 -111s-148.667 -35 -240 -35c-93.333 0 -174.666 12.333 -243.999 37s-127.666 61 -174.999 109c-54 54.667 -92.833 120.667 -116.5 198
s-35.5 172.333 -35.5 285v891h198v-901c0 -80.667 5.5 -144.334 16.5 -191.001s29.5 -89 55.5 -127c29.333 -43.333 69.166 -76 119.499 -98s110.833 -33 181.5 -33c71.333 0 132 10.833 182 32.5s90 54.5 120 98.5c26 38 44.5 81.5 55.5 130.5s16.5 109.833 16.5 182.5v906
h198v-891zM1125 2049c-6.66699 -112 -42.832 -203.667 -108.499 -275s-154.834 -107 -267.501 -107s-201.834 35.667 -267.501 107s-101.5 163 -107.5 275h166c8 -88 29.833 -152 65.5 -192s83.834 -60 144.501 -60c59.333 0 106.833 20 142.5 60s58.167 104 67.5 192h165z
" />
    <glyph glyph-name="ubreve" unicode="&#x16d;" horiz-adv-x="1291" 
d="M1111 0l-188.002 -0.000976562v124c-63.333 -50 -124 -88.333 -182 -115s-122 -40 -192 -40c-117.333 0 -208.666 35.833 -273.999 107.5s-98 176.834 -98 315.501v725h188v-636c0 -56.667 2.66699 -105.167 8 -145.5s16.666 -74.833 33.999 -103.5
c18 -29.333 41.333 -50.666 70 -63.999s70.334 -20 125.001 -20c48.667 0 101.834 12.667 159.501 38s111.5 57.666 161.5 96.999v834h188v-1117zM1027 1676c-6.66699 -112 -42.832 -203.667 -108.499 -275s-154.834 -107 -267.501 -107s-201.834 35.667 -267.501 107
s-101.5 163 -107.5 275h166c8 -88 29.833 -152 65.5 -192s83.834 -60 144.501 -60c59.333 0 106.833 20 142.5 60s58.167 104 67.5 192h165z" />
    <glyph glyph-name="Uring" unicode="&#x16e;" horiz-adv-x="1499" 
d="M1321 598c0 -108 -11.834 -202.167 -35.501 -282.5s-62.5 -147.166 -116.5 -200.499c-51.333 -50.667 -111.333 -87.667 -180 -111s-148.667 -35 -240 -35c-93.333 0 -174.666 12.333 -243.999 37s-127.666 61 -174.999 109c-54 54.667 -92.833 120.667 -116.5 198
s-35.5 172.333 -35.5 285v891h198v-901c0 -80.667 5.5 -144.334 16.5 -191.001s29.5 -89 55.5 -127c29.333 -43.333 69.166 -76 119.499 -98s110.833 -33 181.5 -33c71.333 0 132 10.833 182 32.5s90 54.5 120 98.5c26 38 44.5 81.5 55.5 130.5s16.5 109.833 16.5 182.5v906
h198v-891zM1100 1710c0 -95.333 -34 -176 -102 -242s-150.667 -99 -248 -99c-96 0 -178.333 32.833 -247 98.5s-103 146.5 -103 242.5c0 95.333 34 175.666 102 240.999s150.667 98 248 98c98 0 180.833 -32.667 248.5 -98s101.5 -145.666 101.5 -240.999zM954.999 1710
c0 57.333 -19.5 105.833 -58.5 145.5s-87.833 59.5 -146.5 59.5s-107.5 -19.667 -146.5 -59s-58.5 -88 -58.5 -146s19.667 -106.667 59 -146s88 -59 146 -59c58.667 0 107.5 19.667 146.5 59s58.5 88 58.5 146z" />
    <glyph glyph-name="uring" unicode="&#x16f;" horiz-adv-x="1296" 
d="M1111 0l-188.002 -0.000976562v124c-63.333 -50 -124 -88.333 -182 -115s-122 -40 -192 -40c-117.333 0 -208.666 35.833 -273.999 107.5s-98 176.834 -98 315.501v725h188v-636c0 -56.667 2.66699 -105.167 8 -145.5s16.666 -74.833 33.999 -103.5
c18 -29.333 41.333 -50.666 70 -63.999s70.334 -20 125.001 -20c48.667 0 101.834 12.667 159.501 38s111.5 57.666 161.5 96.999v834h188v-1117zM1001 1630c0 -95.333 -34 -176 -102 -242s-150.667 -99 -248 -99c-96 0 -178.333 32.833 -247 98.5s-103 146.5 -103 242.5
c0 95.333 34 175.666 102 240.999s150.667 98 248 98c98 0 180.833 -32.667 248.5 -98s101.5 -145.666 101.5 -240.999zM855.998 1630c0 57.333 -19.5 105.833 -58.5 145.5s-87.833 59.5 -146.5 59.5s-107.5 -19.667 -146.5 -59s-58.5 -88 -58.5 -146
s19.667 -106.667 59 -146s88 -59 146 -59c58.667 0 107.5 19.667 146.5 59s58.5 88 58.5 146z" />
    <glyph glyph-name="Udblacute" unicode="&#x170;" horiz-adv-x="1499" 
d="M1321 598c0 -108 -11.834 -202.167 -35.501 -282.5s-62.5 -147.166 -116.5 -200.499c-51.333 -50.667 -111.333 -87.667 -180 -111s-148.667 -35 -240 -35c-93.333 0 -174.666 12.333 -243.999 37s-127.666 61 -174.999 109c-54 54.667 -92.833 120.667 -116.5 198
s-35.5 172.333 -35.5 285v891h198v-901c0 -80.667 5.5 -144.334 16.5 -191.001s29.5 -89 55.5 -127c29.333 -43.333 69.166 -76 119.499 -98s110.833 -33 181.5 -33c71.333 0 132 10.833 182 32.5s90 54.5 120 98.5c26 38 44.5 81.5 55.5 130.5s16.5 109.833 16.5 182.5v906
h198v-891zM1263 2049l-258 -374h-139l169 374h228zM858.999 2049l-258 -374h-139l169 374h228z" />
    <glyph glyph-name="udblacute" unicode="&#x171;" horiz-adv-x="1296" 
d="M1111 0l-188.002 -0.000976562v124c-63.333 -50 -124 -88.333 -182 -115s-122 -40 -192 -40c-117.333 0 -208.666 35.833 -273.999 107.5s-98 176.834 -98 315.501v725h188v-636c0 -56.667 2.66699 -105.167 8 -145.5s16.666 -74.833 33.999 -103.5
c18 -29.333 41.333 -50.666 70 -63.999s70.334 -20 125.001 -20c48.667 0 101.834 12.667 159.501 38s111.5 57.666 161.5 96.999v834h188v-1117zM1153 1676l-258 -374h-139l169 374h228zM748.998 1676l-258 -374h-139l169 374h228z" />
    <glyph glyph-name="Uogonek" unicode="&#x172;" horiz-adv-x="1499" 
d="M788 -116c0 17.333 0.833984 32.501 2.50098 45.501s4.16699 26.833 7.5 41.5c-6 0 -13.167 -0.166992 -21.5 -0.5s-17.5 -0.5 -27.5 -0.5c-93.333 0 -174.666 12.167 -243.999 36.5s-127.666 60.5 -174.999 108.5c-54 54.667 -92.833 120.667 -116.5 198
s-35.5 172.333 -35.5 285v891h198v-901c0 -80.667 5.5 -144.334 16.5 -191.001s29.5 -89 55.5 -127c29.333 -43.333 69.166 -76 119.499 -98s110.833 -33 181.5 -33c71.333 0 132 10.833 182 32.5s90 54.5 120 98.5c26 38 44.5 81.5 55.5 130.5s16.5 109.833 16.5 182.5v906
h198v-891c0 -108 -11.833 -202.167 -35.5 -282.5s-62.5 -147.166 -116.5 -200.499c-30 -29.333 -62.333 -53.833 -97 -73.5s-72.334 -34.834 -113.001 -45.501c-2.66699 -13.333 -4.83398 -30 -6.50098 -50s-2.5 -37.667 -2.5 -53c0 -54.667 13.833 -95 41.5 -121
s71.5 -39 131.5 -39c24 0 49.5 4.5 76.5 13.5s46.167 16.167 57.5 21.5h8v-159c-34.667 -9.33301 -64.5 -16 -89.5 -20s-51.5 -6 -79.5 -6c-93.333 0 -168 26.5 -224 79.5s-84 126.833 -84 221.5z" />
    <glyph glyph-name="uogonek" unicode="&#x173;" horiz-adv-x="1291" 
d="M923 0l-0.00195312 123.999c-63.333 -50 -124 -88.333 -182 -115s-122 -40 -192 -40c-117.333 0 -208.666 35.833 -273.999 107.5s-98 176.834 -98 315.501v725h188v-636c0 -56.667 2.66699 -105.167 8 -145.5s16.666 -74.833 33.999 -103.5
c18 -29.333 41.333 -50.666 70 -63.999s70.334 -20 125.001 -20c48.667 0 101.834 12.667 159.501 38s111.5 57.666 161.5 96.999v834h188v-1117h-30c-4 -18 -7.16699 -35.833 -9.5 -53.5s-3.5 -35.5 -3.5 -53.5c0 -54.667 13.833 -95 41.5 -121s71.5 -39 131.5 -39
c24 0 49.5 4.5 76.5 13.5s46.167 16.167 57.5 21.5h8v-159c-34.667 -9.33301 -64.5 -16 -89.5 -20s-51.5 -6 -79.5 -6c-93.333 0 -168 26.667 -224 80s-84 127 -84 221c0 24 1.83301 44.5 5.5 61.5z" />
    <glyph glyph-name="Wcircumflex" unicode="&#x174;" horiz-adv-x="2025" 
d="M1933 1489l-387 -1489h-223l-313 1236l-306 -1236h-218l-394 1489h203l313 -1238l308 1238h201l311 -1250l311 1250h194zM1354 1670h-159l-185 256l-184 -256h-155l228 379h227z" />
    <glyph glyph-name="wcircumflex" unicode="&#x175;" horiz-adv-x="1676" 
d="M1590 1117l-291 -1117h-174l-287 861l-285 -861h-173l-294 1117h196l205 -865l279 865h155l286 -865l194 865h189zM1180 1297h-159l-185 256l-184 -256h-155l228 379h227z" />
    <glyph glyph-name="Ycircumflex" unicode="&#x176;" horiz-adv-x="1260" 
d="M1254 1489l-524 -836v-653h-198v632l-526 857h219l407 -666l411 666h211zM975 1670h-159l-185 256l-184 -256h-155l228 379h227z" />
    <glyph glyph-name="ycircumflex" unicode="&#x177;" horiz-adv-x="1212" 
d="M1151 1117l-652 -1529h-201l208 466l-445 1063h204l343 -828l346 828h197zM958 1297h-159l-185 256l-184 -256h-155l228 379h227z" />
    <glyph glyph-name="Ydieresis" unicode="&#x178;" horiz-adv-x="1260" 
d="M1254 1489l-524 -836v-653h-198v632l-526 857h219l407 -666l411 666h211zM939 1677h-199v195h199v-195zM526 1677h-199v195h199v-195z" />
    <glyph glyph-name="Zacute" unicode="&#x179;" horiz-adv-x="1403" 
d="M1288 0h-1162v184l913 1129h-879v176h1106v-179l-922 -1134h944v-176zM970 2049l-273 -374h-149l179 374h243z" />
    <glyph glyph-name="zacute" unicode="&#x17a;" horiz-adv-x="1076" 
d="M995 0h-902v139l651 821h-637v157h871v-134l-654 -824h671v-159zM811 1676l-273 -374h-149l179 374h243z" />
    <glyph glyph-name="Zdot" unicode="&#x17b;" horiz-adv-x="1403" 
d="M1288 0h-1162v184l913 1129h-879v176h1106v-179l-922 -1134h944v-176zM814 1677h-212v195h212v-195z" />
    <glyph glyph-name="zdot" unicode="&#x17c;" horiz-adv-x="1076" 
d="M995 0h-902v139l651 821h-637v157h871v-134l-654 -824h671v-159zM647 1304h-212v195h212v-195z" />
    <glyph glyph-name="Zcaron" unicode="&#x17d;" horiz-adv-x="1403" 
d="M1288 0h-1162v184l913 1129h-879v176h1106v-179l-922 -1134h944v-176zM1039 2049l-228 -379h-227l-228 379h159l185 -256l184 256h155z" />
    <glyph glyph-name="zcaron" unicode="&#x17e;" horiz-adv-x="1076" 
d="M995 0h-902v139l651 821h-637v157h871v-134l-654 -824h671v-159zM881 1676l-228 -379h-227l-228 379h159l185 -256l184 256h155z" />
    <glyph glyph-name="longs" unicode="&#x17f;" horiz-adv-x="615" 
d="M776 1374h-10.001c-20.667 6 -47.667 12.167 -81 18.5s-62.666 9.5 -87.999 9.5c-80.667 0 -138.167 -17.833 -172.5 -53.5s-51.5 -100.167 -51.5 -193.5v-1155h-188v1154c0 129.333 32.333 230.333 97 303s160.667 109 288 109c42 0 79.833 -2 113.5 -6
s64.5 -8.66699 92.5 -14v-172z" />
    <glyph glyph-name="florin" unicode="&#x192;" 
d="M1280 1321h-9.99707c-19.333 6.66699 -48 14.334 -86 23.001s-70.667 13 -98 13c-80.667 0 -142 -19.833 -184 -59.5s-74.667 -112.834 -98 -219.501l-42 -194h321v-138h-349l-103 -490c-19.333 -89.333 -44.333 -163.333 -75 -222s-67.334 -105.334 -110.001 -140.001
c-43.333 -35.333 -90.333 -60 -141 -74s-106.667 -21 -168 -21c-27.333 0 -54.333 1.16699 -81 3.5s-57.334 6.5 -92.001 12.5v180h10c22 -9.33301 48.667 -17.333 80 -24s61.666 -10 90.999 -10c84.667 0 148.5 21.333 191.5 64s76.167 119.667 99.5 231l103 490h-217v138
h245l42 198c17.333 82 41.333 151 72 207s66.667 101 108 135s87.5 58.333 138.5 73s105.5 22 163.5 22c38.667 0 71.167 -1.66699 97.5 -5s56.833 -7.66602 91.5 -12.999v-180z" />
    <glyph glyph-name="Aringacute" unicode="&#x1fa;" horiz-adv-x="1400" 
d="M1374 0h-211.001l-148 415h-640l-148 -415h-201l504 1367c-32.667 20.667 -58.5 47.834 -77.5 81.501s-28.5 71.834 -28.5 114.501c0 72.667 26.833 133 80.5 181s118.834 72 195.501 72s141.667 -24 195 -72s80 -108.333 80 -181c0 -42.667 -9.5 -80.834 -28.5 -114.501
s-44.5 -60.834 -76.5 -81.501zM827.999 1563c0 36 -11.832 66.502 -35.499 91.502s-54.5 37.5 -92.5 37.5s-69 -12.333 -93 -37s-36 -55.334 -36 -92.001c0 -38 12.167 -69.5 36.5 -94.5s55.166 -37.5 92.499 -37.5s68 12.667 92 38s36 56.666 36 93.999zM953 585.002
l-258 715l-259 -715h517zM977 2117l-243 -274h-149l149 274h243z" />
    <glyph glyph-name="aringacute" unicode="&#x1fb;" horiz-adv-x="1230" 
d="M1053 0l-187 0.000976562v119l-67.5 -47.5c-28.333 -20.333 -55.833 -36.5 -82.5 -48.5c-31.333 -15.333 -67.333 -28.166 -108 -38.499s-88.334 -15.5 -143.001 -15.5c-100.667 0 -186 33.333 -256 100s-105 151.667 -105 255c0 84.667 18.167 153.167 54.5 205.5
s88.166 93.5 155.499 123.5c68 30 149.667 50.333 245 61s197.666 18.667 306.999 24v29c0 43.333 -7.66699 79.333 -23 108s-36.666 50.667 -63.999 66c-27.333 16 -59.166 26.833 -95.499 32.5s-75.5 8.5 -117.5 8.5c-38.667 0 -75.5 -3.33301 -110.5 -10
s-66.5 -13.667 -94.5 -21c-32.667 -8.66699 -62.334 -17.834 -89.001 -27.501l-59 -21.5h-10v191c23.333 6 52.5 12.333 87.5 19s68.833 12.667 101.5 18c-18.667 20 -34.167 43.833 -46.5 71.5s-18.5 56.834 -18.5 87.501c0 72.667 26.5 133 79.5 181s117.833 72 194.5 72
s141.334 -24 194.001 -72s79 -108.333 79 -181c0 -34 -7.66699 -66.167 -23 -96.5s-34.666 -55.833 -57.999 -76.5c83.333 -22.667 147.5 -62.334 192.5 -119.001s67.5 -136.334 67.5 -239.001v-758zM866 275.001l-0.000976562 311
c-57.333 -3.33301 -124.833 -8.33301 -202.5 -15s-139.167 -16.334 -184.5 -29.001c-54 -15.333 -97.667 -39.166 -131 -71.499s-50 -76.833 -50 -133.5c0 -64 19.333 -112.167 58 -144.5s97.667 -48.5 177 -48.5c66 0 126.333 12.833 181 38.5s105.334 56.5 152.001 92.5z
M728.999 1289c0 36 -11.832 66.501 -35.499 91.501s-54.5 37.5 -92.5 37.5s-69 -12.333 -93 -37s-36 -55.334 -36 -92.001c0 -38 12.167 -69.667 36.5 -95s55.166 -38 92.499 -38s68 12.833 92 38.5s36 57.167 36 94.5zM878 1843l-243 -274h-149l149 274h243z" />
    <glyph glyph-name="AEacute" unicode="&#x1fc;" horiz-adv-x="2016" 
d="M1901 0h-944v556h-524l-212 -556h-207l594 1489h1293v-176h-749v-408h749v-176h-749v-553h749v-176zM957 723v601h-219l-239 -601h458zM1441 2049l-273 -374h-149l179 374h243z" />
    <glyph glyph-name="aeacute" unicode="&#x1fd;" horiz-adv-x="1956" 
d="M1855 559l-818.999 -0.000976562c0 -76 10 -141 30 -195s48.333 -98.333 85 -133c34.667 -32 75.667 -55.5 123 -70.5s99.666 -22.5 156.999 -22.5c74 0 146.5 13.833 217.5 41.5s128.5 58.834 172.5 93.501h12v-205c-52 -23.333 -113.5 -44.833 -184.5 -64.5
s-142.833 -29.5 -215.5 -29.5c-110.667 0 -205.5 17.333 -284.5 52s-143.833 86.334 -194.5 155.001l-67 -59c-30.667 -26.667 -62.667 -49.334 -96 -68.001c-42 -24 -87.667 -43.833 -137 -59.5s-112.333 -23.5 -189 -23.5c-100 0 -185.167 32.333 -255.5 97
s-105.5 147.667 -105.5 249c0 82.667 18 149.5 54 200.5s87.667 90.5 155 118.5c63.333 26 143.666 43.667 240.999 53s200 15 308 17v61c0 43.333 -7.66699 79.166 -23 107.499s-36.666 50.166 -63.999 65.499c-26.667 15.333 -58.667 25.833 -96 31.5s-76 8.5 -116 8.5
c-52.667 0 -108.834 -7 -168.501 -21s-119.5 -33 -179.5 -57h-13v191c36.667 10 89.334 21.333 158.001 34s136.667 19 204 19c106 0 194.167 -15.5 264.5 -46.5s124.5 -76.833 162.5 -137.5c46 54.667 102.667 99.334 170 134.001s142.666 52 225.999 52
c144.667 0 258.834 -42.667 342.501 -128s125.5 -211.666 125.5 -378.999v-82zM1673 702.999c-3.33301 45.333 -11.168 85 -23.501 119s-29.166 63.333 -50.499 88c-22.667 26 -52.167 46.333 -88.5 61s-80.833 22 -133.5 22c-88.667 0 -163 -25 -223 -75
s-98.333 -121.667 -115 -215h634zM893.999 297.999c-13.333 35.333 -23.501 74.998 -30.501 118.998s-10.5 91 -10.5 141c-70 -2 -137 -4.5 -201 -7.5s-123.333 -11.5 -178 -25.5c-52.667 -13.333 -95.167 -35.166 -127.5 -65.499s-48.5 -73.166 -48.5 -128.499
c0 -63.333 19.333 -110.333 58 -141s97.334 -46 176.001 -46c66 0 131.167 14.333 195.5 43s119.833 65.667 166.5 111zM1324 1676l-273 -374h-149l179 374h243z" />
    <glyph glyph-name="Oslashacute" unicode="&#x1fe;" horiz-adv-x="1612" 
d="M1498 744c0 -122.667 -16.5029 -232.499 -49.5029 -329.499s-79.167 -177.833 -138.5 -242.5c-61.333 -67.333 -133.833 -118 -217.5 -152s-179.167 -51 -286.5 -51c-76.667 0 -148.5 9.66699 -215.5 29s-126.833 47.333 -179.5 84l-159 -228h-132l205 294
c-67.333 66.667 -119.166 150 -155.499 250s-54.5 215.333 -54.5 346c0 121.333 16 230.166 48 326.499s78.667 178.833 140 247.5c58.667 65.333 131.5 115.333 218.5 150s181.833 52 284.5 52c78.667 0 150.334 -9.16699 215.001 -27.5s124.334 -45.833 179.001 -82.5
l142 201h132l-188 -268c67.333 -66.667 119.5 -149.5 156.5 -248.5s55.5 -215.833 55.5 -350.5zM1097 1260c-38 30.667 -81.001 53.501 -129.001 68.501s-101.667 22.5 -161 22.5c-73.333 0 -140 -12.833 -200 -38.5s-112 -64.5 -156 -116.5
c-42.667 -50.667 -75.5 -114.167 -98.5 -190.5s-34.5 -163.5 -34.5 -261.5c0 -93.333 9.83301 -177.333 29.5 -252s48.834 -137.334 87.501 -188.001zM1295 744.002c0 92.667 -9.99902 176.999 -29.999 252.999s-49.333 139 -88 189l-664 -957
c40 -30 84.167 -52.667 132.5 -68s102.166 -23 161.499 -23c73.333 0 140.5 13.333 201.5 40s112.167 65.334 153.5 116.001c44.667 54.667 78 119.5 100 194.5s33 160.167 33 255.5zM1083 2049l-273 -374h-149l179 374h243z" />
    <glyph glyph-name="oslashacute" unicode="&#x1ff;" horiz-adv-x="1243" 
d="M1137 558c0 -182 -46.667 -325.665 -140 -430.998s-218.333 -158 -375 -158c-56 0 -107.833 7 -155.5 21s-91.167 34 -130.5 60l-133 -198h-110l171 256c-50 51.333 -88.833 114.666 -116.5 189.999s-41.5 162 -41.5 260c0 182 46.5 325.833 139.5 431.5
s218.5 158.5 376.5 158.5c58 0 110.667 -7.33301 158 -22s89 -33.667 125 -57l116 172h111l-155 -231c50.667 -50.667 90 -113.334 118 -188.001s42 -162.667 42 -264zM813 930.002c-24.667 19.333 -53.499 33.833 -86.499 43.5s-67.833 14.5 -104.5 14.5
c-103.333 0 -183.333 -36.667 -240 -110s-85 -180 -85 -320c0 -64.667 5.66699 -121.667 17 -171s28.666 -92 51.999 -128zM946.001 558.002c0 64.667 -5.83203 122.334 -17.499 173.001s-28.834 94 -51.501 130l-448 -671c26 -20.667 54.833 -36 86.5 -46
s67.167 -15 106.5 -15c100 0 179 36.167 237 108.5s87 179.166 87 320.499zM933.002 1676l-273 -374h-149l179 374h243z" />
    <glyph glyph-name="circumflex" unicode="&#x2c6;" 
d="M993 1297h-159l-185 256l-184 -256h-155l228 379h227z" />
    <glyph glyph-name="caron" unicode="&#x2c7;" 
d="M989 1676l-228 -379h-227l-228 379h159l185 -256l184 256h155z" />
    <glyph glyph-name="macron" unicode="&#x2c9;" 
d="M1022 1335h-742v154h742v-154z" />
    <glyph glyph-name="breve" unicode="&#x2d8;" 
d="M1026 1676c-6.66699 -112 -42.832 -203.667 -108.499 -275s-154.834 -107 -267.501 -107s-201.834 35.667 -267.501 107s-101.5 163 -107.5 275h166c8 -88 29.833 -152 65.5 -192s83.834 -60 144.501 -60c59.333 0 106.833 20 142.5 60s58.167 104 67.5 192h165z" />
    <glyph glyph-name="dotaccent" unicode="&#x2d9;" 
d="M757 1304h-212v195h212v-195z" />
    <glyph glyph-name="ring" unicode="&#x2da;" 
d="M1001 1630c0 -95.333 -34 -176 -102 -242s-150.667 -99 -248 -99c-96 0 -178.333 32.833 -247 98.5s-103 146.5 -103 242.5c0 95.333 34 175.666 102 240.999s150.667 98 248 98c98 0 180.833 -32.667 248.5 -98s101.5 -145.666 101.5 -240.999zM856 1630
c0 57.333 -19.5 105.833 -58.5 145.5s-87.833 59.5 -146.5 59.5s-107.5 -19.667 -146.5 -59s-58.5 -88 -58.5 -146s19.667 -106.667 59 -146s88 -59 146 -59c58.667 0 107.5 19.667 146.5 59s58.5 88 58.5 146z" />
    <glyph glyph-name="ogonek" unicode="&#x2db;" 
d="M892 -391c-34.667 -9.33301 -64.5 -16 -89.5 -20s-51.5 -6 -79.5 -6c-92.667 0 -167.167 26.333 -223.5 79s-84.5 126.667 -84.5 222c0 25.333 2.16699 48.333 6.5 69l12.5 57h155c-4 -18 -7 -37 -9 -57s-3 -40 -3 -60c0 -54.667 13.833 -95 41.5 -121
s71.5 -39 131.5 -39c24 0 49.5 4.5 76.5 13.5s46.167 16.167 57.5 21.5h8v-159z" />
    <glyph glyph-name="tilde" unicode="&#x2dc;" 
d="M1068 1619c-7.33301 -101.333 -32.998 -177.668 -76.998 -229.001s-103 -77 -177 -77c-36 0 -69.333 6.5 -100 19.5s-59.667 31.833 -87 56.5c-31.333 28.667 -57.833 50.167 -79.5 64.5s-45.5 21.5 -71.5 21.5c-34.667 0 -60.667 -15 -78 -45s-27.333 -70.333 -30 -121
h-131c5.33301 100.667 31.666 176.667 78.999 228s105.333 77 174 77c33.333 0 65.5 -6.5 96.5 -19.5s60.5 -31.5 88.5 -55.5c31.333 -27.333 59.166 -47.833 83.499 -61.5s47.5 -20.5 69.5 -20.5c34 0 60.5 15.333 79.5 46s29.5 69.334 31.5 116.001h129z" />
    <glyph glyph-name="hungarumlaut" unicode="&#x2dd;" 
d="M1143 1676l-258 -374h-139l169 374h228zM739 1676l-258 -374h-139l169 374h228z" />
    <glyph glyph-name="tonos" unicode="&#x384;" 
d="M773 1676l-49 -384h-145l-49 384h243z" />
    <glyph glyph-name="dieresistonos" unicode="&#x385;" 
d="M765 1676l-49 -384h-128l-49 384h226zM1048 1304h-191v195h191v-195zM447 1304h-191v195h191v-195z" />
    <glyph glyph-name="Alphatonos" unicode="&#x386;" horiz-adv-x="1400" 
d="M1374 0h-211l-146 415h-644l-146 -415h-201l542 1489h264zM956 585l-261 731l-262 -731h523zM250 1489l-49 -384h-145l-49 384h243z" />
    <glyph glyph-name="anoteleia" unicode="&#x387;" horiz-adv-x="930" 
d="M585 832h-239v285h239v-285z" />
    <glyph glyph-name="Epsilontonos" unicode="&#x388;" horiz-adv-x="1538" 
d="M1424 0h-981v1489h981v-176h-783v-408h783v-176h-783v-553h783v-176zM243 1489l-49 -384h-145l-49 384h243z" />
    <glyph glyph-name="Etatonos" unicode="&#x389;" horiz-adv-x="1782" 
d="M1582 0h-198v729h-743v-729h-198v1489h198v-584h743v584h198v-1489zM243 1489l-49 -384h-145l-49 384h243z" />
    <glyph glyph-name="Iotatonos" unicode="&#x38a;" horiz-adv-x="1105" 
d="M968 0h-588v152h195v1185h-195v152h588v-152h-195v-1185h195v-152zM243 1489l-49 -384h-145l-49 384h243z" />
    <glyph glyph-name="Omicrontonos" unicode="&#x38c;" horiz-adv-x="1804" 
d="M1501 1318c60.667 -66.667 107.168 -148.331 139.501 -244.998s48.5 -206.334 48.5 -329.001s-16.5 -232.5 -49.5 -329.5s-79.167 -177.833 -138.5 -242.5c-61.333 -67.333 -133.833 -118 -217.5 -152s-179.167 -51 -286.5 -51c-104.667 0 -199.834 17.333 -285.501 52
s-158.5 85 -218.5 151s-106.167 147 -138.5 243s-48.5 205.667 -48.5 329c0 121.333 16 230.166 48 326.499s78.667 178.833 140 247.5c58.667 65.333 131.5 115.333 218.5 150s181.833 52 284.5 52c106.667 0 202.5 -17.5 287.5 -52.5s157.167 -84.833 216.5 -149.5z
M1483 744.003c0 193.333 -43.334 342.5 -130.001 447.5s-205 157.5 -355 157.5c-151.333 0 -270.166 -52.5 -356.499 -157.5s-129.5 -254.167 -129.5 -447.5c0 -195.333 44 -344.833 132 -448.5s206 -155.5 354 -155.5s265.833 51.833 353.5 155.5
s131.5 253.167 131.5 448.5zM243 1489l-49 -384h-145l-49 384h243z" />
    <glyph glyph-name="Upsilontonos" unicode="&#x38e;" horiz-adv-x="1543" 
d="M1537 1489l-524 -836v-653h-198v632l-526 857h219l407 -666l411 666h211zM243 1489l-49 -384h-145l-49 384h243z" />
    <glyph glyph-name="Omegatonos" unicode="&#x38f;" horiz-adv-x="1859" 
d="M1751 0h-575.996v387c40 25.333 79.833 52.666 119.5 81.999s74.167 63 103.5 101c30 39.333 53.667 85.5 71 138.5s26 114.833 26 185.5c0 137.333 -42.333 247.5 -127 330.5s-200.334 124.5 -347.001 124.5s-262.334 -41.5 -347.001 -124.5s-127 -193.167 -127 -330.5
c0 -70.667 8.66699 -132.5 26 -185.5s41 -99.167 71 -138.5c30 -38 64.667 -71.667 104 -101s79 -56.666 119 -81.999v-387h-576v174h410v124c-104.667 60 -190.834 142 -258.501 246s-101.5 220.667 -101.5 350c0 184 62.5 334.333 187.5 451s289.167 175 492.5 175
s367.5 -58.333 492.5 -175s187.5 -267 187.5 -451c0 -129.333 -33.833 -246 -101.5 -350s-153.834 -186 -258.501 -246v-124h410v-174zM243.004 1489l-49 -384h-145l-49 384h243z" />
    <glyph glyph-name="iotadieresistonos" unicode="&#x390;" horiz-adv-x="562" 
d="M375 0h-188v1117h188v-1117zM379 1676l-56 -384h-84l-56 384h196zM615 1304h-171v195h171v-195zM118 1304h-171v195h171v-195z" />
    <glyph glyph-name="Alpha" unicode="&#x391;" horiz-adv-x="1400" 
d="M1374 0h-211l-146 415h-644l-146 -415h-201l542 1489h264zM956 585l-261 731l-262 -731h523z" />
    <glyph glyph-name="Beta" unicode="&#x392;" horiz-adv-x="1404" 
d="M1323 458c0 -74 -14.001 -139.33 -42.001 -195.997s-65.667 -103.334 -113 -140.001c-56 -44 -117.5 -75.333 -184.5 -94s-152.167 -28 -255.5 -28h-528v1489h441c108.667 0 190 -4 244 -12s105.667 -24.667 155 -50c54.667 -28.667 94.334 -65.5 119.001 -110.5
s37 -98.833 37 -161.5c0 -70.667 -18 -130.834 -54 -180.501s-84 -89.5 -144 -119.5v-8c100.667 -20.667 180 -64.834 238 -132.501s87 -153.167 87 -256.5zM989.999 1129c0 36 -6 66.333 -18 91s-31.333 44.667 -58 60c-31.333 18 -69.333 29.167 -114 33.5
s-100 6.5 -166 6.5h-236v-430h256c62 0 111.333 3.16699 148 9.5s70.667 19.5 102 39.5s53.5 45.833 66.5 77.5s19.5 69.167 19.5 112.5zM1117 450.003c0 60 -8.99805 107.667 -26.998 143s-50.667 65.333 -98 90c-32 16.667 -70.833 27.5 -116.5 32.5
s-101.167 7.5 -166.5 7.5h-311v-554h262c86.667 0 157.667 4.5 213 13.5s100.666 25.5 135.999 49.5c37.333 26 64.666 55.667 81.999 89s26 76.333 26 129z" />
    <glyph glyph-name="Gamma" unicode="&#x393;" horiz-adv-x="1160" 
d="M1162 1313h-764v-1313h-198v1489h962v-176z" />
    <glyph glyph-name="Delta" unicode="&#x394;" horiz-adv-x="1440" 
d="M1414 0h-1388l562 1489h264zM1147 168l-432 1147l-431 -1147h863z" />
    <glyph glyph-name="Epsilon" unicode="&#x395;" horiz-adv-x="1295" 
d="M1181 0h-981v1489h981v-176h-783v-408h783v-176h-783v-553h783v-176z" />
    <glyph glyph-name="Zeta" unicode="&#x396;" horiz-adv-x="1403" 
d="M1288 0h-1162v184l913 1129h-879v176h1106v-179l-922 -1134h944v-176z" />
    <glyph glyph-name="Eta" unicode="&#x397;" horiz-adv-x="1539" 
d="M1339 0h-198v729h-743v-729h-198v1489h198v-584h743v584h198v-1489z" />
    <glyph glyph-name="Theta" unicode="&#x398;" horiz-adv-x="1612" 
d="M1310 1318c60.667 -66.667 107.168 -148.331 139.501 -244.998s48.5 -206.334 48.5 -329.001s-16.5 -232.5 -49.5 -329.5s-79.167 -177.833 -138.5 -242.5c-61.333 -67.333 -133.833 -118 -217.5 -152s-179.167 -51 -286.5 -51c-104.667 0 -199.834 17.333 -285.501 52
s-158.5 85 -218.5 151s-106.167 147 -138.5 243s-48.5 205.667 -48.5 329c0 121.333 16 230.166 48 326.499s78.667 178.833 140 247.5c58.667 65.333 131.5 115.333 218.5 150s181.833 52 284.5 52c106.667 0 202.5 -17.5 287.5 -52.5s157.167 -84.833 216.5 -149.5z
M1292 744.003c0 193.333 -43.334 342.5 -130.001 447.5s-205 157.5 -355 157.5c-151.333 0 -270.166 -52.5 -356.499 -157.5s-129.5 -254.167 -129.5 -447.5c0 -195.333 44 -344.833 132 -448.5s206 -155.5 354 -155.5s265.833 51.833 353.5 155.5
s131.5 253.167 131.5 448.5zM1120 713.003h-627v179h627v-179z" />
    <glyph glyph-name="Iota" unicode="&#x399;" horiz-adv-x="862" 
d="M725 0h-588v152h195v1185h-195v152h588v-152h-195v-1185h195v-152z" />
    <glyph glyph-name="Kappa" unicode="&#x39a;" horiz-adv-x="1419" 
d="M1397 0h-257l-589 663l-148 -158v-505h-198v1489h198v-777l723 777h240l-665 -700z" />
    <glyph glyph-name="Lambda" unicode="&#x39b;" horiz-adv-x="1404" 
d="M1378 0h-213l-468 1285l-468 -1285h-203l556 1489h240z" />
    <glyph glyph-name="Mu" unicode="&#x39c;" horiz-adv-x="1726" 
d="M1526 0h-198v1283l-414 -873h-118l-411 873v-1283h-185v1489h270l397 -829l384 829h275v-1489z" />
    <glyph glyph-name="Nu" unicode="&#x39d;" horiz-adv-x="1532" 
d="M1336 0h-245l-706 1332v-1332h-185v1489h307l644 -1216v1216h185v-1489z" />
    <glyph glyph-name="Xi" unicode="&#x39e;" horiz-adv-x="1329" 
d="M1215 1313h-1101v176h1101v-176zM1163 729h-997v176h997v-176zM1215 0h-1101v176h1101v-176z" />
    <glyph glyph-name="Omicron" unicode="&#x39f;" horiz-adv-x="1612" 
d="M1310 1318c60.667 -66.667 107.168 -148.331 139.501 -244.998s48.5 -206.334 48.5 -329.001s-16.5 -232.5 -49.5 -329.5s-79.167 -177.833 -138.5 -242.5c-61.333 -67.333 -133.833 -118 -217.5 -152s-179.167 -51 -286.5 -51c-104.667 0 -199.834 17.333 -285.501 52
s-158.5 85 -218.5 151s-106.167 147 -138.5 243s-48.5 205.667 -48.5 329c0 121.333 16 230.166 48 326.499s78.667 178.833 140 247.5c58.667 65.333 131.5 115.333 218.5 150s181.833 52 284.5 52c106.667 0 202.5 -17.5 287.5 -52.5s157.167 -84.833 216.5 -149.5z
M1292 744.003c0 193.333 -43.334 342.5 -130.001 447.5s-205 157.5 -355 157.5c-151.333 0 -270.166 -52.5 -356.499 -157.5s-129.5 -254.167 -129.5 -447.5c0 -195.333 44 -344.833 132 -448.5s206 -155.5 354 -155.5s265.833 51.833 353.5 155.5
s131.5 253.167 131.5 448.5z" />
    <glyph glyph-name="Pi" unicode="&#x3a0;" horiz-adv-x="1539" 
d="M1339 0h-198v1313h-743v-1313h-198v1489h1139v-1489z" />
    <glyph glyph-name="Rho" unicode="&#x3a1;" horiz-adv-x="1235" 
d="M1174 1039c0 -66 -11.5 -127.167 -34.5 -183.5s-55.167 -105.166 -96.5 -146.499c-51.333 -51.333 -112 -89.833 -182 -115.5s-158.333 -38.5 -265 -38.5h-198v-555h-198v1489h404c89.333 0 165 -7.5 227 -22.5s117 -38.5 165 -70.5c56.667 -38 100.5 -85.333 131.5 -142
s46.5 -128.334 46.5 -215.001zM968 1034c0 51.333 -9 96.001 -27 134.001s-45.333 69 -82 93c-32 20.667 -68.5 35.5 -109.5 44.5s-92.833 13.5 -155.5 13.5h-196v-595h167c80 0 145 7.16699 195 21.5s90.667 37.166 122 68.499c31.333 32 53.5 65.667 66.5 101
s19.5 75 19.5 119z" />
    <glyph glyph-name="Sigma" unicode="&#x3a3;" horiz-adv-x="1377" 
d="M1280 0h-1162v184l620 600l-600 526v179h1096v-176h-832l586 -506v-26l-630 -605h922v-176z" />
    <glyph glyph-name="Tau" unicode="&#x3a4;" horiz-adv-x="1262" 
d="M1262 1313h-532v-1313h-198v1313h-532v176h1262v-176z" />
    <glyph glyph-name="Upsilon" unicode="&#x3a5;" horiz-adv-x="1260" 
d="M1254 1489l-524 -836v-653h-198v632l-526 857h219l407 -666l411 666h211z" />
    <glyph glyph-name="Phi" unicode="&#x3a6;" horiz-adv-x="1677" 
d="M1572 755c0 -93.333 -14.832 -176.167 -44.499 -248.5s-70.834 -132.833 -123.501 -181.5c-56.667 -52.667 -125.667 -94.5 -207 -125.5s-168 -47.5 -260 -49.5v-166h-197v166c-89.333 2 -175 18 -257 48s-152 72.333 -210 127c-52.667 49.333 -93.834 110 -123.501 182
s-44.5 154.667 -44.5 248c0 90.667 14.333 170 43 238s68.334 127.333 119.001 178c54 54 121.5 96.667 202.5 128s171.167 48.333 270.5 51v155h197v-155c98.667 -2 189 -19.333 271 -52s149.333 -75 202 -127c50 -48.667 89.5 -107.667 118.5 -177s43.5 -149 43.5 -239z
M1366 762.999c0 66 -10.667 126.669 -32 182.002s-51.666 102 -90.999 140c-38.667 37.333 -81.667 64.666 -129 81.999s-106.333 26.666 -177 27.999v-890c62.667 1.33301 119.667 11.5 171 30.5s93.666 44.167 126.999 75.5c43.333 40 76 89 98 147s33 126.333 33 205z
M740.001 305.001l-0.000976562 890.004c-70.667 -0.666992 -129.667 -10 -177 -28s-90.333 -45.333 -129 -82s-68.834 -83.334 -90.501 -140.001s-32.5 -117.334 -32.5 -182.001c0 -74.667 11.167 -142.334 33.5 -203.001s54.833 -110.334 97.5 -149.001
c32.667 -30 74.834 -55 126.501 -75s108.834 -30.333 171.501 -31z" />
    <glyph glyph-name="Chi" unicode="&#x3a7;" horiz-adv-x="1403" 
d="M1336 1489l-514 -736l513 -753h-229l-406 613l-416 -613h-216l519 744l-507 745h228l401 -605l410 605h217z" />
    <glyph glyph-name="Psi" unicode="&#x3a8;" horiz-adv-x="1783" 
d="M1604 910c0 -104.667 -13.499 -192.831 -40.499 -264.498s-66.167 -129.834 -117.5 -174.501c-53.333 -46 -117.5 -80.667 -192.5 -104s-162.833 -38.333 -263.5 -45v-322h-197v322c-102.667 7.33301 -191.667 23 -267 47s-138 58 -188 102
c-52 46 -91.5 104.667 -118.5 176s-40.5 159 -40.5 263v579h198v-602c0 -72.667 9.83301 -132.667 29.5 -180s46.834 -85.666 81.501 -114.999c35.333 -30 78.666 -52.833 129.999 -68.5s109.666 -25.834 174.999 -30.501v996h197v-996c64.667 5.33301 123 15.5 175 30.5
s95.667 37.833 131 68.5c37.333 32.667 65 71.167 83 115.5s27 104.166 27 179.499v602h198v-579z" />
    <glyph glyph-name="Omega" unicode="&#x3a9;" horiz-adv-x="1676" 
d="M1568 0h-575.996v387c40 25.333 79.833 52.666 119.5 81.999s74.167 63 103.5 101c30 39.333 53.667 85.5 71 138.5s26 114.833 26 185.5c0 137.333 -42.333 247.5 -127 330.5s-200.334 124.5 -347.001 124.5s-262.334 -41.5 -347.001 -124.5s-127 -193.167 -127 -330.5
c0 -70.667 8.66699 -132.5 26 -185.5s41 -99.167 71 -138.5c30 -38 64.667 -71.667 104 -101s79 -56.666 119 -81.999v-387h-576v174h410v124c-104.667 60 -190.834 142 -258.501 246s-101.5 220.667 -101.5 350c0 184 62.5 334.333 187.5 451s289.167 175 492.5 175
s367.5 -58.333 492.5 -175s187.5 -267 187.5 -451c0 -129.333 -33.833 -246 -101.5 -350s-153.834 -186 -258.501 -246v-124h410v-174z" />
    <glyph glyph-name="Iotadieresis" unicode="&#x3aa;" horiz-adv-x="862" 
d="M725 0h-588v152h195v1185h-195v152h588v-152h-195v-1185h195v-152zM738 1677h-199v195h199v-195zM325 1677h-199v195h199v-195z" />
    <glyph glyph-name="Upsilondieresis" unicode="&#x3ab;" horiz-adv-x="1260" 
d="M1254 1489l-524 -836v-653h-198v632l-526 857h219l407 -666l411 666h211zM939 1677h-199v195h199v-195zM526 1677h-199v195h199v-195z" />
    <glyph glyph-name="alphatonos" unicode="&#x3ac;" horiz-adv-x="1276" 
d="M1091 0l-187.999 -0.000976562v117c-54 -46.667 -110.333 -83 -169 -109s-122.334 -39 -191.001 -39c-133.333 0 -239.166 51.333 -317.499 154s-117.5 245 -117.5 427c0 94.667 13.5 179 40.5 253s63.5 137 109.5 189c45.333 50.667 98.166 89.334 158.499 116.001
s122.833 40 187.5 40c58.667 0 110.667 -7.33301 156 -22s93 -35 143 -61v52h188v-1117zM903.001 274.999v636c-50.667 22.667 -96 39.167 -136 49.5s-83.667 15.5 -131 15.5c-105.333 0 -187.333 -36.667 -246 -110s-88 -177.333 -88 -312
c0 -132.667 22.667 -233.5 68 -302.5s118 -103.5 218 -103.5c53.333 0 107.333 11.833 162 35.5s105.667 54.167 153 91.5zM743.001 1676l-49 -384h-145l-49 384h243z" />
    <glyph glyph-name="epsilontonos" unicode="&#x3ad;" horiz-adv-x="1050" 
d="M1006 64c-71.333 -32 -141.332 -55 -209.999 -69s-141.334 -21 -218.001 -21c-52.667 0 -106.334 5.33301 -161.001 16s-105.334 29.334 -152.001 56.001c-46 26 -83.5 60.167 -112.5 102.5s-43.5 94.833 -43.5 157.5c0 64 18.833 120 56.5 168
s96.834 84.667 177.501 110v7c-60.667 16 -109 46 -145 90s-54 96.667 -54 158c0 59.333 15.833 108.5 47.5 147.5s69.167 69.833 112.5 92.5c42.667 22 91 38.333 145 49s107.333 16 160 16c65.333 0 125.333 -5.5 180 -16.5s112 -25.833 172 -44.5v-207h-13
c-44 34 -98.5 60.333 -163.5 79s-130.833 28 -197.5 28c-30 0 -58 -1.83301 -84 -5.5s-53 -12.167 -81 -25.5c-23.333 -10 -43.5 -26.167 -60.5 -48.5s-25.5 -48.166 -25.5 -77.499c0 -40.667 9.33301 -72.334 28 -95.001s44 -39 76 -49c30 -9.33301 62.333 -14.5 97 -15.5
s69.667 -1.5 105 -1.5h111v-166h-158c-41.333 0 -78.666 -1.5 -111.999 -4.5s-64 -10.167 -92 -21.5c-27.333 -11.333 -49.166 -29.333 -65.499 -54s-24.5 -56.667 -24.5 -96c0 -35.333 8.66699 -65.333 26 -90s39.666 -44 66.999 -58
c24.667 -12.667 53.834 -22.334 87.501 -29.001s69.167 -10 106.5 -10c68 0 140.667 12 218 36s139.666 56.667 186.999 98h13v-206zM721.001 1676l-49 -384h-145l-49 384h243z" />
    <glyph glyph-name="etatonos" unicode="&#x3ae;" horiz-adv-x="1296" 
d="M1119 -412h-188.001v1048c0 51.333 -3 99.5 -9 144.5s-17 80.167 -33 105.5c-16.667 28 -40.667 48.833 -72 62.5s-72 20.5 -122 20.5c-51.333 0 -105 -12.667 -161 -38s-109.667 -57.666 -161 -96.999v-834h-188v1117h188v-124
c58.667 48.667 119.334 86.667 182.001 114s127 41 193 41c120.667 0 212.667 -36.333 276 -109s95 -177.334 95 -314.001v-1137zM801.999 1676l-49 -384h-145l-49 384h243z" />
    <glyph glyph-name="iotatonos" unicode="&#x3af;" horiz-adv-x="562" 
d="M375 0h-188v1117h188v-1117zM403 1676l-49 -384h-145l-49 384h243z" />
    <glyph glyph-name="upsilondieresistonos" unicode="&#x3b0;" horiz-adv-x="1293" 
d="M1116 407c0 -145.333 -40.667 -254.5 -122 -327.5s-197.333 -109.5 -348 -109.5c-148.667 0 -264 35.833 -346 107.5s-123 181.5 -123 329.5v710h188v-641c0 -62 3.33301 -113 10 -153s20.667 -75.333 42 -106c20.667 -28.667 48.834 -50.167 84.501 -64.5
s84.167 -21.5 145.5 -21.5c57.333 0 105.166 7.33301 143.499 22s67.5 36.667 87.5 66c19.333 29.333 32.5 64.5 39.5 105.5s10.5 91.5 10.5 151.5v641h188v-710zM760 1676l-49 -384h-128l-49 384h226zM1043 1304h-191v195h191v-195zM442 1304h-191v195h191v-195z" />
    <glyph glyph-name="alpha" unicode="&#x3b1;" horiz-adv-x="1276" 
d="M1091 0l-187.999 -0.000976562v117c-54 -46.667 -110.333 -83 -169 -109s-122.334 -39 -191.001 -39c-133.333 0 -239.166 51.333 -317.499 154s-117.5 245 -117.5 427c0 94.667 13.5 179 40.5 253s63.5 137 109.5 189c45.333 50.667 98.166 89.334 158.499 116.001
s122.833 40 187.5 40c58.667 0 110.667 -7.33301 156 -22s93 -35 143 -61v52h188v-1117zM903.001 274.999v636c-50.667 22.667 -96 39.167 -136 49.5s-83.667 15.5 -131 15.5c-105.333 0 -187.333 -36.667 -246 -110s-88 -177.333 -88 -312
c0 -132.667 22.667 -233.5 68 -302.5s118 -103.5 218 -103.5c53.333 0 107.333 11.833 162 35.5s105.667 54.167 153 91.5z" />
    <glyph glyph-name="beta" unicode="&#x3b2;" horiz-adv-x="1270" 
d="M1165 444c0 -134.667 -44.8311 -246.001 -134.498 -334.001s-202.834 -132 -339.501 -132c-52.667 0 -108.334 7.33301 -167.001 22s-109 36 -151 64v-476h-188v1490c0 149.333 42.167 266.333 126.5 351s200.833 127 349.5 127c60 0 114.833 -7.16699 164.5 -21.5
s94.167 -36.833 133.5 -67.5c38 -28.667 68.333 -66 91 -112s34 -99.333 34 -160c0 -84.667 -23.167 -158.5 -69.5 -221.5s-111.833 -106.833 -196.5 -131.5v-17c106 -17.333 190.333 -59.166 253 -125.499s94 -151.5 94 -255.5zM971.002 448.999
c0 59.333 -11.498 107.497 -34.498 144.497s-53.833 65.833 -92.5 86.5c-39.333 21.333 -83.333 35.666 -132 42.999s-97.334 11 -146.001 11h-36v160h36c44 0 87.667 4.83301 131 14.5s78 24.5 104 44.5c30.667 22.667 53.5 50.334 68.5 83.001s22.5 77.334 22.5 134.001
c0 74.667 -23 131.334 -69 170.001s-105.333 58 -178 58c-48.667 0 -90.334 -8.83301 -125.001 -26.5s-63 -41.167 -85 -70.5c-21.333 -29.333 -37 -63.5 -47 -102.5s-15 -79.167 -15 -120.5v-862c44 -25.333 91 -43.166 141 -53.499s99 -15.5 147 -15.5
c99.333 0 175.833 26.167 229.5 78.5s80.5 126.833 80.5 223.5z" />
    <glyph glyph-name="gamma" unicode="&#x3b3;" horiz-adv-x="1212" 
d="M1151 1117l-457 -1061v-468h-188v468l-445 1061h204l343 -828l346 828h197z" />
    <glyph glyph-name="delta" unicode="&#x3b4;" horiz-adv-x="1245" 
d="M1139 551c0 -181.333 -46.168 -323.666 -138.501 -426.999s-217.833 -155 -376.5 -155c-160.667 0 -287.167 50.5 -379.5 151.5s-138.5 238.833 -138.5 413.5c0 94 14.333 173.833 43 239.5s64.334 119.834 107.001 162.501c46 48 99 85.667 159 113
s120.667 46.666 182 57.999c-50.667 42 -106 85.5 -166 130.5l-192 139.5v179h810v-158h-561v-10l179 -124c74 -52 142 -106 204 -162c100 -90.667 169.667 -177.834 209 -261.501s59 -180.167 59 -289.5zM944.999 551c0 90 -18.333 173.001 -55 249.001
s-91.667 142.667 -165 200c-44 -5.33301 -90.167 -16 -138.5 -32s-94.5 -41.667 -138.5 -77c-42 -33.333 -77.167 -79 -105.5 -137s-42.5 -129.333 -42.5 -214c0 -134 28.333 -235.667 85 -305s137 -104 241 -104c102 0 180.667 35.167 236 105.5s83 175.166 83 314.499z
" />
    </font>
</defs>
</svg>
