<?xml version="1.0" standalone="no"?>
<!DOCTYPE svg PUBLIC "-//W3C//DTD SVG 1.1//EN" "http://www.w3.org/Graphics/SVG/1.1/DTD/svg11.dtd" >
<svg>
<metadata>
Created by FontForge 20090914 at Fri Feb 19 11:24:12 2016
 By www-data
&#194;&#169; 2012 Microsoft Corporation. All rights reserved.
</metadata>
<defs>
<font id="Verdana-Bold" horiz-adv-x="0" >
  <font-face 
    font-family="Verdana"
    font-weight="700"
    font-stretch="normal"
    units-per-em="2048"
    panose-1="2 11 8 4 3 5 4 4 2 4"
    ascent="1638"
    descent="-410"
    x-height="1123"
    cap-height="1489"
    bbox="-1126 -621 3496 2195"
    underline-thickness="211"
    underline-position="-34"
    unicode-range="U+0020-U+FFFD"
  />
<missing-glyph horiz-adv-x="2048" 
d="M256 0v1536h1536v-1536h-1536zM384 128h1280v1280h-1280v-1280z" />
    <glyph glyph-name=".notdef" horiz-adv-x="2048" 
d="M256 0v1536h1536v-1536h-1536zM384 128h1280v1280h-1280v-1280z" />
    <glyph glyph-name="space" unicode=" " horiz-adv-x="700" 
 />
    <glyph glyph-name="space" unicode="&#xa0;" horiz-adv-x="700" 
 />
    <glyph glyph-name="exclam" unicode="!" horiz-adv-x="824" 
d="M621 1489l-46 -1060h-326l-46 1060h418zM614 0h-404v264h404v-264z" />
    <glyph glyph-name="quotedbl" unicode="&#x22;" horiz-adv-x="1203" 
d="M1036 1556l-60 -589h-226l-60 589h346zM513 1556l-60 -589h-226l-60 589h346z" />
    <glyph glyph-name="numbersign" unicode="#" horiz-adv-x="1776" 
d="M1624 905h-316l-78 -311h282v-240h-342l-91 -354h-241l89 354h-264l-89 -354h-245l90 354h-270v240h330l77 311h-293v239h353l86 345h245l-86 -345h263l87 345h245l-87 -345h255v-239zM1068 907h-268l-80 -316h269z" />
    <glyph glyph-name="dollar" unicode="$" horiz-adv-x="1456" 
d="M1340 429c0 -112.667 -47.332 -209.332 -141.999 -289.999s-220.334 -126.334 -377.001 -137.001v-363h-174v357c-74.667 0.666992 -161 9.66699 -259 27s-174.667 39 -230 65v292h45c61.333 -33.333 131.833 -60 211.5 -80s158.834 -33 237.501 -39v274l-97 22
c-61.333 14 -117.833 30.333 -169.5 49s-96.167 43.334 -133.5 74.001s-66.333 68.5 -87 113.5s-31 100.5 -31 166.5c0 99.333 45.333 184.333 136 255s216.334 113.334 377.001 128.001v233h174v-231c61.333 -2.66699 133.166 -11.334 215.499 -26.001
s147.166 -31.667 194.499 -51v-288h-44c-47.333 27.333 -102.333 50 -165 68s-129.667 29.333 -201 34v-254l80 -16c150.667 -29.333 261.5 -73.833 332.5 -133.5s106.5 -142.834 106.5 -249.501zM663.001 850.002l-0.000976562 231.999
c-44 -3.33301 -83.5 -14.5 -118.5 -33.5s-52.5 -45.833 -52.5 -80.5c0 -31.333 11.333 -55.666 34 -72.999s68.334 -32.333 137.001 -45zM977 390.001c0 38.667 -17.833 67.5 -53.5 86.5s-71.167 31.167 -106.5 36.5v-248c44 6 81.667 18.833 113 38.5s47 48.5 47 86.5z" />
    <glyph glyph-name="percent" unicode="%" horiz-adv-x="2605" 
d="M1049 1036c0 -166 -38.332 -289.001 -114.999 -369.001s-188.334 -120 -335.001 -120c-151.333 0 -265.166 40.5 -341.499 121.5s-114.5 202.167 -114.5 363.5c0 164.667 39 286.834 117 366.501s191 119.5 339 119.5c149.333 0 261.666 -39.833 336.999 -119.5
s113 -200.5 113 -362.5zM1829 1489l-780 -1489h-269l780 1489h269zM2462 457.999c0 -166 -38.332 -289.001 -114.999 -369.001s-188.334 -120 -335.001 -120c-151.333 0 -265.166 40.5 -341.499 121.5s-114.5 202.167 -114.5 363.5c0 164.667 39 286.834 117 366.501
s191 119.5 339 119.5c149.333 0 261.666 -39.833 336.999 -119.5s113 -200.5 113 -362.5zM754.002 1033c0 106.667 -12.333 178.665 -37 215.998s-65 56 -121 56s-96.333 -18.667 -121 -56s-37 -109.666 -37 -216.999s12.333 -179.666 37 -216.999s65 -56 121 -56
s96.333 18.667 121 56s37 110 37 218zM2167 454.996c0 106.667 -12.333 178.665 -37 215.998s-65 56 -121 56s-96.333 -18.667 -121 -56s-37 -109.666 -37 -216.999s12.333 -179.666 37 -216.999s65 -56 121 -56s96.333 18.667 121 56s37 110 37 218z" />
    <glyph glyph-name="ampersand" unicode="&#x26;" horiz-adv-x="1766" 
d="M1802 0l-476 0.00195312l-139 126c-66.667 -52.667 -140.167 -92 -220.5 -118s-165.166 -39 -254.499 -39c-184 0 -328.5 42.5 -433.5 127.5s-157.5 195.833 -157.5 332.5c0 56.667 8.33301 106 25 148s38.667 79.667 66 113c26 32.667 56 60.667 90 84
s66.333 43.333 97 60c-28 20.667 -54.667 42.334 -80 65.001s-47.333 47.334 -66 74.001c-18 25.333 -32 53.666 -42 84.999s-15 66.666 -15 105.999c0 46.667 10 90.5 30 131.5s50 77.833 90 110.5c41.333 34 96.833 61.5 166.5 82.5s152.5 31.5 248.5 31.5
c80.667 0 152.667 -8 216 -24s116.666 -38.667 159.999 -68c40.667 -28 71.834 -61.833 93.501 -101.5s32.5 -82.5 32.5 -128.5c0 -30.667 -4.5 -64.334 -13.5 -101.001s-25.5 -71.334 -49.5 -104.001c-26 -34.667 -60.333 -67 -103 -97s-101 -56.667 -175 -80l306 -269v322
h373v-111c0 -78.667 -13.333 -154 -40 -226s-63.334 -131.667 -110.001 -179l381 -333v-20zM860 1154c0 34.667 -5.33496 62.166 -16.002 82.499s-23.667 35.833 -39 46.5c-16 10.667 -32.667 17.334 -50 20.001s-31.333 4 -42 4c-11.333 0 -24.166 -1.33301 -38.499 -4
s-30.166 -9.66699 -47.499 -21c-14 -9.33301 -26.333 -23.166 -37 -41.499s-16 -42.5 -16 -72.5c0 -39.333 16 -77.333 48 -114s73.667 -74.334 125 -113.001c37.333 29.333 65.5 61.833 84.5 97.5s28.5 74.167 28.5 115.5zM1011 295.001l-427.001 378.999
c-13.333 -13.333 -28.666 -37.166 -45.999 -71.499s-26 -72.5 -26 -114.5c0 -44.667 8.66699 -83.167 26 -115.5s38.666 -58.833 63.999 -79.5c26.667 -21.333 56.334 -37.333 89.001 -48s64.667 -16 96 -16c45.333 0 85.5 4.5 120.5 13.5s69.5 26.5 103.5 52.5z" />
    <glyph glyph-name="quotesingle" unicode="'" horiz-adv-x="680" 
d="M513 1556l-60 -589h-226l-60 589h346z" />
    <glyph glyph-name="parenleft" unicode="(" horiz-adv-x="1113" 
d="M947 -412h-376.998c-128 150 -222.833 304.333 -284.5 463s-92.5 332.334 -92.5 521.001s30.833 362.334 92.5 521.001s156.5 313 284.5 463h377v-29c-54 -48.667 -105.5 -103.834 -154.5 -165.501s-94.5 -133.834 -136.5 -216.501
c-40 -79.333 -72.5 -167.333 -97.5 -264s-37.5 -199.667 -37.5 -309c0 -114 12.167 -217.333 36.5 -310s57.166 -180.334 98.499 -263.001c40 -78.667 85.167 -150.167 135.5 -214.5s102.166 -120.166 155.499 -167.499v-29z" />
    <glyph glyph-name="parenright" unicode=")" horiz-adv-x="1113" 
d="M920 572c0 -188.667 -30.832 -362.335 -92.499 -521.002s-156.5 -313 -284.5 -463h-377v29c53.333 47.333 105.333 103 156 167s95.667 135.667 135 215c41.333 82.667 74.166 170.334 98.499 263.001s36.5 196 36.5 310c0 109.333 -12.5 212.333 -37.5 309
s-57.5 184.667 -97.5 264c-42 82.667 -87.5 154.834 -136.5 216.501s-100.5 116.834 -154.5 165.501v29h377c128 -150 222.833 -304.333 284.5 -463s92.5 -332.334 92.5 -521.001z" />
    <glyph glyph-name="asterisk" unicode="*" horiz-adv-x="1456" 
d="M1252 836l-111 -165l-320 218l11 -355h-213l8 346l-314 -210l-109 166l355 209l-354 211l108 167l313 -213l-7 346h212l-8 -347l317 211l111 -166l-358 -208z" />
    <glyph glyph-name="plus" unicode="+" horiz-adv-x="1776" 
d="M1558 528h-533v-528h-274v528h-533v268h533v528h274v-528h533v-268z" />
    <glyph glyph-name="comma" unicode="," horiz-adv-x="740" 
d="M618 393l-360 -763h-223l197 763h386z" />
    <glyph glyph-name="hyphen" unicode="-" horiz-adv-x="983" 
d="M873 518h-763v288h763v-288z" />
    <glyph glyph-name="hyphen" unicode="&#xad;" horiz-adv-x="983" 
d="M873 518h-763v288h763v-288z" />
    <glyph glyph-name="period" unicode="." horiz-adv-x="740" 
d="M557 0h-374v393h374v-393z" />
    <glyph glyph-name="slash" unicode="/" horiz-adv-x="1412" 
d="M1223 1556l-793 -1880h-307l790 1880h310z" />
    <glyph glyph-name="zero" unicode="0" horiz-adv-x="1456" 
d="M1344 745c0 -125.333 -11.333 -237.497 -34 -336.497s-58 -180.167 -106 -243.5c-49.333 -64.667 -112.666 -113.5 -189.999 -146.5s-172.666 -49.5 -285.999 -49.5c-111.333 0 -206.333 16.667 -285 50s-142.334 82.666 -191.001 147.999
c-49.333 65.333 -85 146.5 -107 243.5s-33 208.167 -33 333.5c0 129.333 11.333 241.666 34 336.999s58.667 176 108 242c49.333 65.333 113.333 114.333 192 147s172.667 49 282 49c114 0 209.667 -16.833 287 -50.5s140.666 -83.834 189.999 -150.501
c48.667 -65.333 84 -145.833 106 -241.5s33 -206.167 33 -331.5zM957 745.003c0 180 -17.667 308.166 -53 384.499s-94 114.5 -176 114.5s-140.667 -38.167 -176 -114.5s-53 -205.166 -53 -386.499c0 -176.667 18 -304 54 -382s94.333 -117 175 -117s139 39 175 117
s54 206 54 384z" />
    <glyph glyph-name="one" unicode="1" horiz-adv-x="1456" 
d="M1260 0l-994 -0.000976562v260h314v787h-314v243c48 0 94 2.83301 138 8.5s80.667 15.5 110 29.5c34.667 16.667 60.667 38.334 78 65.001s27.333 60 30 100h331v-1233h307v-260z" />
    <glyph glyph-name="two" unicode="2" horiz-adv-x="1456" 
d="M1354 0l-1169 -0.00488281v246c89.333 64.667 178.833 133.334 268.5 206.001s161.5 135.334 215.5 188.001c80.667 78 138 146 172 204s51 115.333 51 172c0 68 -21.833 120.5 -65.5 157.5s-106.5 55.5 -188.5 55.5c-61.333 0 -125.833 -12.667 -193.5 -38
s-130.5 -57.666 -188.5 -96.999h-32v331c47.333 20.667 117.166 41.334 209.499 62.001s184.833 31 277.5 31c186.667 0 329 -39.167 427 -117.5s147 -189.166 147 -332.499c0 -94 -23.5 -183.333 -70.5 -268s-118.833 -172 -215.5 -262
c-60.667 -56 -121.667 -107.5 -183 -154.5l-131 -98.5h669v-285z" />
    <glyph glyph-name="three" unicode="3" horiz-adv-x="1456" 
d="M1208 698c32.667 -28 58.6621 -60.666 77.9951 -97.999s29 -87 29 -149c0 -70 -13.833 -135.333 -41.5 -196s-70.167 -112.667 -127.5 -156c-56 -42 -121.833 -74.167 -197.5 -96.5s-167.5 -33.5 -275.5 -33.5c-123.333 0 -229.166 9.66699 -317.499 29
s-160.166 41 -215.499 65v327h39c57.333 -34.667 125.833 -64.667 205.5 -90s152.5 -38 218.5 -38c38.667 0 80.667 3.16699 126 9.5s83.666 20.166 114.999 41.499c24.667 16.667 44.334 36.834 59.001 60.501s22 57.834 22 102.501c0 43.333 -10 76.833 -30 100.5
s-46.333 40.5 -79 50.5c-32.667 10.667 -72 16.5 -118 17.5s-88.667 1.5 -128 1.5h-82v266h85c52 0 98 1.66699 138 5s74 11 102 23c29.333 12.667 51.333 29.5 66 50.5s22 51.833 22 92.5c0 30 -7.66699 54.167 -23 72.5s-34.666 32.833 -57.999 43.5
c-26 12 -56.667 20 -92 24s-65.666 6 -90.999 6c-62.667 0 -130.667 -10.833 -204 -32.5s-144.333 -52.834 -213 -93.501h-37v323c54.667 22 129 43.167 223 63.5s189.333 30.5 286 30.5c94 0 176.333 -8.16699 247 -24.5s129 -38.166 175 -65.499
c54.667 -32.667 95.334 -72.334 122.001 -119.001s40 -101.334 40 -164.001c0 -82.667 -25.667 -156.5 -77 -221.5s-119 -106.5 -203 -124.5v-14c34 -4.66699 70 -14 108 -28s72.667 -34.333 104 -61z" />
    <glyph glyph-name="four" unicode="4" horiz-adv-x="1456" 
d="M1375 343h-203v-347h-367v347h-721v282l697 864h391v-874h203v-272zM805 615v538l-433 -538h433z" />
    <glyph glyph-name="five" unicode="5" horiz-adv-x="1456" 
d="M1322 504c0 -77.333 -14.502 -149.169 -43.502 -215.502s-71.167 -123.166 -126.5 -170.499c-61.333 -50.667 -131.833 -88.167 -211.5 -112.5s-170.5 -36.5 -272.5 -36.5c-119.333 0.666992 -220.166 10.167 -302.499 28.5s-149.5 38.833 -201.5 61.5v329h42
c60.667 -36 126 -66 196 -90s139.667 -36 209 -36c42 0 87.5 4.83301 136.5 14.5s87.833 27.167 116.5 52.5c22.667 20.667 39.834 41.667 51.501 63s17.5 54.333 17.5 99c0 34.667 -7.83301 64.5 -23.5 89.5s-35.834 45.167 -60.501 60.5c-36 22 -79.333 36.5 -130 43.5
s-96.667 10.5 -138 10.5c-60 0 -117.5 -5.16699 -172.5 -15.5s-103.167 -20.5 -144.5 -30.5h-44v840h1059v-285h-698v-243c20.667 1.33301 46.834 2.5 78.501 3.5s59.5 1.5 83.5 1.5c82 0 155.167 -7.83301 219.5 -23.5s119.833 -37.5 166.5 -65.5
c60.667 -36.667 108 -85.167 142 -145.5s51 -136.166 51 -227.499z" />
    <glyph glyph-name="six" unicode="6" horiz-adv-x="1456" 
d="M1352 507c0 -76.667 -13.998 -148.668 -41.998 -216.001s-67.333 -124 -118 -170c-54 -49.333 -116.5 -87 -187.5 -113s-154.167 -39 -249.5 -39c-89.333 0 -170.833 12.167 -244.5 36.5s-136.834 61.5 -189.501 111.5c-60.667 57.333 -107 131.333 -139 222
s-48 199 -48 325c0 130.667 15 246.667 45 348s79 191 147 269c65.333 74.667 150.166 132.667 254.499 174s228.5 62 372.5 62c48.667 0 102 -3.33301 160 -10s95.667 -11.667 113 -15v-293h-38c-18 8.66699 -48.5 18.5 -91.5 29.5s-91.833 16.5 -146.5 16.5
c-128 0 -227.667 -31.333 -299 -94s-114.333 -150 -129 -262c51.333 30.667 105.5 55.5 162.5 74.5s118.5 28.5 184.5 28.5c58 0 111.833 -6.66699 161.5 -20s95.834 -34.666 138.501 -63.999c55.333 -38.667 99.666 -90.667 132.999 -156s50 -147 50 -245zM897.002 281.999
c20.667 22.667 37.1689 49.5 49.502 80.5s18.5 73.167 18.5 126.5c0 48.667 -7 88.5 -21 119.5s-33.333 55.833 -58 74.5c-24 18.667 -52.333 31.5 -85 38.5s-66.334 10.5 -101.001 10.5c-29.333 0 -60 -3.33301 -92 -10s-61.333 -15 -88 -25
c0 -6.66699 -0.333008 -17.667 -1 -33s-1 -34.666 -1 -57.999c0 -82 8.16699 -149.5 24.5 -202.5s38.166 -93.5 65.499 -121.5c18.667 -20.667 40.667 -35.834 66 -45.501s52.666 -14.5 81.999 -14.5c22 0 46.333 5 73 15s49.334 25 68.001 45z" />
    <glyph glyph-name="seven" unicode="7" horiz-adv-x="1456" 
d="M1323 1193l-674 -1193h-428l700 1204h-765v285h1167v-296z" />
    <glyph glyph-name="eight" unicode="8" horiz-adv-x="1456" 
d="M1357 416c0 -132 -56.165 -240.001 -168.498 -324.001s-266.5 -126 -462.5 -126c-110 0 -204.333 11.333 -283 34s-143.667 54 -195 94c-50.667 39.333 -88.167 85.333 -112.5 138s-36.5 109.334 -36.5 170.001c0 74.667 21.833 140.834 65.5 198.501
s119.167 108.167 226.5 151.5v6c-86.667 40 -150.334 90.333 -191.001 151s-61 131 -61 211c0 118 54.667 214.667 164 290s251.666 113 426.999 113c184 0 328.167 -34.167 432.5 -102.5s156.5 -159.5 156.5 -273.5c0 -70.667 -22 -133.667 -66 -189
s-111.333 -102.333 -202 -141v-6c104 -39.333 181 -92.333 231 -159s75 -145.334 75 -236.001zM944.002 1104c0 50.667 -19.5 90.999 -58.5 120.999s-90.833 45 -155.5 45c-24 0 -48.5 -3 -73.5 -9s-47.833 -14.667 -68.5 -26c-19.333 -11.333 -35.333 -26.166 -48 -44.499
s-19 -39.166 -19 -62.499c0 -39.333 11.167 -70 33.5 -92s58.833 -44 109.5 -66c18.667 -8 44.167 -17.833 76.5 -29.5s71.5 -24.834 117.5 -39.501c30.667 36 52.667 68.333 66 97s20 64 20 106zM975.002 398.998c0 48 -12.001 84.334 -36.001 109.001s-73.333 53 -148 85
c-22 10 -54 22.333 -96 37l-106 38c-28.667 -26 -54.5 -57.5 -77.5 -94.5s-34.5 -78.5 -34.5 -124.5c0 -69.333 24.833 -124.5 74.5 -165.5s114.5 -61.5 194.5 -61.5c21.333 0 46.333 3.16699 75 9.5s53.334 16.166 74.001 29.499c24 15.333 43.333 33.333 58 54
s22 48.667 22 84z" />
    <glyph glyph-name="nine" unicode="9" horiz-adv-x="1456" 
d="M1322 828c0 -124.667 -16.001 -240.667 -48.001 -348s-80.667 -197.666 -146 -270.999c-70.667 -79.333 -158.334 -138.833 -263.001 -178.5s-226.667 -59.5 -366 -59.5c-49.333 0 -102.666 3 -159.999 9s-95 11.333 -113 16v293h40c20 -9.33301 48.5 -19.333 85.5 -30
s87.5 -16 151.5 -16c52 0 103 6.5 153 19.5s93 33.5 129 61.5c39.333 30 71.666 67.5 96.999 112.5s42.333 99.167 51 162.5c-58 -33.333 -111.833 -58.833 -161.5 -76.5s-111.5 -26.5 -185.5 -26.5c-56 0 -109.5 6.83301 -160.5 20.5s-97.5 34.834 -139.5 63.501
c-55.333 39.333 -99.5 91.166 -132.5 155.499s-49.5 145.5 -49.5 243.5c0 159.333 55.5 289.166 166.5 389.499s256.5 150.5 436.5 150.5c92.667 0 174.834 -12.167 246.501 -36.5s133.5 -61.5 185.5 -111.5c60.667 -57.333 106.334 -130.333 137.001 -219
s46 -196.667 46 -324zM938.999 884c0 81.333 -7.83301 148.17 -23.5 200.503s-37.167 92.833 -64.5 121.5c-19.333 21.333 -41.666 36.666 -66.999 45.999s-52 14 -80 14c-26 0 -50.833 -4.5 -74.5 -13.5s-46.5 -24.5 -68.5 -46.5c-20.667 -21.333 -37.5 -49.333 -50.5 -84
s-19.5 -76 -19.5 -124c0 -46.667 7 -85.834 21 -117.501s33.333 -56.834 58 -75.501c23.333 -18 50.833 -30.667 82.5 -38s66.167 -11 103.5 -11c30 0 62.667 3.83301 98 11.5s62.666 15.5 81.999 23.5c0 7.33301 0.5 17.833 1.5 31.5s1.5 34.167 1.5 61.5z" />
    <glyph glyph-name="colon" unicode=":" horiz-adv-x="824" 
d="M599 730h-374v393h374v-393zM599 0h-374v393h374v-393z" />
    <glyph glyph-name="semicolon" unicode=";" horiz-adv-x="824" 
d="M599 730h-374v393h374v-393zM660 393l-360 -763h-223l197 763h386z" />
    <glyph glyph-name="semicolon" unicode="&#x37e;" horiz-adv-x="824" 
d="M599 730h-374v393h374v-393zM660 393l-360 -763h-223l197 763h386z" />
    <glyph glyph-name="less" unicode="&#x3c;" horiz-adv-x="1776" 
d="M1540 -7l-1336 555v228l1336 555v-287l-935 -383l935 -381v-287z" />
    <glyph glyph-name="equal" unicode="=" horiz-adv-x="1776" 
d="M1527 791h-1278v268h1278v-268zM1527 265h-1278v268h1278v-268z" />
    <glyph glyph-name="greater" unicode="&#x3e;" horiz-adv-x="1776" 
d="M1572 548l-1336 -555v287l935 382l-935 382v287l1336 -555v-228z" />
    <glyph glyph-name="question" unicode="?" horiz-adv-x="1263" 
d="M1151 1125c0 -67.333 -9.83398 -126.832 -29.501 -178.499s-47.5 -96.5 -83.5 -134.5s-79.167 -72 -129.5 -102s-107.166 -57.333 -170.499 -82v-228h-352v337c47.333 12.667 90.166 25.667 128.499 39s78.5 35 120.5 65c39.333 26.667 70.166 57.667 92.499 93
s33.5 75.333 33.5 120c0 66.667 -21.5 114.167 -64.5 142.5s-103.5 42.5 -181.5 42.5c-48 0 -102.167 -10.333 -162.5 -31s-115.5 -47.334 -165.5 -80.001h-40v305c42.667 18 108.334 36.833 197.001 56.5s178.667 29.5 270 29.5c164.667 0 295.334 -36.333 392.001 -109
s145 -167.667 145 -285zM765.999 0.000976562h-404v264h404v-264z" />
    <glyph glyph-name="at" unicode="@" horiz-adv-x="1974" 
d="M1589 1282c74.667 -74.667 133.165 -164.176 175.498 -268.509s63.5 -221.166 63.5 -350.499c0 -93.333 -13.333 -188.166 -40 -284.499s-60 -176.166 -100 -239.499h-506l-16 78c-38 -25.333 -74.667 -45.5 -110 -60.5s-86.333 -22.5 -153 -22.5
c-108.667 0 -196.667 44.833 -264 134.5s-101 210.5 -101 362.5c0 81.333 11.333 152.5 34 213.5s53.667 114.167 93 159.5c36.667 42.667 81 76 133 100s103.667 36 155 36c44 0 83 -8.16699 117 -24.5s60.333 -33.5 79 -51.5v62h232v-816h170
c24 52.667 41.833 109.834 53.5 171.501s17.5 120.834 17.5 177.501c0 112.667 -15.667 211.5 -47 296.5s-74.666 155.5 -129.999 211.5c-56.667 57.333 -123 100 -199 128s-158.333 42 -247 42c-84.667 0 -165.167 -16.667 -241.5 -50s-143.5 -78.333 -201.5 -135
c-59.333 -58 -107.5 -130.667 -144.5 -218s-55.5 -183 -55.5 -287c0 -113.333 17.5 -213.666 52.5 -300.999s81.5 -160 139.5 -218c58 -57.333 125.333 -101 202 -131s157.667 -45 243 -45c56.667 0 121.167 5.16699 193.5 15.5s136.5 23.833 192.5 40.5v-194
c-62 -14 -123.667 -24.667 -185 -32s-128.333 -11 -201 -11c-122 0 -234.833 21 -338.5 63s-193.5 101.667 -269.5 179c-75.333 76.667 -134.166 169.334 -176.499 278.001s-63.5 227.334 -63.5 356.001c0 124 22 238.833 66 344.5s104.667 197.834 182 276.501
c75.333 77.333 165.5 138.333 270.5 183s216.5 67 334.5 67c117.333 0 226.833 -20.667 328.5 -62s189.167 -99.333 262.5 -174zM1144 403.991l-0.00195312 504c-27.333 14 -52.666 24.167 -75.999 30.5s-49.666 9.5 -78.999 9.5c-64 0 -113.333 -28 -148 -84
s-52 -132.667 -52 -230c0 -105.333 14.333 -183.333 43 -234s76 -76 142 -76c34.667 0 65 6.83301 91 20.5s52.333 33.5 79 59.5z" />
    <glyph glyph-name="A" unicode="A" horiz-adv-x="1590" 
d="M1566 0h-397l-103 301h-552l-103 -301h-387l550 1489h442zM973 574l-183 534l-183 -534h366z" />
    <glyph glyph-name="B" unicode="B" horiz-adv-x="1560" 
d="M1464 456c0 -72 -14.502 -136.333 -43.502 -193s-68.833 -103.667 -119.5 -141c-58.667 -44 -123.167 -75.333 -193.5 -94s-159.5 -28 -267.5 -28h-650v1489h578c120 0 207.833 -4 263.5 -12s110.834 -25.667 165.501 -53c56.667 -28.667 98.834 -67.167 126.501 -115.5
s41.5 -103.5 41.5 -165.5c0 -72 -19 -135.5 -57 -190.5s-91.667 -97.833 -161 -128.5v-8c97.333 -19.333 174.5 -59.333 231.5 -120s85.5 -140.667 85.5 -240zM971.998 1068c0 24.667 -6.1709 49.334 -18.5039 74.001s-34.166 43 -65.499 55
c-28 10.667 -62.833 16.5 -104.5 17.5s-100.167 1.5 -175.5 1.5h-36v-315h60c60.667 0 112.334 1 155.001 3s76.334 8.66699 101.001 20c34.667 15.333 57.334 35.166 68.001 59.499s16 52.5 16 84.5zM1065.99 462c0 47.333 -9.16699 83.8291 -27.5 109.496
s-49.5 44.834 -93.5 57.501c-30 8.66699 -71.333 13.334 -124 14.001s-107.667 1 -165 1h-84v-371h28c108 0 185.333 0.333008 232 1s89.667 9.33398 129 26.001c40 16.667 67.5 38.834 82.5 66.501s22.5 59.5 22.5 95.5z" />
    <glyph glyph-name="C" unicode="C" horiz-adv-x="1482" 
d="M863 -29c-110.667 0 -212.831 16.333 -306.498 49s-174.167 81.334 -241.5 146.001s-119.5 145.334 -156.5 242.001s-55.5 208.334 -55.5 335.001c0 118 17.667 225 53 321s86.666 178.333 153.999 247c64.667 66 144.834 117 240.501 153s200.167 54 313.5 54
c62.667 0 119.167 -3.5 169.5 -10.5s96.833 -16.167 139.5 -27.5c44.667 -12.667 85.167 -26.834 121.5 -42.501s68.166 -30.167 95.499 -43.5v-361h-44c-18.667 16 -42.167 35 -70.5 57s-60.5 43.667 -96.5 65c-36.667 21.333 -76.334 39.333 -119.001 54
s-88.334 22 -137.001 22c-54 0 -105.333 -8.5 -154 -25.5s-93.667 -45.167 -135 -84.5c-39.333 -38 -71.166 -88.333 -95.499 -151s-36.5 -138.667 -36.5 -228c0 -93.333 13.167 -171.333 39.5 -234s59.5 -112 99.5 -148c40.667 -36.667 86 -62.834 136 -78.501
s99.333 -23.5 148 -23.5c46.667 0 92.834 7 138.501 21s87.834 33 126.501 57c32.667 19.333 63 40 91 62s51 41 69 57h40v-356l-107 -47c-34 -14.667 -69.667 -27.334 -107 -38.001c-48.667 -14 -94.334 -24.667 -137.001 -32s-101.334 -11 -176.001 -11z" />
    <glyph glyph-name="D" unicode="D" horiz-adv-x="1700" 
d="M1597 743c0 -138.667 -31.665 -262.833 -94.998 -372.5s-143.333 -193.834 -240 -252.501c-72.667 -44 -152.334 -74.667 -239.001 -92s-189.334 -26 -308.001 -26h-525v1489h540c121.333 0 226 -10.167 314 -30.5s162 -49.166 222 -86.499
c102.667 -62.667 183.5 -147.167 242.5 -253.5s88.5 -231.5 88.5 -375.5zM1200 746.001c0 98 -17.834 181.833 -53.501 251.5s-92.167 124.167 -169.5 163.5c-39.333 19.333 -79.5 32.5 -120.5 39.5s-102.833 10.5 -185.5 10.5h-97v-932h97
c91.333 0 158.333 4.16699 201 12.5s84.334 23.5 125.001 45.5c70 40 121.333 93.5 154 160.5s49 149.833 49 248.5z" />
    <glyph glyph-name="E" unicode="E" horiz-adv-x="1399" 
d="M1267 0h-1077v1489h1077v-288h-695v-257h645v-288h-645v-368h695v-288z" />
    <glyph glyph-name="F" unicode="F" horiz-adv-x="1332" 
d="M1257 1201h-685v-277h635v-288h-635v-636h-382v1489h1067v-288z" />
    <glyph glyph-name="G" unicode="G" horiz-adv-x="1661" 
d="M1507 85c-66.667 -26 -155.004 -51.8311 -265.004 -77.498s-219.667 -38.5 -329 -38.5c-253.333 0 -451.666 68.833 -594.999 206.5s-215 327.834 -215 570.501c0 231.333 72.333 417.833 217 559.5s346.334 212.5 605.001 212.5c98 0 191.333 -8.83301 280 -26.5
s187.334 -52.834 296.001 -105.501v-349h-43l-82 59.5c-36 25.667 -70.667 47.5 -104 65.5c-38.667 21.333 -83.834 39.666 -135.501 54.999s-106.5 23 -164.5 23c-68 0 -129.667 -10 -185 -30s-105 -50.667 -149 -92c-42 -40 -75.167 -90.833 -99.5 -152.5
s-36.5 -132.834 -36.5 -213.501c0 -164.667 43.667 -290.667 131 -378s216.333 -131 387 -131c14.667 0 30.834 0.333008 48.501 1s33.834 1.66699 48.501 3v292h-297v281h687v-735z" />
    <glyph glyph-name="H" unicode="H" horiz-adv-x="1715" 
d="M1525 0h-384v656h-567v-656h-384v1489h384v-545h567v545h384v-1489z" />
    <glyph glyph-name="I" unicode="I" horiz-adv-x="1118" 
d="M995 0h-872v264h244v961h-244v264h872v-264h-244v-961h244v-264z" />
    <glyph glyph-name="J" unicode="J" horiz-adv-x="1137" 
d="M966 437c0 -65.333 -11.665 -126.5 -34.998 -183.5s-58 -105.167 -104 -144.5c-48.667 -42 -107.334 -74.5 -176.001 -97.5s-153.667 -34.5 -255 -34.5c-68.667 0 -133.334 2.5 -194.001 7.5s-114 12.167 -160 21.5v302h36c32 -12 65.333 -23.167 100 -33.5
s79 -15.5 133 -15.5c70 0 123.833 9.33301 161.5 28s64.5 44.667 80.5 78c15.333 32.667 24 68.5 26 107.5s3 88.833 3 149.5v593h-341v274h725v-1052z" />
    <glyph glyph-name="K" unicode="K" horiz-adv-x="1579" 
d="M1580 0h-471l-445 596l-90 -109v-487h-384v1489h384v-674l532 674h445l-582 -689z" />
    <glyph glyph-name="L" unicode="L" horiz-adv-x="1305" 
d="M1264 0h-1074v1489h384v-1201h690v-288z" />
    <glyph glyph-name="M" unicode="M" horiz-adv-x="1941" 
d="M1751 0h-382v997l-276 -647h-265l-276 647v-997h-362v1489h446l335 -747l334 747h446v-1489z" />
    <glyph glyph-name="N" unicode="N" horiz-adv-x="1734" 
d="M1544 0h-370l-632 1022v-1022h-352v1489h459l543 -853v853h352v-1489z" />
    <glyph glyph-name="O" unicode="O" horiz-adv-x="1741" 
d="M1638 744c0 -237.333 -68.001 -425.833 -204.001 -565.5s-324 -209.5 -564 -209.5c-239.333 0 -427 69.833 -563 209.5s-204 328.167 -204 565.5c0 239.333 68 428.5 204 567.5s323.667 208.5 563 208.5c238.667 0 426.334 -69.5 563.001 -208.5s205 -328.167 205 -567.5
zM1129 367c37.333 45.333 65.001 98.832 83.001 160.499s27 134.167 27 217.5c0 89.333 -10.333 165.333 -31 228s-47.667 113.334 -81 152.001c-34 40 -73.167 69 -117.5 87s-90.5 27 -138.5 27c-48.667 0 -94.5 -8.66699 -137.5 -26s-82.5 -46 -118.5 -86
c-33.333 -37.333 -60.5 -88.833 -81.5 -154.5s-31.5 -141.834 -31.5 -228.501c0 -88.667 10.167 -164.167 30.5 -226.5s47.166 -113.166 80.499 -152.499s72.333 -68.333 117 -87s91.667 -28 141 -28s96.333 9.5 141 28.5s83.667 48.5 117 88.5z" />
    <glyph glyph-name="P" unicode="P" horiz-adv-x="1501" 
d="M1419 1019c0 -66.667 -11.668 -131.834 -35.001 -195.501s-56.666 -117.167 -99.999 -160.5c-59.333 -58.667 -125.5 -103 -198.5 -133s-163.833 -45 -272.5 -45h-239v-485h-384v1489h632c94.667 0 174.5 -8.16699 239.5 -24.5s122.5 -40.833 172.5 -73.5
c60 -39.333 105.833 -89.666 137.5 -150.999s47.5 -135 47.5 -221zM1022 1010c0 42 -11.332 78.166 -33.999 108.499s-49 51.5 -79 63.5c-40 16 -79 24.833 -117 26.5s-88.667 2.5 -152 2.5h-66v-446h110c65.333 0 119.166 4 161.499 12s77.833 24 106.5 48
c24.667 21.333 42.5 46.833 53.5 76.5s16.5 65.834 16.5 108.501z" />
    <glyph glyph-name="Q" unicode="Q" horiz-adv-x="1741" 
d="M1129 367c37.333 45.333 65.001 98.832 83.001 160.499s27 134.167 27 217.5c0 89.333 -10.333 165.333 -31 228s-47.667 113.334 -81 152.001c-34 40 -73.167 69 -117.5 87s-90.5 27 -138.5 27c-48.667 0 -94.5 -8.66699 -137.5 -26s-82.5 -46 -118.5 -86
c-33.333 -37.333 -60.5 -88.833 -81.5 -154.5s-31.5 -141.834 -31.5 -228.501c0 -88.667 10.167 -164.167 30.5 -226.5s47.166 -113.166 80.499 -152.499s72.333 -68.333 117 -87s91.667 -28 141 -28s96.333 9.5 141 28.5s83.667 48.5 117 88.5zM1170 17.999
c2.66699 -66 20.666 -113.331 53.999 -141.998s90.333 -43 171 -43c27.333 0 59.666 4.66699 96.999 14s63.333 17.666 78 24.999h38v-264c-37.333 -8.66699 -77.833 -16.334 -121.5 -23.001s-110.5 -10 -200.5 -10c-79.333 0 -148.5 9.83301 -207.5 29.5
s-108.167 47.5 -147.5 83.5c-38.667 35.333 -67.667 77 -87 125s-30.666 101.333 -33.999 160c-222.667 12.667 -396.167 87.167 -520.5 223.5s-186.5 318.833 -186.5 547.5c0 239.333 68 428.5 204 567.5s323.667 208.5 563 208.5c238.667 0 426.334 -69.5 563.001 -208.5
s205 -328.167 205 -567.5c0 -176.667 -40 -329.167 -120 -457.5s-196 -217.833 -348 -268.5z" />
    <glyph glyph-name="R" unicode="R" horiz-adv-x="1602" 
d="M1025 1033c0 37.333 -7.66699 69.333 -23 96s-41.666 47.667 -78.999 63c-26 10.667 -56.333 17.167 -91 19.5s-75 3.5 -121 3.5h-139v-401h118c61.333 0 112.666 3 153.999 9s76 19.667 104 41c26.667 20.667 46.167 43.5 58.5 68.5s18.5 58.5 18.5 100.5zM1624 0
h-468.999l-406 546h-177v-546h-382v1489h644c88 0 163.667 -5 227 -15s122.666 -31.667 177.999 -65c56 -33.333 100.5 -76.5 133.5 -129.5s49.5 -119.5 49.5 -199.5c0 -110 -25.5 -199.667 -76.5 -269s-123.833 -127 -218.5 -173z" />
    <glyph glyph-name="S" unicode="S" horiz-adv-x="1455" 
d="M1382 468c0 -146.667 -62.166 -265.837 -186.499 -357.504s-293.166 -137.5 -506.499 -137.5c-123.333 0 -230.833 10.833 -322.5 32.5s-177.5 49.167 -257.5 82.5v357h42c79.333 -63.333 168.166 -112 266.499 -146s192.833 -51 283.5 -51c23.333 0 54 2 92 6
s69 10.667 93 20c29.333 12 53.5 27 72.5 45s28.5 44.667 28.5 80c0 32.667 -13.833 60.834 -41.5 84.501s-68.167 41.834 -121.5 54.501c-56 13.333 -115.167 25.833 -177.5 37.5s-120.833 26.5 -175.5 44.5c-125.333 40.667 -215.5 95.834 -270.5 165.501
s-82.5 156.167 -82.5 259.5c0 138.667 62.167 251.834 186.5 339.501s284.166 131.5 479.499 131.5c98 0 194.833 -9.5 290.5 -28.5s178.5 -42.833 248.5 -71.5v-343h-41c-60 48 -133.5 88.167 -220.5 120.5s-175.833 48.5 -266.5 48.5c-32 0 -63.833 -2.16699 -95.5 -6.5
s-62.167 -12.5 -91.5 -24.5c-26 -10 -48.333 -25.167 -67 -45.5s-28 -43.5 -28 -69.5c0 -39.333 15 -69.5 45 -90.5s86.667 -40.167 170 -57.5l157.5 -33c50.333 -10.667 104.5 -25.334 162.5 -44.001c114 -37.333 198.167 -88.166 252.5 -152.499
s81.5 -147.833 81.5 -250.5z" />
    <glyph glyph-name="T" unicode="T" horiz-adv-x="1396" 
d="M1355 1201h-465v-1201h-384v1201h-465v288h1314v-288z" />
    <glyph glyph-name="U" unicode="U" horiz-adv-x="1663" 
d="M1494 539c0 -184 -55.999 -325 -167.999 -423s-277 -147 -495 -147s-382.833 49 -494.5 147s-167.5 238.667 -167.5 422v951h386v-929c0 -103.333 21.667 -180.333 65 -231s113.666 -76 210.999 -76c96 0 166.167 24.333 210.5 73s66.5 126.667 66.5 234v929h386v-950z
" />
    <glyph glyph-name="V" unicode="V" horiz-adv-x="1564" 
d="M1540 1489l-543 -1489h-430l-543 1489h403l360 -1046l360 1046h393z" />
    <glyph glyph-name="W" unicode="W" horiz-adv-x="2311" 
d="M2245 1489l-401 -1489h-425l-267 970l-260 -970h-425l-401 1489h401l229 -1025l274 1025h383l261 -1025l240 1025h391z" />
    <glyph glyph-name="X" unicode="X" horiz-adv-x="1564" 
d="M1540 0h-444l-321 490l-327 -490h-424l528 750l-517 739h443l310 -464l319 464h425l-520 -724z" />
    <glyph glyph-name="Y" unicode="Y" horiz-adv-x="1509" 
d="M1500 1489l-549 -913v-576h-384v558l-558 931h436l322 -576l311 576h422z" />
    <glyph glyph-name="Z" unicode="Z" horiz-adv-x="1417" 
d="M1341 0h-1251v279l742 922h-706v288h1175v-284l-741 -917h781v-288z" />
    <glyph glyph-name="bracketleft" unicode="[" horiz-adv-x="1113" 
d="M916 -392h-668v1948h668v-240h-355v-1468h355v-240z" />
    <glyph glyph-name="backslash" unicode="\" horiz-adv-x="1412" 
d="M1289 -324h-307l-793 1880h310z" />
    <glyph glyph-name="bracketright" unicode="]" horiz-adv-x="1113" 
d="M866 -392h-668v240h355v1468h-355v240h668v-1948z" />
    <glyph glyph-name="asciicircum" unicode="^" horiz-adv-x="1776" 
d="M1580 642h-320l-388 567l-357 -569h-318l550 849h249z" />
    <glyph glyph-name="underscore" unicode="_" horiz-adv-x="1456" 
d="M1472 -350h-1488v211h1488v-211z" />
    <glyph glyph-name="grave" unicode="`" horiz-adv-x="1456" 
d="M972 1283h-246l-352 373v20h351z" />
    <glyph glyph-name="a" unicode="a" horiz-adv-x="1368" 
d="M850 293l0.00292969 233.999c-48.667 -4 -101.334 -9.5 -158.001 -16.5s-99.667 -15.167 -129 -24.5c-36 -11.333 -63.5 -27.833 -82.5 -49.5s-28.5 -50.167 -28.5 -85.5c0 -23.333 2 -42.333 6 -57s14 -28.667 30 -42c15.333 -13.333 33.666 -23.166 54.999 -29.499
s54.666 -9.5 99.999 -9.5c36 0 72.5 7.33301 109.5 22s69.5 34 97.5 58zM850.003 118.999l-72.002 -53c-28.667 -20.667 -55.667 -37 -81 -49c-35.333 -16 -72 -27.833 -110 -35.5s-79.667 -11.5 -125 -11.5c-106.667 0 -196 33 -268 99s-108 150.333 -108 253
c0 82 18.333 149 55 201s88.667 93 156 123c66.667 30 149.334 51.333 248.001 64s201 22 307 28v6c0 62 -25.333 104.833 -76 128.5s-125.334 35.5 -224.001 35.5c-59.333 0 -122.666 -10.5 -189.999 -31.5s-115.666 -37.167 -144.999 -48.5h-33v271
c38 10 99.833 21.833 185.5 35.5s171.5 20.5 257.5 20.5c204.667 0 352.5 -31.5 443.5 -94.5s136.5 -161.833 136.5 -296.5v-764h-357v119z" />
    <glyph glyph-name="b" unicode="b" horiz-adv-x="1432" 
d="M1342 577c0 -176.667 -48.833 -320.666 -146.5 -431.999s-219.5 -167 -365.5 -167c-62.667 0 -117.667 6.66699 -165 20s-92.333 32.666 -135 57.999l-15 -56h-345v1556h360v-550c55.333 44 111.833 79.667 169.5 107s124.167 41 199.5 41
c142 0 251.333 -51.167 328 -153.5s115 -243.5 115 -423.5zM971 570.001c0 100 -17 176.998 -51 230.998s-94.667 81 -182 81c-34 0 -69 -5.16699 -105 -15.5s-70.333 -25.166 -103 -44.499v-564c26 -9.33301 50.667 -15.666 74 -18.999s51.333 -5 84 -5
c95.333 0 166.333 28 213 84s70 140 70 252z" />
    <glyph glyph-name="c" unicode="c" horiz-adv-x="1205" 
d="M755 -30c-98 0 -187.496 11.668 -268.496 35.001s-151.5 59.333 -211.5 108c-59.333 48.667 -105.333 110 -138 184s-49 160.667 -49 260c0 104.667 17.5 195 52.5 271s83.833 139 146.5 189c60.667 47.333 130.667 82 210 104s161.666 33 246.999 33
c76.667 0 147.334 -8.33301 212.001 -25s125 -38.334 181 -65.001v-307h-51l-50.5 42c-19.667 16 -43.834 31.667 -72.501 47c-27.333 14.667 -57.333 26.834 -90 36.501s-70.667 14.5 -114 14.5c-96 0 -169.833 -30.5 -221.5 -91.5s-77.5 -143.833 -77.5 -248.5
c0 -108 26.5 -190 79.5 -246s128.167 -84 225.5 -84c45.333 0 86.166 5.16699 122.499 15.5s66.5 22.5 90.5 36.5c22.667 13.333 42.667 27.333 60 42s33.333 29 48 43h51v-307c-56.667 -26.667 -115.834 -47.834 -177.501 -63.501s-129.834 -23.5 -204.501 -23.5z" />
    <glyph glyph-name="d" unicode="d" horiz-adv-x="1432" 
d="M1262 0l-360.001 -0.000976562v117c-62 -50.667 -120 -88 -174 -112s-116.333 -36 -187 -36c-136.667 0 -246 52.667 -328 158s-123 247.333 -123 426c0 95.333 13.833 179.833 41.5 253.5s65.5 136.834 113.5 189.501c45.333 50 100.333 88.833 165 116.5
s129.334 41.5 194.001 41.5c67.333 0 122.5 -7.16699 165.5 -21.5s87.167 -32.5 132.5 -54.5v478h360v-1556zM901.999 309.999l-0.000976562 550.999c-25.333 10.667 -52 18.334 -80 23.001s-53.667 7 -77 7c-94.667 0 -165.667 -29.5 -213 -88.5s-71 -140.833 -71 -245.5
c0 -110 19 -189.833 57 -239.5s99 -74.5 183 -74.5c32.667 0 67.334 6.16699 104.001 18.5s69 28.5 97 48.5z" />
    <glyph glyph-name="e" unicode="e" horiz-adv-x="1360" 
d="M1276 495l-823.999 0.00292969c5.33301 -88 38.833 -155.333 100.5 -202s152.5 -70 272.5 -70c76 0 149.667 13.667 221 41s127.666 56.666 168.999 87.999h40v-289c-81.333 -32.667 -158 -56.334 -230 -71.001s-151.667 -22 -239 -22c-225.333 0 -398 50.667 -518 152
s-180 245.666 -180 432.999c0 185.333 56.833 332.166 170.5 440.499s269.5 162.5 467.5 162.5c182.667 0 320 -46.167 412 -138.5s138 -225.166 138 -398.499v-126zM918.001 706.003c-2 75.333 -20.667 132 -56 170s-90.333 57 -165 57c-69.333 0 -126.333 -18 -171 -54
s-69.667 -93.667 -75 -173h467z" />
    <glyph glyph-name="f" unicode="f" horiz-adv-x="865" 
d="M898 1292h-26.998c-16 4.66699 -36.833 10 -62.5 16s-53.167 9 -82.5 9c-70.667 0 -118.5 -12.667 -143.5 -38s-37.5 -74.333 -37.5 -147v-9h278v-244h-266v-879h-360v879h-154v244h154v31c0 137.333 36.5 240.333 109.5 309s183.5 103 331.5 103
c53.333 0 101.666 -1.83301 144.999 -5.5s81.666 -8.5 114.999 -14.5v-254z" />
    <glyph glyph-name="g" unicode="g" horiz-adv-x="1432" 
d="M1262 129c0 -105.333 -15.002 -194.001 -45.002 -266.001s-72 -128.333 -126 -169c-54 -41.333 -119.167 -71.166 -195.5 -89.499s-162.5 -27.5 -258.5 -27.5c-78 0 -154.833 4.66699 -230.5 14s-141.167 20.666 -196.5 33.999v281h44
c44 -17.333 97.667 -33.166 161 -47.499s120 -21.5 170 -21.5c66.667 0 120.834 6.16699 162.501 18.5s73.5 29.833 95.5 52.5c20.667 21.333 35.667 48.666 45 81.999s14 73.333 14 120v21c-43.333 -35.333 -91.333 -63.333 -144 -84s-111.334 -31 -176.001 -31
c-157.333 0 -278.666 47.333 -363.999 142s-128 238.667 -128 432c0 92.667 13 172.667 39 240s62.667 126 110 176c44 46.667 98.167 83 162.5 109s130.166 39 197.499 39c60.667 0 115.834 -7.16699 165.501 -21.5s94.834 -34.166 135.501 -59.499l13 50h349v-994z
M901.998 353.999v508.999c-20.667 8.66699 -46 15.5 -76 20.5s-57 7.5 -81 7.5c-94.667 0 -165.667 -27.167 -213 -81.5s-71 -130.166 -71 -227.499c0 -108 20.167 -183.333 60.5 -226s100.166 -64 179.499 -64c36 0 71.333 5.66699 106 17s66.334 26.333 95.001 45z" />
    <glyph glyph-name="h" unicode="h" horiz-adv-x="1459" 
d="M1298 0l-361.998 0.000976562v557c0 45.333 -2.33301 90.5 -7 135.5s-12.667 78.167 -24 99.5c-13.333 24.667 -32.833 42.667 -58.5 54s-61.5 17 -107.5 17c-32.667 0 -65.834 -5.33301 -99.501 -16s-70.167 -27.667 -109.5 -51v-796h-360v1556h360v-557
c64 50 125.5 88.333 184.5 115s124.5 40 196.5 40c121.333 0 216.166 -35.333 284.499 -106s102.5 -176.334 102.5 -317.001v-731z" />
    <glyph glyph-name="i" unicode="i" horiz-adv-x="700" 
d="M530 0h-360v1123h360v-1123zM540 1283h-380v273h380v-273z" />
    <glyph glyph-name="j" unicode="j" horiz-adv-x="825" 
d="M656 -20c0 -126.667 -38.998 -225.499 -116.998 -296.499s-178.333 -106.5 -301 -106.5c-65.333 0 -124.833 2.83301 -178.5 8.5s-92.834 11.5 -117.501 17.5v258h28c20 -6.66699 45 -12.334 75 -17.001s53.667 -7 71 -7c69.333 0 116.666 20.667 141.999 62
s38 109.333 38 204v776h-213v244h573v-1143zM656.002 1283h-383v273h383v-273z" />
    <glyph glyph-name="k" unicode="k" horiz-adv-x="1374" 
d="M1362 0h-419l-315 489l-98 -119v-370h-360v1556h360v-929l388 496h415l-404 -484z" />
    <glyph glyph-name="l" unicode="l" horiz-adv-x="700" 
d="M530 0h-360v1556h360v-1556z" />
    <glyph glyph-name="m" unicode="m" horiz-adv-x="2167" 
d="M1268 796l-0.000976562 -796h-362v561c0 54.667 -1.33301 101.167 -4 139.5s-10 69.5 -22 93.5s-30.167 41.5 -54.5 52.5s-58.5 16.5 -102.5 16.5c-35.333 0 -69.666 -7.16699 -102.999 -21.5s-63.333 -29.5 -90 -45.5v-796h-360v1123h360v-124
c62 48.667 121.333 86.667 178 114s119.334 41 188.001 41c74 0 139.333 -16.5 196 -49.5s101 -81.5 133 -145.5c72 60.667 142 108.334 210 143.001s134.667 52 200 52c121.333 0 213.5 -36.333 276.5 -109s94.5 -177.334 94.5 -314.001v-731h-362v561
c0 55.333 -1.16699 102 -3.5 140s-9.5 69 -21.5 93c-11.333 24 -29.333 41.5 -54 52.5s-59.334 16.5 -104.001 16.5c-30 0 -59.333 -5.16699 -88 -15.5s-63.667 -27.5 -105 -51.5z" />
    <glyph glyph-name="n" unicode="n" horiz-adv-x="1459" 
d="M1298 0l-361.998 0.000976562v557c0 45.333 -2.33301 90.5 -7 135.5s-12.667 78.167 -24 99.5c-13.333 24.667 -32.833 42.667 -58.5 54s-61.5 17 -107.5 17c-32.667 0 -65.834 -5.33301 -99.501 -16s-70.167 -27.667 -109.5 -51v-796h-360v1123h360v-124
c64 50 125.5 88.333 184.5 115s124.5 40 196.5 40c121.333 0 216.166 -35.333 284.499 -106s102.5 -176.334 102.5 -317.001v-731z" />
    <glyph glyph-name="o" unicode="o" horiz-adv-x="1406" 
d="M1318 561c0 -184.667 -53.8301 -330.166 -161.497 -436.499s-258.834 -159.5 -453.501 -159.5s-345.834 53.167 -453.501 159.5s-161.5 251.833 -161.5 436.5c0 186 54.167 332 162.5 438s259.166 159 452.499 159c196 0 347.5 -53.333 454.5 -160
s160.5 -252.334 160.5 -437.001zM875.003 288.001c23.333 28.667 40.8311 63.168 52.498 103.501s17.5 96.166 17.5 167.499c0 66 -6 121.333 -18 166s-28.667 80.334 -50 107.001c-21.333 27.333 -47 46.666 -77 57.999s-62.333 17 -97 17s-65.5 -4.66699 -92.5 -14
s-52.833 -28 -77.5 -56c-22 -26 -39.5 -61.667 -52.5 -107s-19.5 -102.333 -19.5 -171c0 -61.333 5.66699 -114.5 17 -159.5s28 -81.167 50 -108.5c21.333 -26 46.833 -45 76.5 -57s63.5 -18 101.5 -18c32.667 0 63.834 5.5 93.501 16.5s54.834 29.5 75.501 55.5z" />
    <glyph glyph-name="p" unicode="p" horiz-adv-x="1432" 
d="M1342 577c0 -92.667 -14.166 -177.001 -42.499 -253.001s-65.5 -138.667 -111.5 -188c-48 -52 -102.333 -91.333 -163 -118s-125.667 -40 -195 -40c-64 0 -118.333 6.83301 -163 20.5s-90.334 32.834 -137.001 57.501v-468h-360v1535h360v-117
c55.333 44 111.833 79.667 169.5 107s124.167 41 199.5 41c140 0 248.833 -51.333 326.5 -154s116.5 -243.667 116.5 -423zM971.001 569.999c0 109.333 -18.667 188.666 -56 237.999s-96.333 74 -177 74c-34 0 -69 -5.16699 -105 -15.5s-70.333 -25.166 -103 -44.499v-565
c24 -9.33301 49.667 -15.333 77 -18s54.333 -4 81 -4c95.333 0 166.333 27.833 213 83.5s70 139.5 70 251.5z" />
    <glyph glyph-name="q" unicode="q" horiz-adv-x="1432" 
d="M1262 -412l-360.001 -0.00292969v522c-58.667 -47.333 -116 -82.666 -172 -105.999s-119 -35 -189 -35c-137.333 0 -246.833 52.667 -328.5 158s-122.5 247.333 -122.5 426c0 95.333 13.833 179.833 41.5 253.5s65.5 136.834 113.5 189.501
c45.333 50 100.333 88.833 165 116.5s129.334 41.5 194.001 41.5c63.333 0 116.5 -7.16699 159.5 -21.5s88.5 -34.166 136.5 -59.499l13 50h349v-1535zM901.999 309.997l-0.000976562 550.999c-25.333 10.667 -52 18.334 -80 23.001s-53.667 7 -77 7
c-94.667 0 -165.667 -29.5 -213 -88.5s-71 -140.833 -71 -245.5c0 -110 19 -189.833 57 -239.5s99 -74.5 183 -74.5c32.667 0 67.334 6.16699 104.001 18.5s69 28.5 97 48.5z" />
    <glyph glyph-name="r" unicode="r" horiz-adv-x="1018" 
d="M984 780h-32.002c-15.333 5.33301 -40 9.33301 -74 12s-62.333 4 -85 4c-51.333 0 -96.666 -3.33301 -135.999 -10s-81.666 -18 -126.999 -34v-752h-360v1123h360v-165c79.333 68 148.333 113.167 207 135.5s112.667 33.5 162 33.5c12.667 0 27 -0.333008 43 -1
s30 -1.66699 42 -3v-343z" />
    <glyph glyph-name="s" unicode="s" horiz-adv-x="1215" 
d="M1146 356c0 -116 -51.999 -209.5 -155.999 -280.5s-246.333 -106.5 -427 -106.5c-100 0 -190.667 9.33301 -272 28s-146.666 39.334 -195.999 62.001v296h33c18 -12.667 38.833 -26.5 62.5 -41.5s57.167 -31.167 100.5 -48.5c37.333 -15.333 79.666 -28.5 126.999 -39.5
s98 -16.5 152 -16.5c70.667 0 123 7.83301 157 23.5s51 38.834 51 69.501c0 27.333 -10 47.166 -30 59.499s-58 24.166 -114 35.499c-26.667 6 -62.834 12.5 -108.501 19.5s-87.167 15.5 -124.5 25.5c-102 26.667 -177.667 68.167 -227 124.5s-74 126.5 -74 210.5
c0 108 51.167 197.833 153.5 269.5s242.166 107.5 419.499 107.5c84 0 164.5 -8.5 241.5 -25.5s137.167 -35.167 180.5 -54.5v-284h-31c-53.333 36.667 -114.166 66.5 -182.499 89.5s-137.5 34.5 -207.5 34.5c-58 0 -106.833 -8 -146.5 -24s-59.5 -38.667 -59.5 -68
c0 -26.667 9 -47 27 -61s60.333 -28 127 -42c36.667 -7.33301 76.167 -14.5 118.5 -21.5s84.833 -15.833 127.5 -26.5c94.667 -24.667 164.667 -63.5 210 -116.5s68 -119.167 68 -198.5z" />
    <glyph glyph-name="t" unicode="t" horiz-adv-x="933" 
d="M888 10c-38.667 -10 -79.667 -17.835 -123 -23.502s-96.333 -8.5 -159 -8.5c-140 0 -244.167 28.333 -312.5 85s-102.5 153.667 -102.5 291v525h-148v244h148v321h360v-321h337v-244h-337v-398c0 -39.333 0.333008 -73.666 1 -102.999s6 -55.666 16 -78.999
c9.33301 -23.333 25.833 -41.833 49.5 -55.5s58.167 -20.5 103.5 -20.5c18.667 0 43.167 4 73.5 12s51.5 15.333 63.5 22h30v-247z" />
    <glyph glyph-name="u" unicode="u" horiz-adv-x="1459" 
d="M1289 0l-360.001 0.00292969v124c-66.667 -50.667 -127.667 -89.167 -183 -115.5s-121.333 -39.5 -198 -39.5c-124 0 -219.5 35.667 -286.5 107s-100.5 176.666 -100.5 315.999v731h362v-557c0 -56.667 1.83301 -103.834 5.5 -141.501s12.167 -68.834 25.5 -93.501
c12.667 -24.667 31.834 -42.667 57.501 -54s61.5 -17 107.5 -17c30.667 0 64.667 5.66699 102 17s73.333 28 108 50v796h360v-1123z" />
    <glyph glyph-name="v" unicode="v" horiz-adv-x="1331" 
d="M1301 1123l-433 -1123h-408l-430 1123h381l260 -772l257 772h373z" />
    <glyph glyph-name="w" unicode="w" horiz-adv-x="2006" 
d="M1961 1123l-348 -1123h-382l-229 757l-225 -757h-387l-345 1123h378l192 -774l240 774h319l228 -774l189 774h370z" />
    <glyph glyph-name="x" unicode="x" horiz-adv-x="1370" 
d="M1344 0h-420l-240 336l-246 -336h-412l443 561l-436 562h420l236 -330l237 330h413l-437 -553z" />
    <glyph glyph-name="y" unicode="y" horiz-adv-x="1333" 
d="M677 397l256 726h370l-624 -1535h-390l178 420l-437 1115h378z" />
    <glyph glyph-name="z" unicode="z" horiz-adv-x="1222" 
d="M1139 0h-1055v231l592 629h-568v263h1020v-227l-583 -628h594v-268z" />
    <glyph glyph-name="braceleft" unicode="{" horiz-adv-x="1456" 
d="M1255 -392h-274c-129.333 0 -232.5 32.833 -309.5 98.5s-115.5 161.834 -115.5 288.501v147c0 118.667 -26.333 201.167 -79 247.5s-137.667 69.5 -255 69.5h-70v246h70c117.333 0 202.333 23.167 255 69.5s79 128.833 79 247.5v147
c0 126.667 38.5 222.834 115.5 288.501s180.167 98.5 309.5 98.5h274v-224h-114c-40 0 -76.167 -3 -108.5 -9s-59.5 -17.333 -81.5 -34c-22.667 -17.333 -39.667 -42.5 -51 -75.5s-17 -75.5 -17 -127.5v-109c0 -93.333 -26.167 -171.333 -78.5 -234
s-126.833 -112.334 -223.5 -149.001v-24c96.667 -36.667 171.167 -86.334 223.5 -149.001s78.5 -140.667 78.5 -234v-109c0 -52 5.66699 -94.5 17 -127.5s28.333 -58.167 51 -75.5c21.333 -17.333 48.333 -28.833 81 -34.5s69 -8.5 109 -8.5h114v-224z" />
    <glyph glyph-name="bar" unicode="|" horiz-adv-x="1113" 
d="M702 -392h-291v1948h291v-1948z" />
    <glyph glyph-name="braceright" unicode="}" horiz-adv-x="1456" 
d="M1304 459h-70c-117.333 0 -202.333 -23.167 -255 -69.5s-79 -128.833 -79 -247.5v-147c0 -126.667 -38.5 -222.834 -115.5 -288.501s-180.167 -98.5 -309.5 -98.5h-274v224h114c40 0 76.167 3 108.5 9s59.5 17.333 81.5 34c22.667 17.333 39.667 42.5 51 75.5
s17 75.5 17 127.5v109c0 93.333 26.167 171.333 78.5 234s126.833 112.334 223.5 149.001v24c-96.667 36.667 -171.167 86.334 -223.5 149.001s-78.5 140.667 -78.5 234v109c0 52 -5.66699 94.5 -17 127.5s-28.333 58.167 -51 75.5c-22 16.667 -49.167 28 -81.5 34
s-68.5 9 -108.5 9h-114v224h274c129.333 0 232.5 -32.833 309.5 -98.5s115.5 -161.834 115.5 -288.501v-147c0 -118.667 26.333 -201.167 79 -247.5s137.667 -69.5 255 -69.5h70v-246z" />
    <glyph glyph-name="asciitilde" unicode="~" horiz-adv-x="1776" 
d="M1623 1007c-0.666992 -218.667 -37.167 -386.665 -109.5 -503.998s-180.166 -176 -323.499 -176c-47.333 0 -88.833 5.5 -124.5 16.5s-67.834 25.833 -96.501 44.5c-28 19.333 -53.167 40.5 -75.5 63.5s-45.5 48.5 -69.5 76.5l-56.5 70.5
c-21.667 27.667 -40.167 49.5 -55.5 65.5c-19.333 20.667 -37.833 36.834 -55.5 48.501s-37.5 17.5 -59.5 17.5c-40 0 -70.333 -10.333 -91 -31s-36.667 -47.334 -48 -80.001c-12 -36 -19.833 -81 -23.5 -135s-6.16699 -107 -7.5 -159h-270c0 223.333 37 392.5 111 507.5
s181.333 172.5 322 172.5c45.333 0 86.333 -5.83301 123 -17.5s70 -26.834 100 -45.501c28 -18.667 53.5 -39.667 76.5 -63s45.833 -48.333 68.5 -75l52.5 -66.5c19 -25 38.833 -48.5 59.5 -70.5c22 -22.667 41.833 -39.167 59.5 -49.5s35.5 -15.5 53.5 -15.5
c38 0 68 9.66699 90 29s38.333 46.666 49 81.999c11.333 35.333 19 78 23 128s6.66699 105.333 8 166h270z" />
    <glyph glyph-name="exclamdown" unicode="&#xa1;" horiz-adv-x="824" 
d="M614 1225h-404v264h404v-264zM621 0h-418l46 1060h326z" />
    <glyph glyph-name="cent" unicode="&#xa2;" horiz-adv-x="1456" 
d="M1271 67c-34 -14 -78.5 -29.499 -133.5 -46.499s-112.833 -28.167 -173.5 -33.5v-348h-174v345c-92.667 6 -175.167 22.5 -247.5 49.5s-134.5 63.833 -186.5 110.5c-54 48.667 -95.5 108.5 -124.5 179.5s-43.5 152.167 -43.5 243.5c0 100 16 186.167 48 258.5
s76 132.833 132 181.5c54.667 47.333 118.5 83.333 191.5 108s149.833 39.667 230.5 45v315h174v-319c75.333 -8 140.333 -21.5 195 -40.5s92 -32.833 112 -41.5v-295h-49c-25.333 21.333 -59.833 45.333 -103.5 72s-96.5 46 -158.5 58v-676
c59.333 9.33301 109.833 25.666 151.5 48.999s78.5 50 110.5 80h49v-295zM794 236.001v672c-76 -16 -135.667 -54.333 -179 -115s-65 -136 -65 -226c0 -95.333 22.167 -170.5 66.5 -225.5s103.5 -90.167 177.5 -105.5z" />
    <glyph glyph-name="sterling" unicode="&#xa3;" horiz-adv-x="1456" 
d="M1325 0l-1171 -0.000976562v281c82.667 22.667 138 58 166 106s42 120 42 216h-176v217h176v261c0 127.333 49.167 232 147.5 314s228.166 123 389.499 123c90.667 0 165.834 -5.5 225.501 -16.5s107.167 -21.5 142.5 -31.5v-312h-45
c-50.667 31.333 -98.334 53.5 -143.001 66.5s-86.334 19.5 -125.001 19.5c-69.333 0 -125.166 -19.833 -167.499 -59.5s-63.5 -95.167 -63.5 -166.5v-198h437v-217h-437c0 -59.333 -15.833 -118.666 -47.5 -177.999s-72.167 -102.333 -121.5 -129v-11h771v-285z" />
    <glyph glyph-name="currency" unicode="&#xa4;" horiz-adv-x="1456" 
d="M1283 273l-160.002 -160.996l-208 207c-28 -16 -56.833 -28 -86.5 -36s-63.167 -12 -100.5 -12c-35.333 0 -68 3.83301 -98 11.5s-59.667 19.834 -89 36.501l-209 -209l-163 163l210 208c-15.333 28 -26.666 56.167 -33.999 84.5s-11 61.166 -11 98.499
c0 36.667 3.83301 70.167 11.5 100.5s20.5 60.833 38.5 91.5l-208 210l156 157l209 -209c27.333 15.333 56.5 26.666 87.5 33.999s64.5 11 100.5 11c37.333 0 70.333 -3.83301 99 -11.5s56.334 -18.5 83.001 -32.5l210 208l162 -162l-209 -208
c18.667 -32.667 31.5 -63.834 38.5 -93.501s10.5 -60.834 10.5 -93.501c0 -36.667 -4 -70.334 -12 -101.001s-19.667 -59 -35 -85zM892.998 667.004c0 47.333 -16.333 87.333 -49 120s-72.334 49 -119.001 49s-86.5 -16.333 -119.5 -49s-49.5 -72.667 -49.5 -120
c0 -46 16.5 -85.5 49.5 -118.5s72.833 -49.5 119.5 -49.5s86.334 16.5 119.001 49.5s49 72.5 49 118.5z" />
    <glyph glyph-name="yen" unicode="&#xa5;" horiz-adv-x="1456" 
d="M1404 1489l-495 -819v-45h315v-217h-313v-78h313v-217h-313v-113h-368v113h-313v217h313v78h-313v217h315v45l-493 819h418l265 -532l265 532h404z" />
    <glyph glyph-name="yen" unicode="&#xffe5;" horiz-adv-x="1456" 
d="M1404 1489l-495 -819v-45h315v-217h-313v-78h313v-217h-313v-113h-368v113h-313v217h313v78h-313v217h315v45l-493 819h418l265 -532l265 532h404z" />
    <glyph glyph-name="brokenbar" unicode="&#xa6;" horiz-adv-x="1113" 
d="M702 758h-291v798h291v-798zM702 -392h-291v798h291v-798z" />
    <glyph glyph-name="section" unicode="&#xa7;" horiz-adv-x="1456" 
d="M1305 607c0 -71.333 -20.335 -135.497 -61.002 -192.497s-91.667 -102.5 -153 -136.5v-7c65.333 -35.333 112 -76 140 -122s42 -99 42 -159c0 -109.333 -54.167 -200.333 -162.5 -273s-257.833 -109 -448.5 -109c-67.333 0 -145.166 5.5 -233.499 16.5
s-156.833 24.5 -205.5 40.5v290h34c38 -24 89.5 -45.5 154.5 -64.5s130.167 -28.5 195.5 -28.5c91.333 0 156.833 10.167 196.5 30.5s59.5 49.166 59.5 86.499c0 25.333 -7.66699 46.166 -23 62.499s-38.333 30.833 -69 43.5c-31.333 13.333 -71.166 26.833 -119.499 40.5
s-93.833 27.167 -136.5 40.5c-118.667 37.333 -209 83.833 -271 139.5s-93 127.5 -93 215.5c0 64 16.5 122.667 49.5 176s87.833 104.333 164.5 153v7c-68 37.333 -115.833 80 -143.5 128s-41.5 102.333 -41.5 163c0 105.333 56.167 193.666 168.5 264.999
s260.166 107 443.499 107c75.333 0 151.833 -5.16699 229.5 -15.5s143.5 -24.166 197.5 -41.499v-290h-32c-32.667 18.667 -81.167 38.834 -145.5 60.501s-129.5 32.5 -195.5 32.5c-76 0 -137.667 -10.833 -185 -32.5s-71 -49.834 -71 -84.501
c0 -25.333 7.66699 -45.833 23 -61.5s38.333 -29.834 69 -42.501c28 -11.333 65.333 -23.833 112 -37.5l148 -45.5c116.667 -37.333 206.334 -84.5 269.001 -141.5s94 -128.167 94 -213.5zM945.998 547.003c0 37.333 -13.998 67.833 -41.998 91.5s-67 44.5 -117 62.5
c-17.333 6 -39.833 13.333 -67.5 22s-61.5 18.334 -101.5 29.001c-30 -21.333 -55.5 -46.5 -76.5 -75.5s-31.5 -60.833 -31.5 -95.5c0 -37.333 14.167 -68 42.5 -92s67.166 -44.667 116.499 -62l76 -25c31.333 -10 62.666 -19 93.999 -27c26 18.667 50.333 42.167 73 70.5
s34 62.166 34 101.499z" />
    <glyph glyph-name="dieresis" unicode="&#xa8;" horiz-adv-x="1456" 
d="M1145 1283h-297v273h297v-273zM608 1283h-297v273h297v-273z" />
    <glyph glyph-name="copyright" unicode="&#xa9;" horiz-adv-x="1974" 
d="M1852 655c0 -238.667 -84.5 -442.5 -253.5 -611.5s-372.833 -253.5 -611.5 -253.5s-442.5 84.5 -611.5 253.5s-253.5 372.833 -253.5 611.5s84.5 442.5 253.5 611.5s372.833 253.5 611.5 253.5s442.5 -84.5 611.5 -253.5s253.5 -372.833 253.5 -611.5zM1662 655
c0 186 -65.833 345.833 -197.5 479.5s-290.5 200.5 -476.5 200.5s-344.833 -66.833 -476.5 -200.5s-197.5 -293.5 -197.5 -479.5s65.833 -345.833 197.5 -479.5s290.5 -200.5 476.5 -200.5s344.833 66.833 476.5 200.5s197.5 293.5 197.5 479.5zM1321 277
c-49.333 -23.333 -98.6631 -41.168 -147.996 -53.501s-96 -18.5 -140 -18.5c-147.333 0 -263.5 41.333 -348.5 124s-127.5 193 -127.5 331c0 138.667 44.667 249.667 134 333s203.333 125 342 125c53.333 0 104.666 -7 153.999 -21s94 -30.667 134 -50v-206h-21
c-38.667 30.667 -80.834 55.167 -126.501 73.5s-91.167 27.5 -136.5 27.5c-75.333 0 -132.5 -23.667 -171.5 -71s-58.5 -117.666 -58.5 -210.999c0 -90 20.167 -159 60.5 -207s96.833 -72 169.5 -72c55.333 0 106.166 11 152.499 33s83.166 44.667 110.499 68h21v-205z" />
    <glyph glyph-name="ordfeminine" unicode="&#xaa;" horiz-adv-x="1224" 
d="M1028 596h-285.999v95c-34 -31.333 -74.833 -59 -122.5 -83s-106.834 -36 -177.501 -36c-81.333 0 -150 26.333 -206 79s-84 120.334 -84 203.001c0 62.667 13 115.167 39 157.5s67 76.166 123 101.499c51.333 24 115.333 41.167 192 51.5s155.667 17.833 237 22.5v4
c0 50 -19.167 84.5 -57.5 103.5s-95.833 28.5 -172.5 28.5c-46.667 0 -96.167 -8.66699 -148.5 -26s-89.5 -30.333 -111.5 -39h-25v216c29.333 8 76.333 17.667 141 29s130 17 196 17c158.667 0 275.5 -25.333 350.5 -76s112.5 -129.667 112.5 -237v-611zM742.001 831
l-0.000976562 187c-40 -3.33301 -82.5 -7.83301 -127.5 -13.5s-78.833 -12.167 -101.5 -19.5c-27.333 -8.66699 -48.5 -21.5 -63.5 -38.5s-22.5 -40.167 -22.5 -69.5c0 -18.667 1.83301 -34 5.5 -46s11.5 -23 23.5 -33c12.667 -10.667 27.334 -18.5 44.001 -23.5
s43.667 -7.5 81 -7.5c26 0 53.833 5.83301 83.5 17.5s55.5 27.167 77.5 46.5z" />
    <glyph glyph-name="guillemotleft" unicode="&#xab;" horiz-adv-x="1740" 
d="M819 128l-602 463v135l602 462v-307l-302 -223l302 -223v-307zM1446 128l-602 463v135l602 462v-307l-302 -223l302 -223v-307z" />
    <glyph glyph-name="logicalnot" unicode="&#xac;" horiz-adv-x="1776" 
d="M1545 29h-285v528h-1044v269h1329v-797z" />
    <glyph glyph-name="registered" unicode="&#xae;" horiz-adv-x="1974" 
d="M1852 655c0 -238.667 -84.5 -442.5 -253.5 -611.5s-372.833 -253.5 -611.5 -253.5s-442.5 84.5 -611.5 253.5s-253.5 372.833 -253.5 611.5s84.5 442.5 253.5 611.5s372.833 253.5 611.5 253.5s442.5 -84.5 611.5 -253.5s253.5 -372.833 253.5 -611.5zM1662 655
c0 186 -65.833 345.833 -197.5 479.5s-290.5 200.5 -476.5 200.5s-344.833 -66.833 -476.5 -200.5s-197.5 -293.5 -197.5 -479.5s65.833 -345.833 197.5 -479.5s290.5 -200.5 476.5 -200.5s344.833 66.833 476.5 200.5s197.5 293.5 197.5 479.5zM1473 245l-271 0.00195312
l-261 316h-86v-316h-212v861h327c60.667 0 109.334 -2.33301 146.001 -7s73 -16.667 109 -36c39.333 -22 68.166 -48.667 86.499 -80s27.5 -70.333 27.5 -117c0 -62.667 -17.667 -114.334 -53 -155.001s-81.333 -72.334 -138 -95.001zM1103 850.002
c0 18 -3.8291 34.501 -11.4961 49.501s-20.5 27.167 -38.5 36.5c-16.667 9.33301 -35.834 15.166 -57.501 17.499s-46.167 3.5 -73.5 3.5h-67v-243h51c35.333 0 65.666 2.5 90.999 7.5s45.666 13.5 60.999 25.5c15.333 11.333 26.666 25.333 33.999 42s11 37 11 61z" />
    <glyph glyph-name="macron" unicode="&#xaf;" horiz-adv-x="1456" 
d="M1472 1628h-1488v211h1488v-211z" />
    <glyph glyph-name="degree" unicode="&#xb0;" horiz-adv-x="1203" 
d="M1024 1102c0 -117.333 -40.833 -216.333 -122.5 -297s-181.5 -121 -299.5 -121s-217.833 40.333 -299.5 121s-122.5 179.667 -122.5 297s40.833 216.333 122.5 297s181.5 121 299.5 121c118.667 0 218.667 -40.333 300 -121s122 -179.667 122 -297zM796 1102
c0 54.667 -18.5 101.5 -55.5 140.5s-83.167 58.5 -138.5 58.5c-54.667 0 -100.667 -19.333 -138 -58s-56 -85.667 -56 -141c0 -56.667 18.833 -103.834 56.5 -141.501s83.5 -56.5 137.5 -56.5c55.333 0 101.5 19.333 138.5 58s55.5 85.334 55.5 140.001z" />
    <glyph glyph-name="plusminus" unicode="&#xb1;" horiz-adv-x="1776" 
d="M1558 0h-1340v268h534v416h-534v268h533v529h274v-529h533v-268h-534v-416h534v-268z" />
    <glyph glyph-name="uni00B2" unicode="&#xb2;" horiz-adv-x="1224" 
d="M1037 566h-806.999v189l144 89c50 32 92.333 61.667 127 89c74.667 58 121.167 104.5 139.5 139.5s27.5 70.5 27.5 106.5c0 39.333 -13.5 69.5 -40.5 90.5s-66.833 31.5 -119.5 31.5c-38 0 -79.833 -8 -125.5 -24s-86.834 -34.667 -123.501 -56h-23v237
c43.333 15.333 96.833 29.333 160.5 42s127.5 19 191.5 19c123.333 0 218.5 -24.333 285.5 -73s100.5 -119.667 100.5 -213c0 -54 -11.667 -105.667 -35 -155s-75 -109 -155 -179c-22.667 -20 -50.5 -41.833 -83.5 -65.5l-85.5 -61.5h422v-206z" />
    <glyph glyph-name="uni00B3" unicode="&#xb3;" horiz-adv-x="1224" 
d="M1012 828c0 -93.333 -36.166 -164.332 -108.499 -212.999s-179.5 -73 -321.5 -73c-86 0 -158 6 -216 18s-105.333 25.333 -142 40v216h22c28 -15.333 68.5 -30.833 121.5 -46.5s104.833 -23.5 155.5 -23.5c66 0 115.5 7.66699 148.5 23s49.5 41.666 49.5 78.999
c0 32 -10.833 55.333 -32.5 70s-64.167 22 -127.5 22h-153v195h137c50 0 87.667 7.16699 113 21.5s38 38.166 38 71.499c0 30.667 -13.833 52.834 -41.5 66.501s-71.167 20.5 -130.5 20.5c-44 0 -91.833 -8 -143.5 -24s-91.167 -31.333 -118.5 -46h-23v213
c42.667 14.667 93.667 28.5 153 41.5s128.666 19.5 207.999 19.5c118.667 0 213.167 -20 283.5 -60s105.5 -99.333 105.5 -178c0 -60 -16.167 -108.5 -48.5 -145.5s-73.833 -63.833 -124.5 -80.5v-8c58 -11.333 105.167 -35.5 141.5 -72.5s54.5 -85.833 54.5 -146.5z" />
    <glyph glyph-name="acute" unicode="&#xb4;" horiz-adv-x="1456" 
d="M1083 1676v-20l-352 -373h-246l247 393h351z" />
    <glyph glyph-name="uni00B5" unicode="&#xb5;" horiz-adv-x="1477" 
d="M1307 0l-318.999 0.000976562l-16 80h-7c-29.333 -25.333 -61.833 -47.5 -97.5 -66.5s-77.834 -28.5 -126.501 -28.5c-44 0 -84.5 9 -121.5 27s-66.833 38 -89.5 60v-484h-360v1535h360v-799c30 -24 63 -41 99 -51s72.333 -15 109 -15c34 0 69.833 5.16699 107.5 15.5
s71.5 27.166 101.5 50.499v799h360v-1123z" />
    <glyph glyph-name="paragraph" unicode="&#xb6;" horiz-adv-x="1456" 
d="M1252 -363h-202.001v1672h-151v-1672h-212v956c-183.333 4 -321.166 46.5 -413.499 127.5s-138.5 190.5 -138.5 328.5c0 138.667 50.667 246.667 152 324s242.333 116 423 116h542v-1852z" />
    <glyph glyph-name="periodcentered" unicode="&#xb7;" horiz-adv-x="740" 
d="M557 464h-374v393h374v-393z" />
    <glyph glyph-name="cedilla" unicode="&#xb8;" horiz-adv-x="1456" 
d="M1006 -86c0 -108 -33.167 -191.168 -99.5 -249.501s-152.833 -87.5 -259.5 -87.5c-23.333 0 -57.166 1.83301 -101.499 5.5s-81.5 9.83398 -111.5 18.501v200h23c16 -7.33301 39.333 -15 70 -23s60 -12 88 -12c53.333 0 94.166 13.833 122.499 41.5
s42.5 67.167 42.5 118.5c0 15.333 -0.333008 32.833 -1 52.5s-1 33.5 -1 41.5h223c0.666992 -12 1.66699 -28.5 3 -49.5s2 -39.833 2 -56.5z" />
    <glyph glyph-name="uni00B9" unicode="&#xb9;" horiz-adv-x="1224" 
d="M986 566l-698 -0.000976562v188h217v426h-226v178c76 0 137.167 9.83301 183.5 29.5s72.5 54.834 78.5 105.501h238v-739h207v-188z" />
    <glyph glyph-name="ordmasculine" unicode="&#xba;" horiz-adv-x="1224" 
d="M1097 1043c0 -147.333 -42.5 -263.667 -127.5 -349s-204.167 -128 -357.5 -128s-272.5 42.667 -357.5 128s-127.5 201.666 -127.5 348.999c0 148 42.667 264.5 128 349.5s204.333 127.5 357 127.5c154.667 0 274.167 -42.667 358.5 -128s126.5 -201.666 126.5 -348.999z
M747 823.999c18.667 24 32.333 50.8359 41 80.5029s13 75.167 13 136.5c0 52 -4.5 96 -13.5 132s-21.833 65 -38.5 87c-16.667 21.333 -36.834 36.666 -60.501 45.999s-49.167 14 -76.5 14s-51.666 -3.83301 -72.999 -11.5s-41.333 -22.5 -60 -44.5
c-16.667 -20 -30.167 -48.833 -40.5 -86.5s-15.5 -83.167 -15.5 -136.5s4.5 -97 13.5 -131s21.833 -61.667 38.5 -83c16 -20.667 35.5 -35.834 58.5 -45.501s49.833 -14.5 80.5 -14.5c26.667 0 51.5 4.16699 74.5 12.5s42.5 23.166 58.5 44.499z" />
    <glyph glyph-name="guillemotright" unicode="&#xbb;" horiz-adv-x="1740" 
d="M1523 591l-602 -463v307l302 223l-302 223v307l602 -462v-135zM896 591l-602 -463v307l302 223l-302 223v307l602 -462v-135z" />
    <glyph glyph-name="onequarter" unicode="&#xbc;" horiz-adv-x="2420" 
d="M710 559h-277.001v607h-234v182c74.667 0 136.834 11.833 186.501 35.5s77.167 60.167 82.5 109.5h242v-934zM1689 1498l-785 -1498h-269l785 1498h269zM2262 197h-167v-197h-262v197h-474v261l459 486h277v-561h167v-186zM1837 383v338l-326 -338h326z" />
    <glyph glyph-name="onehalf" unicode="&#xbd;" horiz-adv-x="2420" 
d="M690 559h-277.001v607h-234v182c74.667 0 136.834 11.833 186.501 35.5s77.167 60.167 82.5 109.5h242v-934zM1654 1498l-785 -1498h-269l785 1498h269zM2283 -1h-806.999v189l144 89c50 32 92.333 61.667 127 89c74.667 58 121.167 104.5 139.5 139.5
s27.5 70.5 27.5 106.5c0 39.333 -13.5 69.5 -40.5 90.5s-66.833 31.5 -119.5 31.5c-38 0 -79.833 -8 -125.5 -24s-86.834 -34.667 -123.501 -56h-23v237c43.333 15.333 96.833 29.333 160.5 42s127.5 19 191.5 19c123.333 0 218.5 -24.333 285.5 -73
s100.5 -119.667 100.5 -213c0 -54 -11.667 -105.667 -35 -155s-75 -109 -155 -179c-22.667 -20 -50.5 -41.833 -83.5 -65.5l-85.5 -61.5h422v-206z" />
    <glyph glyph-name="threequarters" unicode="&#xbe;" horiz-adv-x="2420" 
d="M965 828c0 -93.333 -36.166 -164.332 -108.499 -212.999s-179.5 -73 -321.5 -73c-86 0 -158 6 -216 18s-105.333 25.333 -142 40v216h22c28 -15.333 68.5 -30.833 121.5 -46.5s104.833 -23.5 155.5 -23.5c66 0 115.5 7.66699 148.5 23s49.5 41.666 49.5 78.999
c0 32 -10.833 55.333 -32.5 70s-64.167 22 -127.5 22h-153v195h137c50 0 87.667 7.16699 113 21.5s38 38.166 38 71.499c0 30.667 -13.833 52.834 -41.5 66.501s-71.167 20.5 -130.5 20.5c-44 0 -91.833 -8 -143.5 -24s-91.167 -31.333 -118.5 -46h-23v213
c42.667 14.667 93.667 28.5 153 41.5s128.666 19.5 207.999 19.5c118.667 0 213.167 -20 283.5 -60s105.5 -99.333 105.5 -178c0 -60 -16.167 -108.5 -48.5 -145.5s-73.833 -63.833 -124.5 -80.5v-8c58 -11.333 105.167 -35.5 141.5 -72.5s54.5 -85.833 54.5 -146.5z
M1784 1498l-785 -1498h-269l785 1498h269zM2311 197.001h-167v-197h-262v197h-474v261l459 486h277v-561h167v-186zM1886 383.001v338l-326 -338h326z" />
    <glyph glyph-name="questiondown" unicode="&#xbf;" horiz-adv-x="1263" 
d="M901 1225h-404v264h404v-264zM1116 56c-42.667 -18 -108.331 -36.834 -196.998 -56.501s-178.667 -29.5 -270 -29.5c-164.667 0 -295.334 36.333 -392.001 109s-145 167.667 -145 285c0 67.333 9.83301 126.833 29.5 178.5s47.5 96.5 83.5 134.5s79.167 72 129.5 102
s107.166 57.333 170.499 82v228h352v-337c-47.333 -12.667 -90.166 -25.667 -128.499 -39s-78.5 -35 -120.5 -65c-38.667 -27.333 -69.334 -58.5 -92.001 -93.5s-34 -74.833 -34 -119.5c0 -66.667 21.5 -114.167 64.5 -142.5s103.5 -42.5 181.5 -42.5
c48 0 102.167 10.333 162.5 31s115.5 47.334 165.5 80.001h40v-305z" />
    <glyph glyph-name="Agrave" unicode="&#xc0;" horiz-adv-x="1590" 
d="M1566 0h-397l-103 301h-552l-103 -301h-387l550 1489h442zM973 574l-183 534l-183 -534h366zM1032 1656h-246l-352 373v20h351z" />
    <glyph glyph-name="Aacute" unicode="&#xc1;" horiz-adv-x="1590" 
d="M1566 0h-397l-103 301h-552l-103 -301h-387l550 1489h442zM973 574l-183 534l-183 -534h366zM1133 2049v-20l-352 -373h-246l247 393h351z" />
    <glyph glyph-name="Acircumflex" unicode="&#xc2;" horiz-adv-x="1590" 
d="M1566 0h-397l-103 301h-552l-103 -301h-387l550 1489h442zM973 574l-183 534l-183 -534h366zM1242 1646h-264l-185 219l-184 -219h-260l321 393h251z" />
    <glyph glyph-name="Atilde" unicode="&#xc3;" horiz-adv-x="1590" 
d="M1566 0h-397l-103 301h-552l-103 -301h-387l550 1489h442zM973 574l-183 534l-183 -534h366zM1199 1991c-6.66699 -112.667 -34.1689 -196.167 -82.502 -250.5s-115.833 -81.5 -202.5 -81.5c-31.333 0 -61.166 6.16699 -89.499 18.5s-54.166 25.5 -77.499 39.5
c-20.667 12.667 -43.5 25.5 -68.5 38.5s-45.833 19.5 -62.5 19.5c-32.667 0 -54.5 -10.667 -65.5 -32s-17.5 -51.333 -19.5 -90h-219c4 100.667 31.833 181 83.5 241s118.5 90 200.5 90c32 0 62.333 -5.83301 91 -17.5s55 -24.5 79 -38.5l69 -37.5
c21.333 -11.667 41 -17.5 59 -17.5c32 0 54 10.667 66 32s18.667 50 20 86h219z" />
    <glyph glyph-name="Adieresis" unicode="&#xc4;" horiz-adv-x="1590" 
d="M1566 0h-397l-103 301h-552l-103 -301h-387l550 1489h442zM973 574l-183 534l-183 -534h366zM1214 1656h-297v273h297v-273zM677 1656h-297v273h297v-273z" />
    <glyph glyph-name="Aring" unicode="&#xc5;" horiz-adv-x="1590" 
d="M1566 0l-397 -0.000976562l-103 301h-552l-103 -301h-387l524 1419c-28 26.667 -50.833 58 -68.5 94s-26.5 74 -26.5 114c0 84.667 34 157.167 102 217.5s148 90.5 240 90.5s172 -30.167 240 -90.5s102 -132.833 102 -217.5c0 -41.333 -9.16699 -80.166 -27.5 -116.499
s-40.833 -66.833 -67.5 -91.5zM973 573.999l-183 534l-183 -534h366zM931 1635c0 42 -12.833 76.667 -38.5 104s-58.167 41 -97.5 41s-71.833 -13.667 -97.5 -41s-38.5 -62 -38.5 -104s12.667 -76.833 38 -104.5s58 -41.5 98 -41.5s72.667 14 98 42s38 62.667 38 104z" />
    <glyph glyph-name="AE" unicode="&#xc6;" horiz-adv-x="2240" 
d="M679 688h355v527h-144zM1034 404h-469l-162 -404h-399l611 1489h1493v-288h-695v-257h645v-288h-645v-368h695v-288h-1074v404z" />
    <glyph glyph-name="Ccedilla" unicode="&#xc7;" horiz-adv-x="1482" 
d="M858 -26c-111.333 0.666992 -213.168 17.168 -305.501 49.501s-171.833 80.833 -238.5 145.5c-66.667 64 -118.5 144 -155.5 240s-55.5 207.333 -55.5 334c0 118 17.667 225 53 321s86.666 178.333 153.999 247c64.667 66 144.834 117 240.501 153s200.167 54 313.5 54
c62.667 0 119.167 -3.5 169.5 -10.5s96.833 -16.167 139.5 -27.5c44.667 -12.667 85.167 -26.834 121.5 -42.501s68.166 -30.167 95.499 -43.5v-361h-44c-18.667 16 -42.167 35 -70.5 57s-60.5 43.667 -96.5 65c-36.667 21.333 -76.334 39.333 -119.001 54
s-88.334 22 -137.001 22c-54 0 -105.333 -8.5 -154 -25.5s-93.667 -45.167 -135 -84.5c-39.333 -38 -71.166 -88.333 -95.499 -151s-36.5 -138.667 -36.5 -228c0 -93.333 13.167 -171.333 39.5 -234s59.5 -112 99.5 -148c40.667 -36.667 86 -62.834 136 -78.501
s99.333 -23.5 148 -23.5c46.667 0 92.834 7 138.501 21s87.834 33 126.501 57c32.667 19.333 63 40 91 62s51 41 69 57h40v-356c-39.333 -17.333 -85.333 -36.5 -138 -57.5s-109 -37.167 -169 -48.5c0 -10 0.5 -22.667 1.5 -38s1.5 -29 1.5 -41
c0 -108 -33.167 -191.167 -99.5 -249.5s-152.833 -87.5 -259.5 -87.5c-23.333 0 -57.166 1.83301 -101.499 5.5s-81.5 9.83398 -111.5 18.501v200h23c16 -7.33301 39.333 -15 70 -23s60 -12 88 -12c53.333 0 93.833 13.333 121.5 40s41.5 66.667 41.5 120v48z" />
    <glyph glyph-name="Egrave" unicode="&#xc8;" horiz-adv-x="1399" 
d="M1267 0h-1077v1489h1077v-288h-695v-257h645v-288h-645v-368h695v-288zM979 1656h-246l-352 373v20h351z" />
    <glyph glyph-name="Eacute" unicode="&#xc9;" horiz-adv-x="1399" 
d="M1267 0h-1077v1489h1077v-288h-695v-257h645v-288h-645v-368h695v-288zM1099 2049v-20l-352 -373h-246l247 393h351z" />
    <glyph glyph-name="Ecircumflex" unicode="&#xca;" horiz-adv-x="1399" 
d="M1267 0h-1077v1489h1077v-288h-695v-257h645v-288h-645v-368h695v-288zM1175 1656h-264l-185 219l-184 -219h-260l321 393h251z" />
    <glyph glyph-name="Edieresis" unicode="&#xcb;" horiz-adv-x="1399" 
d="M1267 0h-1077v1489h1077v-288h-695v-257h645v-288h-645v-368h695v-288zM1145 1656h-297v273h297v-273zM608 1656h-297v273h297v-273z" />
    <glyph glyph-name="Igrave" unicode="&#xcc;" horiz-adv-x="1118" 
d="M995 0h-872v264h244v961h-244v264h872v-264h-244v-961h244v-264zM792 1656h-246l-352 373v20h351z" />
    <glyph glyph-name="Iacute" unicode="&#xcd;" horiz-adv-x="1118" 
d="M995 0h-872v264h244v961h-244v264h872v-264h-244v-961h244v-264zM913 2049v-20l-352 -373h-246l247 393h351z" />
    <glyph glyph-name="Icircumflex" unicode="&#xce;" horiz-adv-x="1118" 
d="M995 0h-872v264h244v961h-244v264h872v-264h-244v-961h244v-264zM1006 1656h-264l-185 219l-184 -219h-260l321 393h251z" />
    <glyph glyph-name="Idieresis" unicode="&#xcf;" horiz-adv-x="1118" 
d="M995 0h-872v264h244v961h-244v264h872v-264h-244v-961h244v-264zM976 1656h-297v273h297v-273zM439 1656h-297v273h297v-273z" />
    <glyph glyph-name="Eth" unicode="&#xd0;" horiz-adv-x="1700" 
d="M1597 743c0 -138.667 -31.665 -262.833 -94.998 -372.5s-143.333 -193.834 -240 -252.501c-72.667 -44 -152.334 -74.667 -239.001 -92s-189.334 -26 -308.001 -26h-525v679h-162v233h162v577h540c121.333 0 226 -10.167 314 -30.5s162 -49.166 222 -86.499
c102.667 -62.667 183.5 -147.167 242.5 -253.5s88.5 -231.5 88.5 -375.5zM1200 746.001c0 98 -17.834 181.833 -53.501 251.5s-92.167 124.167 -169.5 163.5c-39.333 19.333 -79.5 32.5 -120.5 39.5s-102.833 10.5 -185.5 10.5h-97v-299h317v-233h-317v-400h97
c91.333 0 158.333 4.16699 201 12.5s84.334 23.5 125.001 45.5c70 40 121.333 93.5 154 160.5s49 149.833 49 248.5z" />
    <glyph glyph-name="Ntilde" unicode="&#xd1;" horiz-adv-x="1734" 
d="M1544 0h-370l-632 1022v-1022h-352v1489h459l543 -853v853h352v-1489zM1312 1991c-6.66699 -112.667 -34.1689 -196.167 -82.502 -250.5s-115.833 -81.5 -202.5 -81.5c-31.333 0 -61.166 6.16699 -89.499 18.5s-54.166 25.5 -77.499 39.5
c-20.667 12.667 -43.5 25.5 -68.5 38.5s-45.833 19.5 -62.5 19.5c-32.667 0 -54.5 -10.667 -65.5 -32s-17.5 -51.333 -19.5 -90h-219c4 100.667 31.833 181 83.5 241s118.5 90 200.5 90c32 0 62.333 -5.83301 91 -17.5s55 -24.5 79 -38.5l69 -37.5
c21.333 -11.667 41 -17.5 59 -17.5c32 0 54 10.667 66 32s18.667 50 20 86h219z" />
    <glyph glyph-name="Ograve" unicode="&#xd2;" horiz-adv-x="1741" 
d="M1638 744c0 -237.333 -68.001 -425.833 -204.001 -565.5s-324 -209.5 -564 -209.5c-239.333 0 -427 69.833 -563 209.5s-204 328.167 -204 565.5c0 239.333 68 428.5 204 567.5s323.667 208.5 563 208.5c238.667 0 426.334 -69.5 563.001 -208.5s205 -328.167 205 -567.5
zM1129 367c37.333 45.333 65.001 98.832 83.001 160.499s27 134.167 27 217.5c0 89.333 -10.333 165.333 -31 228s-47.667 113.334 -81 152.001c-34 40 -73.167 69 -117.5 87s-90.5 27 -138.5 27c-48.667 0 -94.5 -8.66699 -137.5 -26s-82.5 -46 -118.5 -86
c-33.333 -37.333 -60.5 -88.833 -81.5 -154.5s-31.5 -141.834 -31.5 -228.501c0 -88.667 10.167 -164.167 30.5 -226.5s47.166 -113.166 80.499 -152.499s72.333 -68.333 117 -87s91.667 -28 141 -28s96.333 9.5 141 28.5s83.667 48.5 117 88.5zM1115 1656h-246l-352 373v20
h351z" />
    <glyph glyph-name="Oacute" unicode="&#xd3;" horiz-adv-x="1741" 
d="M1638 744c0 -237.333 -68.001 -425.833 -204.001 -565.5s-324 -209.5 -564 -209.5c-239.333 0 -427 69.833 -563 209.5s-204 328.167 -204 565.5c0 239.333 68 428.5 204 567.5s323.667 208.5 563 208.5c238.667 0 426.334 -69.5 563.001 -208.5s205 -328.167 205 -567.5
zM1129 367c37.333 45.333 65.001 98.832 83.001 160.499s27 134.167 27 217.5c0 89.333 -10.333 165.333 -31 228s-47.667 113.334 -81 152.001c-34 40 -73.167 69 -117.5 87s-90.5 27 -138.5 27c-48.667 0 -94.5 -8.66699 -137.5 -26s-82.5 -46 -118.5 -86
c-33.333 -37.333 -60.5 -88.833 -81.5 -154.5s-31.5 -141.834 -31.5 -228.501c0 -88.667 10.167 -164.167 30.5 -226.5s47.166 -113.166 80.499 -152.499s72.333 -68.333 117 -87s91.667 -28 141 -28s96.333 9.5 141 28.5s83.667 48.5 117 88.5zM1224 2049v-20l-352 -373
h-246l247 393h351z" />
    <glyph glyph-name="Ocircumflex" unicode="&#xd4;" horiz-adv-x="1741" 
d="M1638 744c0 -237.333 -68.001 -425.833 -204.001 -565.5s-324 -209.5 -564 -209.5c-239.333 0 -427 69.833 -563 209.5s-204 328.167 -204 565.5c0 239.333 68 428.5 204 567.5s323.667 208.5 563 208.5c238.667 0 426.334 -69.5 563.001 -208.5s205 -328.167 205 -567.5
zM1129 367c37.333 45.333 65.001 98.832 83.001 160.499s27 134.167 27 217.5c0 89.333 -10.333 165.333 -31 228s-47.667 113.334 -81 152.001c-34 40 -73.167 69 -117.5 87s-90.5 27 -138.5 27c-48.667 0 -94.5 -8.66699 -137.5 -26s-82.5 -46 -118.5 -86
c-33.333 -37.333 -60.5 -88.833 -81.5 -154.5s-31.5 -141.834 -31.5 -228.501c0 -88.667 10.167 -164.167 30.5 -226.5s47.166 -113.166 80.499 -152.499s72.333 -68.333 117 -87s91.667 -28 141 -28s96.333 9.5 141 28.5s83.667 48.5 117 88.5zM1318 1656h-264l-185 219
l-184 -219h-260l321 393h251z" />
    <glyph glyph-name="Otilde" unicode="&#xd5;" horiz-adv-x="1741" 
d="M1638 744c0 -237.333 -68.001 -425.833 -204.001 -565.5s-324 -209.5 -564 -209.5c-239.333 0 -427 69.833 -563 209.5s-204 328.167 -204 565.5c0 239.333 68 428.5 204 567.5s323.667 208.5 563 208.5c238.667 0 426.334 -69.5 563.001 -208.5s205 -328.167 205 -567.5
zM1129 367c37.333 45.333 65.001 98.832 83.001 160.499s27 134.167 27 217.5c0 89.333 -10.333 165.333 -31 228s-47.667 113.334 -81 152.001c-34 40 -73.167 69 -117.5 87s-90.5 27 -138.5 27c-48.667 0 -94.5 -8.66699 -137.5 -26s-82.5 -46 -118.5 -86
c-33.333 -37.333 -60.5 -88.833 -81.5 -154.5s-31.5 -141.834 -31.5 -228.501c0 -88.667 10.167 -164.167 30.5 -226.5s47.166 -113.166 80.499 -152.499s72.333 -68.333 117 -87s91.667 -28 141 -28s96.333 9.5 141 28.5s83.667 48.5 117 88.5zM1315 1991
c-6.66699 -112.667 -34.1689 -196.167 -82.502 -250.5s-115.833 -81.5 -202.5 -81.5c-31.333 0 -61.166 6.16699 -89.499 18.5s-54.166 25.5 -77.499 39.5c-20.667 12.667 -43.5 25.5 -68.5 38.5s-45.833 19.5 -62.5 19.5c-32.667 0 -54.5 -10.667 -65.5 -32
s-17.5 -51.333 -19.5 -90h-219c4 100.667 31.833 181 83.5 241s118.5 90 200.5 90c32 0 62.333 -5.83301 91 -17.5s55 -24.5 79 -38.5l69 -37.5c21.333 -11.667 41 -17.5 59 -17.5c32 0 54 10.667 66 32s18.667 50 20 86h219z" />
    <glyph glyph-name="Odieresis" unicode="&#xd6;" horiz-adv-x="1741" 
d="M1638 744c0 -237.333 -68.001 -425.833 -204.001 -565.5s-324 -209.5 -564 -209.5c-239.333 0 -427 69.833 -563 209.5s-204 328.167 -204 565.5c0 239.333 68 428.5 204 567.5s323.667 208.5 563 208.5c238.667 0 426.334 -69.5 563.001 -208.5s205 -328.167 205 -567.5
zM1129 367c37.333 45.333 65.001 98.832 83.001 160.499s27 134.167 27 217.5c0 89.333 -10.333 165.333 -31 228s-47.667 113.334 -81 152.001c-34 40 -73.167 69 -117.5 87s-90.5 27 -138.5 27c-48.667 0 -94.5 -8.66699 -137.5 -26s-82.5 -46 -118.5 -86
c-33.333 -37.333 -60.5 -88.833 -81.5 -154.5s-31.5 -141.834 -31.5 -228.501c0 -88.667 10.167 -164.167 30.5 -226.5s47.166 -113.166 80.499 -152.499s72.333 -68.333 117 -87s91.667 -28 141 -28s96.333 9.5 141 28.5s83.667 48.5 117 88.5zM1288 1656h-297v273h297
v-273zM751 1656h-297v273h297v-273z" />
    <glyph glyph-name="multiply" unicode="&#xd7;" horiz-adv-x="1776" 
d="M1512 1099l-437 -437l437 -437l-187 -187l-437 437l-437 -437l-187 187l437 437l-437 437l187 187l437 -437l437 437z" />
    <glyph glyph-name="Oslash" unicode="&#xd8;" horiz-adv-x="1741" 
d="M1192 1049l-541.001 -732.999c30 -24 63.667 -42.333 101 -55s77 -19 119 -19c48 0 95.833 9.83301 143.5 29.5s87.834 49.5 120.501 89.5c38 45.333 66.167 99.666 84.5 162.999s27.5 137 27.5 221c0 56 -5.16699 112 -15.5 168s-23.5 101.333 -39.5 136z
M546.999 445.001l537.999 732.001c-31.333 24 -65.166 41.667 -101.499 53s-73.833 17 -112.5 17c-52 0 -99 -8.33301 -141 -25s-82 -46.334 -120 -89.001c-34.667 -38 -62.667 -89.5 -84 -154.5s-32 -143.167 -32 -234.5c0 -60 4.66699 -115.5 14 -166.5
s22.333 -95.167 39 -132.5zM328.998 162.002c-72 68 -127.666 151.5 -166.999 250.5s-59 209.5 -59 331.5c0 239.333 68 428.5 204 567.5s323.667 208.5 563 208.5c79.333 0 151.833 -7.66699 217.5 -23s127.167 -38.333 184.5 -69l123 164h210l-196 -261
c72.667 -66.667 129 -149.834 169 -249.501s60 -212.167 60 -337.5c0 -237.333 -68 -425.833 -204 -565.5s-324 -209.5 -564 -209.5c-76.667 0 -149.834 8.33301 -219.501 25s-132.167 40.334 -187.5 71.001l-155 -207h-207z" />
    <glyph glyph-name="Ugrave" unicode="&#xd9;" horiz-adv-x="1663" 
d="M1494 539c0 -184 -55.999 -325 -167.999 -423s-277 -147 -495 -147s-382.833 49 -494.5 147s-167.5 238.667 -167.5 422v951h386v-929c0 -103.333 21.667 -180.333 65 -231s113.666 -76 210.999 -76c96 0 166.167 24.333 210.5 73s66.5 126.667 66.5 234v929h386v-950z
M1112 1656h-246l-352 373v20h351z" />
    <glyph glyph-name="Uacute" unicode="&#xda;" horiz-adv-x="1663" 
d="M1494 539c0 -184 -55.999 -325 -167.999 -423s-277 -147 -495 -147s-382.833 49 -494.5 147s-167.5 238.667 -167.5 422v951h386v-929c0 -103.333 21.667 -180.333 65 -231s113.666 -76 210.999 -76c96 0 166.167 24.333 210.5 73s66.5 126.667 66.5 234v929h386v-950z
M1124 2049v-20l-352 -373h-246l247 393h351z" />
    <glyph glyph-name="Ucircumflex" unicode="&#xdb;" horiz-adv-x="1663" 
d="M1494 539c0 -184 -55.999 -325 -167.999 -423s-277 -147 -495 -147s-382.833 49 -494.5 147s-167.5 238.667 -167.5 422v951h386v-929c0 -103.333 21.667 -180.333 65 -231s113.666 -76 210.999 -76c96 0 166.167 24.333 210.5 73s66.5 126.667 66.5 234v929h386v-950z
M1279 1656h-264l-185 219l-184 -219h-260l321 393h251z" />
    <glyph glyph-name="Udieresis" unicode="&#xdc;" horiz-adv-x="1663" 
d="M1494 539c0 -184 -55.999 -325 -167.999 -423s-277 -147 -495 -147s-382.833 49 -494.5 147s-167.5 238.667 -167.5 422v951h386v-929c0 -103.333 21.667 -180.333 65 -231s113.666 -76 210.999 -76c96 0 166.167 24.333 210.5 73s66.5 126.667 66.5 234v929h386v-950z
M1249 1656h-297v273h297v-273zM712.001 1656h-297v273h297v-273z" />
    <glyph glyph-name="Yacute" unicode="&#xdd;" horiz-adv-x="1509" 
d="M1500 1489l-549 -913v-576h-384v558l-558 931h436l322 -576l311 576h422zM1083 2049v-20l-352 -373h-246l247 393h351z" />
    <glyph glyph-name="Thorn" unicode="&#xde;" horiz-adv-x="1505" 
d="M1419 794c0 -68 -11.832 -133.5 -35.499 -196.5s-57.834 -116.167 -102.501 -159.5c-54 -52.667 -119.5 -95.167 -196.5 -127.5s-172.167 -48.5 -285.5 -48.5h-225v-262h-384v1489h384v-225h234c95.333 0 175.833 -7.83301 241.5 -23.5s125.834 -40.5 180.501 -74.5
c61.333 -38.667 108.166 -89 140.499 -151s48.5 -135.667 48.5 -221zM1022 785c0 43.333 -10.667 79.999 -32 109.999s-48.333 51 -81 63c-40.667 14.667 -79 23 -115 25s-86.333 3 -151 3h-69v-446h94c68.667 0 125.5 3.33301 170.5 10s82.833 23 113.5 49
c25.333 22 43.333 46.833 54 74.5s16 64.834 16 111.501z" />
    <glyph glyph-name="germandbls" unicode="&#xdf;" horiz-adv-x="1460" 
d="M1380 468c0 -158.667 -50.5 -278.667 -151.5 -360s-236.833 -122 -407.5 -122c-23.333 0 -53.833 1.66699 -91.5 5s-64.834 6.33301 -81.501 9v272h40c11.333 -3.33301 27.833 -7.16602 49.5 -11.499s43.5 -6.5 65.5 -6.5c59.333 0 109 20.667 149 62s60 99 60 173
c0 75.333 -26 128.833 -78 160.5s-132.333 47.5 -241 47.5v267c70 0 122.833 16.333 158.5 49s53.5 83 53.5 151c0 52 -14.5 92 -43.5 120s-73.167 42 -132.5 42c-69.333 0 -119.833 -21.333 -151.5 -64s-47.5 -101.334 -47.5 -176.001v-1086h-360v1056
c0 162.667 50.333 288.334 151 377.001s238.667 133 414 133c94 0 173.167 -9.33301 237.5 -28s118.833 -44.667 163.5 -78c42.667 -32.667 74.667 -70.334 96 -113.001s32 -88.334 32 -137.001c0 -90.667 -27.667 -167.5 -83 -230.5s-124.666 -100.167 -207.999 -111.5v-9
c124 -17.333 222.833 -60.666 296.5 -129.999s110.5 -156.333 110.5 -261z" />
    <glyph glyph-name="agrave" unicode="&#xe0;" horiz-adv-x="1368" 
d="M850 293l0.00292969 233.999c-48.667 -4 -101.334 -9.5 -158.001 -16.5s-99.667 -15.167 -129 -24.5c-36 -11.333 -63.5 -27.833 -82.5 -49.5s-28.5 -50.167 -28.5 -85.5c0 -23.333 2 -42.333 6 -57s14 -28.667 30 -42c15.333 -13.333 33.666 -23.166 54.999 -29.499
s54.666 -9.5 99.999 -9.5c36 0 72.5 7.33301 109.5 22s69.5 34 97.5 58zM850.003 118.999l-72.002 -53c-28.667 -20.667 -55.667 -37 -81 -49c-35.333 -16 -72 -27.833 -110 -35.5s-79.667 -11.5 -125 -11.5c-106.667 0 -196 33 -268 99s-108 150.333 -108 253
c0 82 18.333 149 55 201s88.667 93 156 123c66.667 30 149.334 51.333 248.001 64s201 22 307 28v6c0 62 -25.333 104.833 -76 128.5s-125.334 35.5 -224.001 35.5c-59.333 0 -122.666 -10.5 -189.999 -31.5s-115.666 -37.167 -144.999 -48.5h-33v271
c38 10 99.833 21.833 185.5 35.5s171.5 20.5 257.5 20.5c204.667 0 352.5 -31.5 443.5 -94.5s136.5 -161.833 136.5 -296.5v-764h-357v119zM932.001 1283h-246l-352 373v20h351z" />
    <glyph glyph-name="aacute" unicode="&#xe1;" horiz-adv-x="1368" 
d="M850 293l0.00292969 233.999c-48.667 -4 -101.334 -9.5 -158.001 -16.5s-99.667 -15.167 -129 -24.5c-36 -11.333 -63.5 -27.833 -82.5 -49.5s-28.5 -50.167 -28.5 -85.5c0 -23.333 2 -42.333 6 -57s14 -28.667 30 -42c15.333 -13.333 33.666 -23.166 54.999 -29.499
s54.666 -9.5 99.999 -9.5c36 0 72.5 7.33301 109.5 22s69.5 34 97.5 58zM850.003 118.999l-72.002 -53c-28.667 -20.667 -55.667 -37 -81 -49c-35.333 -16 -72 -27.833 -110 -35.5s-79.667 -11.5 -125 -11.5c-106.667 0 -196 33 -268 99s-108 150.333 -108 253
c0 82 18.333 149 55 201s88.667 93 156 123c66.667 30 149.334 51.333 248.001 64s201 22 307 28v6c0 62 -25.333 104.833 -76 128.5s-125.334 35.5 -224.001 35.5c-59.333 0 -122.666 -10.5 -189.999 -31.5s-115.666 -37.167 -144.999 -48.5h-33v271
c38 10 99.833 21.833 185.5 35.5s171.5 20.5 257.5 20.5c204.667 0 352.5 -31.5 443.5 -94.5s136.5 -161.833 136.5 -296.5v-764h-357v119zM1043 1676v-20l-352 -373h-246l247 393h351z" />
    <glyph glyph-name="acircumflex" unicode="&#xe2;" horiz-adv-x="1368" 
d="M850 293l0.00292969 233.999c-48.667 -4 -101.334 -9.5 -158.001 -16.5s-99.667 -15.167 -129 -24.5c-36 -11.333 -63.5 -27.833 -82.5 -49.5s-28.5 -50.167 -28.5 -85.5c0 -23.333 2 -42.333 6 -57s14 -28.667 30 -42c15.333 -13.333 33.666 -23.166 54.999 -29.499
s54.666 -9.5 99.999 -9.5c36 0 72.5 7.33301 109.5 22s69.5 34 97.5 58zM850.003 118.999l-72.002 -53c-28.667 -20.667 -55.667 -37 -81 -49c-35.333 -16 -72 -27.833 -110 -35.5s-79.667 -11.5 -125 -11.5c-106.667 0 -196 33 -268 99s-108 150.333 -108 253
c0 82 18.333 149 55 201s88.667 93 156 123c66.667 30 149.334 51.333 248.001 64s201 22 307 28v6c0 62 -25.333 104.833 -76 128.5s-125.334 35.5 -224.001 35.5c-59.333 0 -122.666 -10.5 -189.999 -31.5s-115.666 -37.167 -144.999 -48.5h-33v271
c38 10 99.833 21.833 185.5 35.5s171.5 20.5 257.5 20.5c204.667 0 352.5 -31.5 443.5 -94.5s136.5 -161.833 136.5 -296.5v-764h-357v119zM1105 1283h-264l-185 219l-184 -219h-260l321 393h251z" />
    <glyph glyph-name="atilde" unicode="&#xe3;" horiz-adv-x="1368" 
d="M850 293l0.00292969 233.999c-48.667 -4 -101.334 -9.5 -158.001 -16.5s-99.667 -15.167 -129 -24.5c-36 -11.333 -63.5 -27.833 -82.5 -49.5s-28.5 -50.167 -28.5 -85.5c0 -23.333 2 -42.333 6 -57s14 -28.667 30 -42c15.333 -13.333 33.666 -23.166 54.999 -29.499
s54.666 -9.5 99.999 -9.5c36 0 72.5 7.33301 109.5 22s69.5 34 97.5 58zM850.003 118.999l-72.002 -53c-28.667 -20.667 -55.667 -37 -81 -49c-35.333 -16 -72 -27.833 -110 -35.5s-79.667 -11.5 -125 -11.5c-106.667 0 -196 33 -268 99s-108 150.333 -108 253
c0 82 18.333 149 55 201s88.667 93 156 123c66.667 30 149.334 51.333 248.001 64s201 22 307 28v6c0 62 -25.333 104.833 -76 128.5s-125.334 35.5 -224.001 35.5c-59.333 0 -122.666 -10.5 -189.999 -31.5s-115.666 -37.167 -144.999 -48.5h-33v271
c38 10 99.833 21.833 185.5 35.5s171.5 20.5 257.5 20.5c204.667 0 352.5 -31.5 443.5 -94.5s136.5 -161.833 136.5 -296.5v-764h-357v119zM1116 1618c-6.66699 -112.667 -34.1689 -196.167 -82.502 -250.5s-115.833 -81.5 -202.5 -81.5
c-31.333 0 -61.166 6.16699 -89.499 18.5s-54.166 25.5 -77.499 39.5c-20.667 12.667 -43.5 25.5 -68.5 38.5s-45.833 19.5 -62.5 19.5c-32.667 0 -54.5 -10.667 -65.5 -32s-17.5 -51.333 -19.5 -90h-219c4 100.667 31.833 181 83.5 241s118.5 90 200.5 90
c32 0 62.333 -5.83301 91 -17.5s55 -24.5 79 -38.5l69 -37.5c21.333 -11.667 41 -17.5 59 -17.5c32 0 54 10.667 66 32s18.667 50 20 86h219z" />
    <glyph glyph-name="adieresis" unicode="&#xe4;" horiz-adv-x="1368" 
d="M850 293l0.00292969 233.999c-48.667 -4 -101.334 -9.5 -158.001 -16.5s-99.667 -15.167 -129 -24.5c-36 -11.333 -63.5 -27.833 -82.5 -49.5s-28.5 -50.167 -28.5 -85.5c0 -23.333 2 -42.333 6 -57s14 -28.667 30 -42c15.333 -13.333 33.666 -23.166 54.999 -29.499
s54.666 -9.5 99.999 -9.5c36 0 72.5 7.33301 109.5 22s69.5 34 97.5 58zM850.003 118.999l-72.002 -53c-28.667 -20.667 -55.667 -37 -81 -49c-35.333 -16 -72 -27.833 -110 -35.5s-79.667 -11.5 -125 -11.5c-106.667 0 -196 33 -268 99s-108 150.333 -108 253
c0 82 18.333 149 55 201s88.667 93 156 123c66.667 30 149.334 51.333 248.001 64s201 22 307 28v6c0 62 -25.333 104.833 -76 128.5s-125.334 35.5 -224.001 35.5c-59.333 0 -122.666 -10.5 -189.999 -31.5s-115.666 -37.167 -144.999 -48.5h-33v271
c38 10 99.833 21.833 185.5 35.5s171.5 20.5 257.5 20.5c204.667 0 352.5 -31.5 443.5 -94.5s136.5 -161.833 136.5 -296.5v-764h-357v119zM1090 1283h-297v273h297v-273zM553.001 1283h-297v273h297v-273z" />
    <glyph glyph-name="aring" unicode="&#xe5;" horiz-adv-x="1368" 
d="M850 293l0.00292969 233.999c-48.667 -4 -101.334 -9.5 -158.001 -16.5s-99.667 -15.167 -129 -24.5c-36 -11.333 -63.5 -27.833 -82.5 -49.5s-28.5 -50.167 -28.5 -85.5c0 -23.333 2 -42.333 6 -57s14 -28.667 30 -42c15.333 -13.333 33.666 -23.166 54.999 -29.499
s54.666 -9.5 99.999 -9.5c36 0 72.5 7.33301 109.5 22s69.5 34 97.5 58zM850.003 118.999l-72.002 -53c-28.667 -20.667 -55.667 -37 -81 -49c-35.333 -16 -72 -27.833 -110 -35.5s-79.667 -11.5 -125 -11.5c-106.667 0 -196 33 -268 99s-108 150.333 -108 253
c0 82 18.333 149 55 201s88.667 93 156 123c66.667 30 149.334 51.333 248.001 64s201 22 307 28v6c0 62 -25.333 104.833 -76 128.5s-125.334 35.5 -224.001 35.5c-59.333 0 -122.666 -10.5 -189.999 -31.5s-115.666 -37.167 -144.999 -48.5h-33v271
c36 9.33301 82.167 19 138.5 29s127.5 17.333 213.5 22c-52.667 24 -95.167 60 -127.5 108s-48.5 102.333 -48.5 163c0 86 30.833 157.667 92.5 215s136.834 86 225.501 86c89.333 0 164.666 -28.833 225.999 -86.5s92 -129.167 92 -214.5
c0 -64.667 -17.667 -121.667 -53 -171s-81 -84.666 -137 -105.999c133.333 -15.333 233.5 -52.833 300.5 -112.5s100.5 -148.834 100.5 -267.501v-764h-357v119zM814.001 1420c0 41.333 -12.833 76.333 -38.5 105s-58.167 43 -97.5 43s-71.833 -14.167 -97.5 -42.5
s-38.5 -63.5 -38.5 -105.5s12.667 -76.833 38 -104.5s58 -41.5 98 -41.5s72.667 14 98 42s38 62.667 38 104z" />
    <glyph glyph-name="ae" unicode="&#xe6;" horiz-adv-x="2085" 
d="M2001 495l-811.002 0.00292969c3.33301 -52.667 15.166 -96.334 35.499 -131.001s46.833 -62.334 79.5 -83.001s70.334 -35.5 113.001 -44.5s89 -13.5 139 -13.5c74 0 145.833 13.333 215.5 40s125.5 56.334 167.5 89.001h40v-289
c-70 -28.667 -140.833 -51.334 -212.5 -68.001s-154.834 -25 -249.501 -25c-102 0 -199.667 14.833 -293 44.5s-176 76.167 -248 139.5l-84.5 -60c-35.667 -24.667 -70.167 -44.667 -103.5 -60c-43.333 -19.333 -89.166 -34.833 -137.499 -46.5
s-109.166 -17.5 -182.499 -17.5c-113.333 0 -205.5 32.833 -276.5 98.5s-106.5 150.167 -106.5 253.5c0 84 18.667 151.5 56 202.5s89 91.5 155 121.5c64 28.667 144.167 49.667 240.5 63s197.833 23 304.5 29v6c0 62 -23.5 104.833 -70.5 128.5s-120.167 35.5 -219.5 35.5
c-59.333 0 -122.666 -10.5 -189.999 -31.5s-115.666 -37.167 -144.999 -48.5h-33v271c38 10 99.833 21.833 185.5 35.5s171.5 20.5 257.5 20.5c102 0 188.5 -9.83301 259.5 -29.5s130.5 -46.834 178.5 -81.501c51.333 33.333 110.666 60.666 177.999 81.999
s139.333 32 216 32c180.667 0 316.167 -46.167 406.5 -138.5s135.5 -225.166 135.5 -398.499v-126zM1643 706.003c-2 74 -20.1689 130.333 -54.502 169s-87.833 58 -160.5 58c-67.333 0 -122.666 -18 -165.999 -54s-67.666 -93.667 -72.999 -173h454zM876.996 306.003
c-17.333 42.667 -28.5 84.499 -33.5 125.499s-7.5 72.5 -7.5 94.5c-55.333 -4.66699 -105.833 -9.66699 -151.5 -15s-86.5 -14 -122.5 -26c-34 -10.667 -60.833 -26.834 -80.5 -48.501s-29.5 -50.167 -29.5 -85.5c0 -19.333 2.33301 -37.666 7 -54.999s14 -32 28 -44
c14 -13.333 33.833 -23.166 59.5 -29.499s56.5 -9.5 92.5 -9.5c40 0 80.5 8.5 121.5 25.5s79.833 39.5 116.5 67.5z" />
    <glyph glyph-name="ccedilla" unicode="&#xe7;" horiz-adv-x="1205" 
d="M726 -27c-93.333 2 -179.166 15.332 -257.499 39.999s-145.833 61 -202.5 109c-56 48 -99.667 108.167 -131 180.5s-47 157.166 -47 254.499c0 104.667 17.5 195 52.5 271s83.833 139 146.5 189c60.667 47.333 130.667 82 210 104s161.666 33 246.999 33
c76.667 0 147.334 -8.33301 212.001 -25s125 -38.334 181 -65.001v-307h-51l-50.5 42c-19.667 16 -43.834 31.667 -72.501 47c-27.333 14.667 -57.333 26.834 -90 36.501s-70.667 14.5 -114 14.5c-96 0 -169.833 -30.5 -221.5 -91.5s-77.5 -143.833 -77.5 -248.5
c0 -108 26.5 -190 79.5 -246s128.167 -84 225.5 -84c45.333 0 86.166 5.16699 122.499 15.5s66.5 22.5 90.5 36.5c22.667 13.333 42.667 27.333 60 42s33.333 29 48 43h51v-307c-24 -10 -52.333 -21.167 -85 -33.5s-66.667 -22.166 -102 -29.499
c0 -10.667 0.5 -23.667 1.5 -39s1.5 -29 1.5 -41c0 -108 -33.167 -191.167 -99.5 -249.5s-152.833 -87.5 -259.5 -87.5c-23.333 0 -57.166 1.83301 -101.499 5.5s-81.5 9.83398 -111.5 18.501v200h23c16 -7.33301 39.333 -15 70 -23s60 -12 88 -12
c53.333 0 94 13.333 122 40s42 66.667 42 120v47z" />
    <glyph glyph-name="egrave" unicode="&#xe8;" horiz-adv-x="1360" 
d="M1276 495l-823.999 0.00292969c5.33301 -88 38.833 -155.333 100.5 -202s152.5 -70 272.5 -70c76 0 149.667 13.667 221 41s127.666 56.666 168.999 87.999h40v-289c-81.333 -32.667 -158 -56.334 -230 -71.001s-151.667 -22 -239 -22c-225.333 0 -398 50.667 -518 152
s-180 245.666 -180 432.999c0 185.333 56.833 332.166 170.5 440.499s269.5 162.5 467.5 162.5c182.667 0 320 -46.167 412 -138.5s138 -225.166 138 -398.499v-126zM918.001 706.003c-2 75.333 -20.667 132 -56 170s-90.333 57 -165 57c-69.333 0 -126.333 -18 -171 -54
s-69.667 -93.667 -75 -173h467zM942.001 1283h-246l-352 373v20h351z" />
    <glyph glyph-name="eacute" unicode="&#xe9;" horiz-adv-x="1360" 
d="M1276 495l-823.999 0.00292969c5.33301 -88 38.833 -155.333 100.5 -202s152.5 -70 272.5 -70c76 0 149.667 13.667 221 41s127.666 56.666 168.999 87.999h40v-289c-81.333 -32.667 -158 -56.334 -230 -71.001s-151.667 -22 -239 -22c-225.333 0 -398 50.667 -518 152
s-180 245.666 -180 432.999c0 185.333 56.833 332.166 170.5 440.499s269.5 162.5 467.5 162.5c182.667 0 320 -46.167 412 -138.5s138 -225.166 138 -398.499v-126zM918.001 706.003c-2 75.333 -20.667 132 -56 170s-90.333 57 -165 57c-69.333 0 -126.333 -18 -171 -54
s-69.667 -93.667 -75 -173h467zM1063 1676v-20l-352 -373h-246l247 393h351z" />
    <glyph glyph-name="ecircumflex" unicode="&#xea;" horiz-adv-x="1360" 
d="M1276 495l-823.999 0.00292969c5.33301 -88 38.833 -155.333 100.5 -202s152.5 -70 272.5 -70c76 0 149.667 13.667 221 41s127.666 56.666 168.999 87.999h40v-289c-81.333 -32.667 -158 -56.334 -230 -71.001s-151.667 -22 -239 -22c-225.333 0 -398 50.667 -518 152
s-180 245.666 -180 432.999c0 185.333 56.833 332.166 170.5 440.499s269.5 162.5 467.5 162.5c182.667 0 320 -46.167 412 -138.5s138 -225.166 138 -398.499v-126zM918.001 706.003c-2 75.333 -20.667 132 -56 170s-90.333 57 -165 57c-69.333 0 -126.333 -18 -171 -54
s-69.667 -93.667 -75 -173h467zM1163 1283h-264l-185 219l-184 -219h-260l321 393h251z" />
    <glyph glyph-name="edieresis" unicode="&#xeb;" horiz-adv-x="1360" 
d="M1276 495l-823.999 0.00292969c5.33301 -88 38.833 -155.333 100.5 -202s152.5 -70 272.5 -70c76 0 149.667 13.667 221 41s127.666 56.666 168.999 87.999h40v-289c-81.333 -32.667 -158 -56.334 -230 -71.001s-151.667 -22 -239 -22c-225.333 0 -398 50.667 -518 152
s-180 245.666 -180 432.999c0 185.333 56.833 332.166 170.5 440.499s269.5 162.5 467.5 162.5c182.667 0 320 -46.167 412 -138.5s138 -225.166 138 -398.499v-126zM918.001 706.003c-2 75.333 -20.667 132 -56 170s-90.333 57 -165 57c-69.333 0 -126.333 -18 -171 -54
s-69.667 -93.667 -75 -173h467zM1124 1283h-297v273h297v-273zM587.001 1283h-297v273h297v-273z" />
    <glyph glyph-name="igrave" unicode="&#xec;" horiz-adv-x="700" 
d="M530 0h-360v1123h360v-1123zM592 1283h-246l-352 373v20h351z" />
    <glyph glyph-name="iacute" unicode="&#xed;" horiz-adv-x="700" 
d="M530 0h-360v1123h360v-1123zM702 1676v-20l-352 -373h-246l247 393h351z" />
    <glyph glyph-name="icircumflex" unicode="&#xee;" horiz-adv-x="700" 
d="M530 0h-360v1123h360v-1123zM712 1283h-239l-125 213l-124 -213h-235l234 393h255z" />
    <glyph glyph-name="idieresis" unicode="&#xef;" horiz-adv-x="700" 
d="M530 0h-360v1123h360v-1123zM718 1283h-277v273h277v-273zM259 1283h-277v273h277v-273z" />
    <glyph glyph-name="eth" unicode="&#xf0;" horiz-adv-x="1391" 
d="M1213 1056c25.333 -55.333 45.665 -116 60.998 -182s23 -137.333 23 -214c0 -216 -52.333 -385.833 -157 -509.5s-256 -185.5 -454 -185.5c-186.667 0 -333.167 49.333 -439.5 148s-159.5 233.334 -159.5 404.001c0 81.333 14.5 153.833 43.5 217.5
s68.833 118.167 119.5 163.5c50 43.333 108.667 76.333 176 99s138.333 34 213 34c51.333 0 98 -5.5 140 -16.5s80.333 -24.833 115 -41.5c-14.667 38 -38 79.833 -70 125.5s-68.333 87.834 -109 126.501l-335 -132l-77 176l254 97c-53.333 42 -103.5 77.167 -150.5 105.5
s-88.167 48.166 -123.5 59.499v25h455c7.33301 -2.66699 20.333 -10.334 39 -23.001l76 -53l228 94l76 -175l-143 -59c36.667 -38 72.334 -80.333 107.001 -127s65.334 -99 92.001 -157zM927.999 607c0 17.333 -0.833984 36.5 -2.50098 57.5s-3.5 36.833 -5.5 47.5
c-33.333 26 -67.833 45.5 -103.5 58.5s-73.5 19.5 -113.5 19.5c-80 0 -140.167 -23 -180.5 -69s-60.5 -112 -60.5 -198c0 -94.667 19.833 -169.5 59.5 -224.5s98.167 -82.5 175.5 -82.5c76.667 0 134.334 31.167 173.001 93.5s58 161.5 58 297.5z" />
    <glyph glyph-name="ntilde" unicode="&#xf1;" horiz-adv-x="1459" 
d="M1298 0l-361.998 0.000976562v557c0 45.333 -2.33301 90.5 -7 135.5s-12.667 78.167 -24 99.5c-13.333 24.667 -32.833 42.667 -58.5 54s-61.5 17 -107.5 17c-32.667 0 -65.834 -5.33301 -99.501 -16s-70.167 -27.667 -109.5 -51v-796h-360v1123h360v-124
c64 50 125.5 88.333 184.5 115s124.5 40 196.5 40c121.333 0 216.166 -35.333 284.499 -106s102.5 -176.334 102.5 -317.001v-731zM1184 1618c-6.66699 -112.667 -34.1689 -196.167 -82.502 -250.5s-115.833 -81.5 -202.5 -81.5c-31.333 0 -61.166 6.16699 -89.499 18.5
s-54.166 25.5 -77.499 39.5c-20.667 12.667 -43.5 25.5 -68.5 38.5s-45.833 19.5 -62.5 19.5c-32.667 0 -54.5 -10.667 -65.5 -32s-17.5 -51.333 -19.5 -90h-219c4 100.667 31.833 181 83.5 241s118.5 90 200.5 90c32 0 62.333 -5.83301 91 -17.5s55 -24.5 79 -38.5
l69 -37.5c21.333 -11.667 41 -17.5 59 -17.5c32 0 54 10.667 66 32s18.667 50 20 86h219z" />
    <glyph glyph-name="ograve" unicode="&#xf2;" horiz-adv-x="1406" 
d="M1318 561c0 -184.667 -53.8301 -330.166 -161.497 -436.499s-258.834 -159.5 -453.501 -159.5s-345.834 53.167 -453.501 159.5s-161.5 251.833 -161.5 436.5c0 186 54.167 332 162.5 438s259.166 159 452.499 159c196 0 347.5 -53.333 454.5 -160
s160.5 -252.334 160.5 -437.001zM875.003 288.001c23.333 28.667 40.8311 63.168 52.498 103.501s17.5 96.166 17.5 167.499c0 66 -6 121.333 -18 166s-28.667 80.334 -50 107.001c-21.333 27.333 -47 46.666 -77 57.999s-62.333 17 -97 17s-65.5 -4.66699 -92.5 -14
s-52.833 -28 -77.5 -56c-22 -26 -39.5 -61.667 -52.5 -107s-19.5 -102.333 -19.5 -171c0 -61.333 5.66699 -114.5 17 -159.5s28 -81.167 50 -108.5c21.333 -26 46.833 -45 76.5 -57s63.5 -18 101.5 -18c32.667 0 63.834 5.5 93.501 16.5s54.834 29.5 75.501 55.5z
M947.001 1283h-246l-352 373v20h351z" />
    <glyph glyph-name="oacute" unicode="&#xf3;" horiz-adv-x="1406" 
d="M1318 561c0 -184.667 -53.8301 -330.166 -161.497 -436.499s-258.834 -159.5 -453.501 -159.5s-345.834 53.167 -453.501 159.5s-161.5 251.833 -161.5 436.5c0 186 54.167 332 162.5 438s259.166 159 452.499 159c196 0 347.5 -53.333 454.5 -160
s160.5 -252.334 160.5 -437.001zM875.003 288.001c23.333 28.667 40.8311 63.168 52.498 103.501s17.5 96.166 17.5 167.499c0 66 -6 121.333 -18 166s-28.667 80.334 -50 107.001c-21.333 27.333 -47 46.666 -77 57.999s-62.333 17 -97 17s-65.5 -4.66699 -92.5 -14
s-52.833 -28 -77.5 -56c-22 -26 -39.5 -61.667 -52.5 -107s-19.5 -102.333 -19.5 -171c0 -61.333 5.66699 -114.5 17 -159.5s28 -81.167 50 -108.5c21.333 -26 46.833 -45 76.5 -57s63.5 -18 101.5 -18c32.667 0 63.834 5.5 93.501 16.5s54.834 29.5 75.501 55.5zM1058 1676
v-20l-352 -373h-246l247 393h351z" />
    <glyph glyph-name="ocircumflex" unicode="&#xf4;" horiz-adv-x="1406" 
d="M1318 561c0 -184.667 -53.8301 -330.166 -161.497 -436.499s-258.834 -159.5 -453.501 -159.5s-345.834 53.167 -453.501 159.5s-161.5 251.833 -161.5 436.5c0 186 54.167 332 162.5 438s259.166 159 452.499 159c196 0 347.5 -53.333 454.5 -160
s160.5 -252.334 160.5 -437.001zM875.003 288.001c23.333 28.667 40.8311 63.168 52.498 103.501s17.5 96.166 17.5 167.499c0 66 -6 121.333 -18 166s-28.667 80.334 -50 107.001c-21.333 27.333 -47 46.666 -77 57.999s-62.333 17 -97 17s-65.5 -4.66699 -92.5 -14
s-52.833 -28 -77.5 -56c-22 -26 -39.5 -61.667 -52.5 -107s-19.5 -102.333 -19.5 -171c0 -61.333 5.66699 -114.5 17 -159.5s28 -81.167 50 -108.5c21.333 -26 46.833 -45 76.5 -57s63.5 -18 101.5 -18c32.667 0 63.834 5.5 93.501 16.5s54.834 29.5 75.501 55.5zM1150 1283
h-264l-185 219l-184 -219h-260l321 393h251z" />
    <glyph glyph-name="otilde" unicode="&#xf5;" horiz-adv-x="1406" 
d="M1318 561c0 -184.667 -53.8301 -330.166 -161.497 -436.499s-258.834 -159.5 -453.501 -159.5s-345.834 53.167 -453.501 159.5s-161.5 251.833 -161.5 436.5c0 186 54.167 332 162.5 438s259.166 159 452.499 159c196 0 347.5 -53.333 454.5 -160
s160.5 -252.334 160.5 -437.001zM875.003 288.001c23.333 28.667 40.8311 63.168 52.498 103.501s17.5 96.166 17.5 167.499c0 66 -6 121.333 -18 166s-28.667 80.334 -50 107.001c-21.333 27.333 -47 46.666 -77 57.999s-62.333 17 -97 17s-65.5 -4.66699 -92.5 -14
s-52.833 -28 -77.5 -56c-22 -26 -39.5 -61.667 -52.5 -107s-19.5 -102.333 -19.5 -171c0 -61.333 5.66699 -114.5 17 -159.5s28 -81.167 50 -108.5c21.333 -26 46.833 -45 76.5 -57s63.5 -18 101.5 -18c32.667 0 63.834 5.5 93.501 16.5s54.834 29.5 75.501 55.5zM1147 1618
c-6.66699 -112.667 -34.1689 -196.167 -82.502 -250.5s-115.833 -81.5 -202.5 -81.5c-31.333 0 -61.166 6.16699 -89.499 18.5s-54.166 25.5 -77.499 39.5c-20.667 12.667 -43.5 25.5 -68.5 38.5s-45.833 19.5 -62.5 19.5c-32.667 0 -54.5 -10.667 -65.5 -32
s-17.5 -51.333 -19.5 -90h-219c4 100.667 31.833 181 83.5 241s118.5 90 200.5 90c32 0 62.333 -5.83301 91 -17.5s55 -24.5 79 -38.5l69 -37.5c21.333 -11.667 41 -17.5 59 -17.5c32 0 54 10.667 66 32s18.667 50 20 86h219z" />
    <glyph glyph-name="odieresis" unicode="&#xf6;" horiz-adv-x="1406" 
d="M1318 561c0 -184.667 -53.8301 -330.166 -161.497 -436.499s-258.834 -159.5 -453.501 -159.5s-345.834 53.167 -453.501 159.5s-161.5 251.833 -161.5 436.5c0 186 54.167 332 162.5 438s259.166 159 452.499 159c196 0 347.5 -53.333 454.5 -160
s160.5 -252.334 160.5 -437.001zM875.003 288.001c23.333 28.667 40.8311 63.168 52.498 103.501s17.5 96.166 17.5 167.499c0 66 -6 121.333 -18 166s-28.667 80.334 -50 107.001c-21.333 27.333 -47 46.666 -77 57.999s-62.333 17 -97 17s-65.5 -4.66699 -92.5 -14
s-52.833 -28 -77.5 -56c-22 -26 -39.5 -61.667 -52.5 -107s-19.5 -102.333 -19.5 -171c0 -61.333 5.66699 -114.5 17 -159.5s28 -81.167 50 -108.5c21.333 -26 46.833 -45 76.5 -57s63.5 -18 101.5 -18c32.667 0 63.834 5.5 93.501 16.5s54.834 29.5 75.501 55.5zM1120 1283
h-297v273h297v-273zM583.001 1283h-297v273h297v-273z" />
    <glyph glyph-name="divide" unicode="&#xf7;" horiz-adv-x="1776" 
d="M1058 1001h-340v323h340v-323zM1558 528h-1340v268h1340v-268zM1058 0h-340v323h340v-323z" />
    <glyph glyph-name="oslash" unicode="&#xf8;" horiz-adv-x="1406" 
d="M933 745l-366.001 -498.001c18.667 -12.667 39.5 -22 62.5 -28s48.5 -9 76.5 -9c32.667 0 64.834 5.83301 96.501 17.5s57.834 30.167 78.501 55.5c23.333 29.333 41.166 64.5 53.499 105.5s18.5 97.833 18.5 170.5c0 32.667 -1.83301 66.334 -5.5 101.001
s-8.5 63 -14.5 85zM478.999 355.999l375 508.996c-20 16.667 -42.5 28.834 -67.5 36.501s-52.833 11.5 -83.5 11.5c-35.333 0 -67.166 -4.83301 -95.499 -14.5s-54.5 -28.5 -78.5 -56.5c-22.667 -25.333 -40.834 -61.666 -54.501 -108.999s-20.5 -105.333 -20.5 -174
c0 -41.333 2.33301 -79.166 7 -113.499s10.667 -64.166 18 -89.499zM283.999 99.9951c-63.333 53.333 -111.831 119.332 -145.498 197.999s-50.5 166.334 -50.5 263.001c0 186 54.167 332 162.5 438s259.166 159 452.499 159c62.667 0 120 -6.16699 172 -18.5
s101 -29.833 147 -52.5l121 166h175l-182 -242c58 -51.333 102.833 -115.333 134.5 -192s47.5 -162.667 47.5 -258c0 -184.667 -53.833 -330.167 -161.5 -436.5s-258.834 -159.5 -453.501 -159.5c-57.333 0 -111.5 5.5 -162.5 16.5s-97.5 26.5 -139.5 46.5l-139 -190h-174z
" />
    <glyph glyph-name="ugrave" unicode="&#xf9;" horiz-adv-x="1459" 
d="M1289 0l-360.001 0.00292969v124c-66.667 -50.667 -127.667 -89.167 -183 -115.5s-121.333 -39.5 -198 -39.5c-124 0 -219.5 35.667 -286.5 107s-100.5 176.666 -100.5 315.999v731h362v-557c0 -56.667 1.83301 -103.834 5.5 -141.501s12.167 -68.834 25.5 -93.501
c12.667 -24.667 31.834 -42.667 57.501 -54s61.5 -17 107.5 -17c30.667 0 64.667 5.66699 102 17s73.333 28 108 50v796h360v-1123zM981.999 1283h-246l-352 373v20h351z" />
    <glyph glyph-name="uacute" unicode="&#xfa;" horiz-adv-x="1459" 
d="M1289 0l-360.001 0.00292969v124c-66.667 -50.667 -127.667 -89.167 -183 -115.5s-121.333 -39.5 -198 -39.5c-124 0 -219.5 35.667 -286.5 107s-100.5 176.666 -100.5 315.999v731h362v-557c0 -56.667 1.83301 -103.834 5.5 -141.501s12.167 -68.834 25.5 -93.501
c12.667 -24.667 31.834 -42.667 57.501 -54s61.5 -17 107.5 -17c30.667 0 64.667 5.66699 102 17s73.333 28 108 50v796h360v-1123zM1053 1676v-20l-352 -373h-246l247 393h351z" />
    <glyph glyph-name="ucircumflex" unicode="&#xfb;" horiz-adv-x="1459" 
d="M1289 0l-360.001 0.00292969v124c-66.667 -50.667 -127.667 -89.167 -183 -115.5s-121.333 -39.5 -198 -39.5c-124 0 -219.5 35.667 -286.5 107s-100.5 176.666 -100.5 315.999v731h362v-557c0 -56.667 1.83301 -103.834 5.5 -141.501s12.167 -68.834 25.5 -93.501
c12.667 -24.667 31.834 -42.667 57.501 -54s61.5 -17 107.5 -17c30.667 0 64.667 5.66699 102 17s73.333 28 108 50v796h360v-1123zM1177 1283h-264l-185 219l-184 -219h-260l321 393h251z" />
    <glyph glyph-name="udieresis" unicode="&#xfc;" horiz-adv-x="1459" 
d="M1289 0l-360.001 0.00292969v124c-66.667 -50.667 -127.667 -89.167 -183 -115.5s-121.333 -39.5 -198 -39.5c-124 0 -219.5 35.667 -286.5 107s-100.5 176.666 -100.5 315.999v731h362v-557c0 -56.667 1.83301 -103.834 5.5 -141.501s12.167 -68.834 25.5 -93.501
c12.667 -24.667 31.834 -42.667 57.501 -54s61.5 -17 107.5 -17c30.667 0 64.667 5.66699 102 17s73.333 28 108 50v796h360v-1123zM1143 1283h-297v273h297v-273zM605.999 1283h-297v273h297v-273z" />
    <glyph glyph-name="yacute" unicode="&#xfd;" horiz-adv-x="1333" 
d="M677 397l256 726h370l-624 -1535h-390l178 420l-437 1115h378zM1043 1676v-20l-352 -373h-246l247 393h351z" />
    <glyph glyph-name="thorn" unicode="&#xfe;" horiz-adv-x="1432" 
d="M1342 577c0 -92.667 -14.166 -177.001 -42.499 -253.001s-65.5 -138.667 -111.5 -188c-48 -52 -102.333 -91.333 -163 -118s-125.667 -40 -195 -40c-64 0 -118.333 6.83301 -163 20.5s-90.334 32.834 -137.001 57.501v-468h-360v1968h360v-550
c55.333 44 111.833 79.667 169.5 107s124.167 41 199.5 41c140 0 248.833 -51.333 326.5 -154s116.5 -243.667 116.5 -423zM971.001 569.999c0 109.333 -18.667 188.666 -56 237.999s-96.333 74 -177 74c-34 0 -69 -5.16699 -105 -15.5s-70.333 -25.166 -103 -44.499v-565
c24 -9.33301 49.667 -15.333 77 -18s54.333 -4 81 -4c95.333 0 166.333 27.833 213 83.5s70 139.5 70 251.5z" />
    <glyph glyph-name="ydieresis" unicode="&#xff;" horiz-adv-x="1333" 
d="M677 397l256 726h370l-624 -1535h-390l178 420l-437 1115h378zM1095 1283h-297v273h297v-273zM558 1283h-297v273h297v-273z" />
    <glyph glyph-name="Amacron" unicode="&#x100;" horiz-adv-x="1590" 
d="M1566 0h-397l-103 301h-552l-103 -301h-387l550 1489h442zM973 574l-183 534l-183 -534h366zM1196 1719h-802v210h802v-210z" />
    <glyph glyph-name="amacron" unicode="&#x101;" horiz-adv-x="1368" 
d="M850 293l0.00292969 233.999c-48.667 -4 -101.334 -9.5 -158.001 -16.5s-99.667 -15.167 -129 -24.5c-36 -11.333 -63.5 -27.833 -82.5 -49.5s-28.5 -50.167 -28.5 -85.5c0 -23.333 2 -42.333 6 -57s14 -28.667 30 -42c15.333 -13.333 33.666 -23.166 54.999 -29.499
s54.666 -9.5 99.999 -9.5c36 0 72.5 7.33301 109.5 22s69.5 34 97.5 58zM850.003 118.999l-72.002 -53c-28.667 -20.667 -55.667 -37 -81 -49c-35.333 -16 -72 -27.833 -110 -35.5s-79.667 -11.5 -125 -11.5c-106.667 0 -196 33 -268 99s-108 150.333 -108 253
c0 82 18.333 149 55 201s88.667 93 156 123c66.667 30 149.334 51.333 248.001 64s201 22 307 28v6c0 62 -25.333 104.833 -76 128.5s-125.334 35.5 -224.001 35.5c-59.333 0 -122.666 -10.5 -189.999 -31.5s-115.666 -37.167 -144.999 -48.5h-33v271
c38 10 99.833 21.833 185.5 35.5s171.5 20.5 257.5 20.5c204.667 0 352.5 -31.5 443.5 -94.5s136.5 -161.833 136.5 -296.5v-764h-357v119zM1080 1346h-802v210h802v-210z" />
    <glyph glyph-name="Abreve" unicode="&#x102;" horiz-adv-x="1590" 
d="M1566 0h-397l-103 301h-552l-103 -301h-387l550 1489h442zM973 574l-183 534l-183 -534h366zM1181 2009c0 -118.667 -33.666 -211.832 -100.999 -279.499s-162.333 -101.5 -285 -101.5s-217.834 32.167 -285.501 96.5s-101.5 159.166 -101.5 284.499h223
c0 -68.667 13.5 -119.834 40.5 -153.501s68.167 -50.5 123.5 -50.5c52 0 92.167 16.833 120.5 50.5s42.5 84.834 42.5 153.501h223z" />
    <glyph glyph-name="abreve" unicode="&#x103;" horiz-adv-x="1368" 
d="M850 293l0.00292969 233.999c-48.667 -4 -101.334 -9.5 -158.001 -16.5s-99.667 -15.167 -129 -24.5c-36 -11.333 -63.5 -27.833 -82.5 -49.5s-28.5 -50.167 -28.5 -85.5c0 -23.333 2 -42.333 6 -57s14 -28.667 30 -42c15.333 -13.333 33.666 -23.166 54.999 -29.499
s54.666 -9.5 99.999 -9.5c36 0 72.5 7.33301 109.5 22s69.5 34 97.5 58zM850.003 118.999l-72.002 -53c-28.667 -20.667 -55.667 -37 -81 -49c-35.333 -16 -72 -27.833 -110 -35.5s-79.667 -11.5 -125 -11.5c-106.667 0 -196 33 -268 99s-108 150.333 -108 253
c0 82 18.333 149 55 201s88.667 93 156 123c66.667 30 149.334 51.333 248.001 64s201 22 307 28v6c0 62 -25.333 104.833 -76 128.5s-125.334 35.5 -224.001 35.5c-59.333 0 -122.666 -10.5 -189.999 -31.5s-115.666 -37.167 -144.999 -48.5h-33v271
c38 10 99.833 21.833 185.5 35.5s171.5 20.5 257.5 20.5c204.667 0 352.5 -31.5 443.5 -94.5s136.5 -161.833 136.5 -296.5v-764h-357v119zM1060 1636c0 -118.667 -33.666 -211.832 -100.999 -279.499s-162.333 -101.5 -285 -101.5s-217.834 32.167 -285.501 96.5
s-101.5 159.166 -101.5 284.499h223c0 -68.667 13.5 -119.834 40.5 -153.501s68.167 -50.5 123.5 -50.5c52 0 92.167 16.833 120.5 50.5s42.5 84.834 42.5 153.501h223z" />
    <glyph glyph-name="Aogonek" unicode="&#x104;" horiz-adv-x="1590" 
d="M1144 73l-78 228.001h-552l-103 -301h-387l550 1489h442l550 -1489h-239c-1.33301 -14.667 -2.33301 -28.667 -3 -42s-1 -27.333 -1 -42c0 -40.667 16 -74.667 48 -102s76.333 -41 133 -41c28 0 57.833 4 89.5 12s54.5 15.333 68.5 22h9v-200
c-32 -8.66699 -69.333 -14.834 -112 -18.501s-75.667 -5.5 -99 -5.5c-114 0 -201.333 27.5 -262 82.5s-91 133.5 -91 235.5c0 39.333 4.5 73 13.5 101zM973 574.001l-183 534l-183 -534h366z" />
    <glyph glyph-name="aogonek" unicode="&#x105;" horiz-adv-x="1368" 
d="M850 293v233.999c-48.667 -4 -101.334 -9.5 -158.001 -16.5s-99.667 -15.167 -129 -24.5c-36 -11.333 -63.5 -27.833 -82.5 -49.5s-28.5 -50.167 -28.5 -85.5c0 -23.333 2 -42.333 6 -57s14 -28.667 30 -42c14.667 -13.333 32.834 -23.166 54.501 -29.499
s55.167 -9.5 100.5 -9.5c36 0 72.5 7.33301 109.5 22s69.5 34 97.5 58zM850 118.999l-71.502 -52.999c-28.333 -20.667 -55.5 -37 -81.5 -49c-35.333 -16 -72 -27.833 -110 -35.5s-79.667 -11.5 -125 -11.5c-106.667 0 -196 33 -268 99s-108 150.333 -108 253
c0 82 18.333 149 55 201s88.667 93 156 123c66.667 29.333 149.334 50.5 248.001 63.5s201 22.5 307 28.5v6c0 62 -25.333 104.833 -76 128.5s-125.334 35.5 -224.001 35.5c-59.333 0 -122.666 -10.5 -189.999 -31.5s-115.666 -37.167 -144.999 -48.5h-33v271
c38 10 99.833 21.833 185.5 35.5s171.5 20.5 257.5 20.5c204.667 0 352.5 -31.5 443.5 -94.5s136.5 -161.833 136.5 -296.5v-764h-145c-1.33301 -14.667 -2.33301 -28.667 -3 -42s-1 -27.333 -1 -42c0 -40.667 16 -74.667 48 -102s76.333 -41 133 -41c28 0 57.833 4 89.5 12
s54.5 15.333 68.5 22h9v-200c-32 -8.66699 -69.333 -14.834 -112 -18.501s-75.667 -5.5 -99 -5.5c-114 0 -201.333 27.5 -262 82.5s-91 133.5 -91 235.5c0 49.333 1.16699 94.833 3.5 136.5z" />
    <glyph glyph-name="Cacute" unicode="&#x106;" horiz-adv-x="1482" 
d="M863 -29c-110.667 0 -212.831 16.333 -306.498 49s-174.167 81.334 -241.5 146.001s-119.5 145.334 -156.5 242.001s-55.5 208.334 -55.5 335.001c0 118 17.667 225 53 321s86.666 178.333 153.999 247c64.667 66 144.834 117 240.501 153s200.167 54 313.5 54
c62.667 0 119.167 -3.5 169.5 -10.5s96.833 -16.167 139.5 -27.5c44.667 -12.667 85.167 -26.834 121.5 -42.501s68.166 -30.167 95.499 -43.5v-361h-44c-18.667 16 -42.167 35 -70.5 57s-60.5 43.667 -96.5 65c-36.667 21.333 -76.334 39.333 -119.001 54
s-88.334 22 -137.001 22c-54 0 -105.333 -8.5 -154 -25.5s-93.667 -45.167 -135 -84.5c-39.333 -38 -71.166 -88.333 -95.499 -151s-36.5 -138.667 -36.5 -228c0 -93.333 13.167 -171.333 39.5 -234s59.5 -112 99.5 -148c40.667 -36.667 86 -62.834 136 -78.501
s99.333 -23.5 148 -23.5c46.667 0 92.834 7 138.501 21s87.834 33 126.501 57c32.667 19.333 63 40 91 62s51 41 69 57h40v-356l-107 -47c-34 -14.667 -69.667 -27.334 -107 -38.001c-48.667 -14 -94.334 -24.667 -137.001 -32s-101.334 -11 -176.001 -11zM1185 2049v-20
l-352 -373h-246l247 393h351z" />
    <glyph glyph-name="cacute" unicode="&#x107;" horiz-adv-x="1205" 
d="M755 -30c-98 0 -187.496 11.668 -268.496 35.001s-151.5 59.333 -211.5 108c-59.333 48.667 -105.333 110 -138 184s-49 160.667 -49 260c0 104.667 17.5 195 52.5 271s83.833 139 146.5 189c60.667 47.333 130.667 82 210 104s161.666 33 246.999 33
c76.667 0 147.334 -8.33301 212.001 -25s125 -38.334 181 -65.001v-307h-51l-50.5 42c-19.667 16 -43.834 31.667 -72.501 47c-27.333 14.667 -57.333 26.834 -90 36.501s-70.667 14.5 -114 14.5c-96 0 -169.833 -30.5 -221.5 -91.5s-77.5 -143.833 -77.5 -248.5
c0 -108 26.5 -190 79.5 -246s128.167 -84 225.5 -84c45.333 0 86.166 5.16699 122.499 15.5s66.5 22.5 90.5 36.5c22.667 13.333 42.667 27.333 60 42s33.333 29 48 43h51v-307c-56.667 -26.667 -115.834 -47.834 -177.501 -63.501s-129.834 -23.5 -204.501 -23.5z
M1060 1676v-20l-352 -373h-246l247 393h351z" />
    <glyph glyph-name="Ccircumflex" unicode="&#x108;" horiz-adv-x="1482" 
d="M863 -29c-110.667 0 -212.831 16.333 -306.498 49s-174.167 81.334 -241.5 146.001s-119.5 145.334 -156.5 242.001s-55.5 208.334 -55.5 335.001c0 118 17.667 225 53 321s86.666 178.333 153.999 247c64.667 66 144.834 117 240.501 153s200.167 54 313.5 54
c62.667 0 119.167 -3.5 169.5 -10.5s96.833 -16.167 139.5 -27.5c44.667 -12.667 85.167 -26.834 121.5 -42.501s68.166 -30.167 95.499 -43.5v-361h-44c-18.667 16 -42.167 35 -70.5 57s-60.5 43.667 -96.5 65c-36.667 21.333 -76.334 39.333 -119.001 54
s-88.334 22 -137.001 22c-54 0 -105.333 -8.5 -154 -25.5s-93.667 -45.167 -135 -84.5c-39.333 -38 -71.166 -88.333 -95.499 -151s-36.5 -138.667 -36.5 -228c0 -93.333 13.167 -171.333 39.5 -234s59.5 -112 99.5 -148c40.667 -36.667 86 -62.834 136 -78.501
s99.333 -23.5 148 -23.5c46.667 0 92.834 7 138.501 21s87.834 33 126.501 57c32.667 19.333 63 40 91 62s51 41 69 57h40v-356l-107 -47c-34 -14.667 -69.667 -27.334 -107 -38.001c-48.667 -14 -94.334 -24.667 -137.001 -32s-101.334 -11 -176.001 -11zM1287 1656h-264
l-185 219l-184 -219h-260l321 393h251z" />
    <glyph glyph-name="ccircumflex" unicode="&#x109;" horiz-adv-x="1205" 
d="M755 -30c-98 0 -187.496 11.668 -268.496 35.001s-151.5 59.333 -211.5 108c-59.333 48.667 -105.333 110 -138 184s-49 160.667 -49 260c0 104.667 17.5 195 52.5 271s83.833 139 146.5 189c60.667 47.333 130.667 82 210 104s161.666 33 246.999 33
c76.667 0 147.334 -8.33301 212.001 -25s125 -38.334 181 -65.001v-307h-51l-50.5 42c-19.667 16 -43.834 31.667 -72.501 47c-27.333 14.667 -57.333 26.834 -90 36.501s-70.667 14.5 -114 14.5c-96 0 -169.833 -30.5 -221.5 -91.5s-77.5 -143.833 -77.5 -248.5
c0 -108 26.5 -190 79.5 -246s128.167 -84 225.5 -84c45.333 0 86.166 5.16699 122.499 15.5s66.5 22.5 90.5 36.5c22.667 13.333 42.667 27.333 60 42s33.333 29 48 43h51v-307c-56.667 -26.667 -115.834 -47.834 -177.501 -63.501s-129.834 -23.5 -204.501 -23.5z
M1139 1283h-264l-185 219l-184 -219h-260l321 393h251z" />
    <glyph glyph-name="Cdotaccent" unicode="&#x10a;" horiz-adv-x="1482" 
d="M863 -29c-110.667 0 -212.831 16.333 -306.498 49s-174.167 81.334 -241.5 146.001s-119.5 145.334 -156.5 242.001s-55.5 208.334 -55.5 335.001c0 118 17.667 225 53 321s86.666 178.333 153.999 247c64.667 66 144.834 117 240.501 153s200.167 54 313.5 54
c62.667 0 119.167 -3.5 169.5 -10.5s96.833 -16.167 139.5 -27.5c44.667 -12.667 85.167 -26.834 121.5 -42.501s68.166 -30.167 95.499 -43.5v-361h-44c-18.667 16 -42.167 35 -70.5 57s-60.5 43.667 -96.5 65c-36.667 21.333 -76.334 39.333 -119.001 54
s-88.334 22 -137.001 22c-54 0 -105.333 -8.5 -154 -25.5s-93.667 -45.167 -135 -84.5c-39.333 -38 -71.166 -88.333 -95.499 -151s-36.5 -138.667 -36.5 -228c0 -93.333 13.167 -171.333 39.5 -234s59.5 -112 99.5 -148c40.667 -36.667 86 -62.834 136 -78.501
s99.333 -23.5 148 -23.5c46.667 0 92.834 7 138.501 21s87.834 33 126.501 57c32.667 19.333 63 40 91 62s51 41 69 57h40v-356l-107 -47c-34 -14.667 -69.667 -27.334 -107 -38.001c-48.667 -14 -94.334 -24.667 -137.001 -32s-101.334 -11 -176.001 -11zM1032 1656h-370
v273h370v-273z" />
    <glyph glyph-name="cdotaccent" unicode="&#x10b;" horiz-adv-x="1205" 
d="M755 -30c-98 0 -187.496 11.668 -268.496 35.001s-151.5 59.333 -211.5 108c-59.333 48.667 -105.333 110 -138 184s-49 160.667 -49 260c0 104.667 17.5 195 52.5 271s83.833 139 146.5 189c60.667 47.333 130.667 82 210 104s161.666 33 246.999 33
c76.667 0 147.334 -8.33301 212.001 -25s125 -38.334 181 -65.001v-307h-51l-50.5 42c-19.667 16 -43.834 31.667 -72.501 47c-27.333 14.667 -57.333 26.834 -90 36.501s-70.667 14.5 -114 14.5c-96 0 -169.833 -30.5 -221.5 -91.5s-77.5 -143.833 -77.5 -248.5
c0 -108 26.5 -190 79.5 -246s128.167 -84 225.5 -84c45.333 0 86.166 5.16699 122.499 15.5s66.5 22.5 90.5 36.5c22.667 13.333 42.667 27.333 60 42s33.333 29 48 43h51v-307c-56.667 -26.667 -115.834 -47.834 -177.501 -63.501s-129.834 -23.5 -204.501 -23.5z
M877.004 1283h-370v273h370v-273z" />
    <glyph glyph-name="Ccaron" unicode="&#x10c;" horiz-adv-x="1482" 
d="M863 -29c-110.667 0 -212.831 16.333 -306.498 49s-174.167 81.334 -241.5 146.001s-119.5 145.334 -156.5 242.001s-55.5 208.334 -55.5 335.001c0 118 17.667 225 53 321s86.666 178.333 153.999 247c64.667 66 144.834 117 240.501 153s200.167 54 313.5 54
c62.667 0 119.167 -3.5 169.5 -10.5s96.833 -16.167 139.5 -27.5c44.667 -12.667 85.167 -26.834 121.5 -42.501s68.166 -30.167 95.499 -43.5v-361h-44c-18.667 16 -42.167 35 -70.5 57s-60.5 43.667 -96.5 65c-36.667 21.333 -76.334 39.333 -119.001 54
s-88.334 22 -137.001 22c-54 0 -105.333 -8.5 -154 -25.5s-93.667 -45.167 -135 -84.5c-39.333 -38 -71.166 -88.333 -95.499 -151s-36.5 -138.667 -36.5 -228c0 -93.333 13.167 -171.333 39.5 -234s59.5 -112 99.5 -148c40.667 -36.667 86 -62.834 136 -78.501
s99.333 -23.5 148 -23.5c46.667 0 92.834 7 138.501 21s87.834 33 126.501 57c32.667 19.333 63 40 91 62s51 41 69 57h40v-356l-107 -47c-34 -14.667 -69.667 -27.334 -107 -38.001c-48.667 -14 -94.334 -24.667 -137.001 -32s-101.334 -11 -176.001 -11zM1292 2049
l-321 -393h-251l-321 393h264l185 -227l184 227h260z" />
    <glyph glyph-name="ccaron" unicode="&#x10d;" horiz-adv-x="1205" 
d="M755 -30c-98 0 -187.496 11.668 -268.496 35.001s-151.5 59.333 -211.5 108c-59.333 48.667 -105.333 110 -138 184s-49 160.667 -49 260c0 104.667 17.5 195 52.5 271s83.833 139 146.5 189c60.667 47.333 130.667 82 210 104s161.666 33 246.999 33
c76.667 0 147.334 -8.33301 212.001 -25s125 -38.334 181 -65.001v-307h-51l-50.5 42c-19.667 16 -43.834 31.667 -72.501 47c-27.333 14.667 -57.333 26.834 -90 36.501s-70.667 14.5 -114 14.5c-96 0 -169.833 -30.5 -221.5 -91.5s-77.5 -143.833 -77.5 -248.5
c0 -108 26.5 -190 79.5 -246s128.167 -84 225.5 -84c45.333 0 86.166 5.16699 122.499 15.5s66.5 22.5 90.5 36.5c22.667 13.333 42.667 27.333 60 42s33.333 29 48 43h51v-307c-56.667 -26.667 -115.834 -47.834 -177.501 -63.501s-129.834 -23.5 -204.501 -23.5z
M1128 1676l-321 -393h-251l-321 393h264l185 -227l184 227h260z" />
    <glyph glyph-name="Dcaron" unicode="&#x10e;" horiz-adv-x="1700" 
d="M1597 743c0 -138.667 -31.665 -262.833 -94.998 -372.5s-143.333 -193.834 -240 -252.501c-72.667 -44 -152.334 -74.667 -239.001 -92s-189.334 -26 -308.001 -26h-525v1489h540c121.333 0 226 -10.167 314 -30.5s162 -49.166 222 -86.499
c102.667 -62.667 183.5 -147.167 242.5 -253.5s88.5 -231.5 88.5 -375.5zM1200 746.001c0 98 -17.834 181.833 -53.501 251.5s-92.167 124.167 -169.5 163.5c-39.333 19.333 -79.5 32.5 -120.5 39.5s-102.833 10.5 -185.5 10.5h-97v-932h97
c91.333 0 158.333 4.16699 201 12.5s84.334 23.5 125.001 45.5c70 40 121.333 93.5 154 160.5s49 149.833 49 248.5zM1267 2049l-321 -393h-251l-321 393h264l185 -227l184 227h260z" />
    <glyph glyph-name="dcaron" unicode="&#x10f;" horiz-adv-x="1802" 
d="M1262 0l-360.001 -0.000976562v117c-62 -50.667 -120 -88 -174 -112s-116.333 -36 -187 -36c-136.667 0 -246 52.667 -328 158s-123 247.333 -123 426c0 95.333 13.833 179.833 41.5 253.5s65.5 136.834 113.5 189.501c45.333 50 100.333 88.833 165 116.5
s129.334 41.5 194.001 41.5c67.333 0 122.5 -7.16699 165.5 -21.5s87.167 -32.5 132.5 -54.5v478h360v-1556zM901.999 309.999l-0.000976562 550.999c-25.333 10.667 -52 18.334 -80 23.001s-53.667 7 -77 7c-94.667 0 -165.667 -29.5 -213 -88.5s-71 -140.833 -71 -245.5
c0 -110 19 -189.833 57 -239.5s99 -74.5 183 -74.5c32.667 0 67.334 6.16699 104.001 18.5s69 28.5 97 48.5zM1901 1556l-291 -589h-234l157 589h368z" />
    <glyph glyph-name="Dcroat" unicode="&#x110;" horiz-adv-x="1700" 
d="M1597 743c0 -138.667 -31.665 -262.833 -94.998 -372.5s-143.333 -193.834 -240 -252.501c-72.667 -44 -152.334 -74.667 -239.001 -92s-189.334 -26 -308.001 -26h-525v679h-162v233h162v577h540c121.333 0 226 -10.167 314 -30.5s162 -49.166 222 -86.499
c102.667 -62.667 183.5 -147.167 242.5 -253.5s88.5 -231.5 88.5 -375.5zM1200 746.001c0 98 -17.834 181.833 -53.501 251.5s-92.167 124.167 -169.5 163.5c-39.333 19.333 -79.5 32.5 -120.5 39.5s-102.833 10.5 -185.5 10.5h-97v-299h317v-233h-317v-400h97
c91.333 0 158.333 4.16699 201 12.5s84.334 23.5 125.001 45.5c70 40 121.333 93.5 154 160.5s49 149.833 49 248.5z" />
    <glyph glyph-name="dcroat" unicode="&#x111;" horiz-adv-x="1432" 
d="M1262 0l-360.001 -0.000976562v117c-62 -50.667 -120 -88 -174 -112s-116.333 -36 -187 -36c-136.667 0 -246 52.667 -328 158s-123 247.333 -123 426c0 95.333 13.833 179.833 41.5 253.5s65.5 136.834 113.5 189.501c45.333 50 100.333 88.833 165 116.5
s129.334 41.5 194.001 41.5c67.333 0 122.5 -7.16699 165.5 -21.5s87.167 -32.5 132.5 -54.5v159h-326v207h326v112h360v-112h129v-207h-129v-1237zM901.999 309.999l-0.000976562 550.999c-25.333 10.667 -52 18.334 -80 23.001s-53.667 7 -77 7
c-94.667 0 -165.667 -29.5 -213 -88.5s-71 -140.833 -71 -245.5c0 -110 19 -189.833 57 -239.5s99 -74.5 183 -74.5c32.667 0 67.334 6.16699 104.001 18.5s69 28.5 97 48.5z" />
    <glyph glyph-name="Emacron" unicode="&#x112;" horiz-adv-x="1399" 
d="M1267 0h-1077v1489h1077v-288h-695v-257h645v-288h-645v-368h695v-288zM1127 1719h-802v210h802v-210z" />
    <glyph glyph-name="emacron" unicode="&#x113;" horiz-adv-x="1360" 
d="M1276 495l-823.999 0.00292969c5.33301 -88 38.833 -155.333 100.5 -202s152.5 -70 272.5 -70c76 0 149.667 13.667 221 41s127.666 56.666 168.999 87.999h40v-289c-81.333 -32.667 -158 -56.334 -230 -71.001s-151.667 -22 -239 -22c-225.333 0 -398 50.667 -518 152
s-180 245.666 -180 432.999c0 185.333 56.833 332.166 170.5 440.499s269.5 162.5 467.5 162.5c182.667 0 320 -46.167 412 -138.5s138 -225.166 138 -398.499v-126zM918.001 706.003c-2 75.333 -20.667 132 -56 170s-90.333 57 -165 57c-69.333 0 -126.333 -18 -171 -54
s-69.667 -93.667 -75 -173h467zM1108 1346h-802v210h802v-210z" />
    <glyph glyph-name="Ebreve" unicode="&#x114;" horiz-adv-x="1399" 
d="M1267 0h-1077v1489h1077v-288h-695v-257h645v-288h-645v-368h695v-288zM1120 2009c0 -118.667 -33.666 -211.832 -100.999 -279.499s-162.333 -101.5 -285 -101.5s-217.834 32.167 -285.501 96.5s-101.5 159.166 -101.5 284.499h223
c0 -68.667 13.5 -119.834 40.5 -153.501s68.167 -50.5 123.5 -50.5c52 0 92.167 16.833 120.5 50.5s42.5 84.834 42.5 153.501h223z" />
    <glyph glyph-name="ebreve" unicode="&#x115;" horiz-adv-x="1360" 
d="M1276 495l-823.999 0.00292969c5.33301 -88 38.833 -155.333 100.5 -202s152.5 -70 272.5 -70c76 0 149.667 13.667 221 41s127.666 56.666 168.999 87.999h40v-289c-81.333 -32.667 -158 -56.334 -230 -71.001s-151.667 -22 -239 -22c-225.333 0 -398 50.667 -518 152
s-180 245.666 -180 432.999c0 185.333 56.833 332.166 170.5 440.499s269.5 162.5 467.5 162.5c182.667 0 320 -46.167 412 -138.5s138 -225.166 138 -398.499v-126zM918.001 706.003c-2 75.333 -20.667 132 -56 170s-90.333 57 -165 57c-69.333 0 -126.333 -18 -171 -54
s-69.667 -93.667 -75 -173h467zM1107 1636c0 -118.667 -33.666 -211.832 -100.999 -279.499s-162.333 -101.5 -285 -101.5s-217.834 32.167 -285.501 96.5s-101.5 159.166 -101.5 284.499h223c0 -68.667 13.5 -119.834 40.5 -153.501s68.167 -50.5 123.5 -50.5
c52 0 92.167 16.833 120.5 50.5s42.5 84.834 42.5 153.501h223z" />
    <glyph glyph-name="Edotaccent" unicode="&#x116;" horiz-adv-x="1399" 
d="M1267 0h-1077v1489h1077v-288h-695v-257h645v-288h-645v-368h695v-288zM925 1656h-370v273h370v-273z" />
    <glyph glyph-name="edotaccent" unicode="&#x117;" horiz-adv-x="1360" 
d="M1276 495l-823.999 0.00292969c5.33301 -88 38.833 -155.333 100.5 -202s152.5 -70 272.5 -70c76 0 149.667 13.667 221 41s127.666 56.666 168.999 87.999h40v-289c-81.333 -32.667 -158 -56.334 -230 -71.001s-151.667 -22 -239 -22c-225.333 0 -398 50.667 -518 152
s-180 245.666 -180 432.999c0 185.333 56.833 332.166 170.5 440.499s269.5 162.5 467.5 162.5c182.667 0 320 -46.167 412 -138.5s138 -225.166 138 -398.499v-126zM918.001 706.003c-2 75.333 -20.667 132 -56 170s-90.333 57 -165 57c-69.333 0 -126.333 -18 -171 -54
s-69.667 -93.667 -75 -173h467zM894.001 1283h-370v273h370v-273z" />
    <glyph glyph-name="Eogonek" unicode="&#x118;" horiz-adv-x="1399" 
d="M791 0h-601v1489h1077v-288h-695v-257h645v-288h-645v-368h695v-288h-261c-0.666992 -8 -1.5 -19.667 -2.5 -35s-1.5 -31.666 -1.5 -48.999c0 -40.667 16 -74.667 48 -102s76.333 -41 133 -41c28 0 57.833 4 89.5 12s54.5 15.333 68.5 22h9v-200
c-32 -8.66699 -69.333 -14.834 -112 -18.501s-75.667 -5.5 -99 -5.5c-114 0 -201.333 27.5 -262 82.5s-91 133.5 -91 235.5c0 23.333 0.666992 42.833 2 58.5s2.33301 29.167 3 40.5z" />
    <glyph glyph-name="eogonek" unicode="&#x119;" horiz-adv-x="1360" 
d="M1246 -193l9.00195 0.000976562v-200c-32 -8.66699 -69.333 -14.834 -112 -18.501s-75.667 -5.5 -99 -5.5c-114 0 -201.333 27.5 -262 82.5s-91 133.5 -91 235.5c0 15.333 0.333008 28.333 1 39l2 33c-196 14 -346 71 -450 171s-156 237 -156 411
c0 185.333 56.833 332.166 170.5 440.499s269.5 162.5 467.5 162.5c182.667 0 320 -46.167 412 -138.5s138 -225.166 138 -398.499v-126h-824c5.33301 -88 38.833 -155.333 100.5 -202s152.5 -70 272.5 -70c76 0 149.667 13.667 221 41s127.666 56.666 168.999 87.999h40
v-289c-60.667 -24 -118.834 -43.333 -174.501 -58s-113.167 -24.667 -172.5 -30c-0.666992 -7.33301 -1 -14.666 -1 -21.999v-37c0 -40.667 16 -74.667 48 -102s76.333 -41 133 -41c28 0 57.833 4 89.5 12s54.5 15.333 68.5 22zM918.002 706.001
c-2 75.333 -20.667 132 -56 170s-90.333 57 -165 57c-69.333 0 -126.333 -18 -171 -54s-69.667 -93.667 -75 -173h467z" />
    <glyph glyph-name="Ecaron" unicode="&#x11a;" horiz-adv-x="1399" 
d="M1267 0h-1077v1489h1077v-288h-695v-257h645v-288h-645v-368h695v-288zM1181 2049l-321 -393h-251l-321 393h264l185 -227l184 227h260z" />
    <glyph glyph-name="ecaron" unicode="&#x11b;" horiz-adv-x="1360" 
d="M1276 495l-823.999 0.00292969c5.33301 -88 38.833 -155.333 100.5 -202s152.5 -70 272.5 -70c76 0 149.667 13.667 221 41s127.666 56.666 168.999 87.999h40v-289c-81.333 -32.667 -158 -56.334 -230 -71.001s-151.667 -22 -239 -22c-225.333 0 -398 50.667 -518 152
s-180 245.666 -180 432.999c0 185.333 56.833 332.166 170.5 440.499s269.5 162.5 467.5 162.5c182.667 0 320 -46.167 412 -138.5s138 -225.166 138 -398.499v-126zM918.001 706.003c-2 75.333 -20.667 132 -56 170s-90.333 57 -165 57c-69.333 0 -126.333 -18 -171 -54
s-69.667 -93.667 -75 -173h467zM1161 1676l-321 -393h-251l-321 393h264l185 -227l184 227h260z" />
    <glyph glyph-name="Gcircumflex" unicode="&#x11c;" horiz-adv-x="1661" 
d="M1507 85c-66.667 -26 -155.004 -51.8311 -265.004 -77.498s-219.667 -38.5 -329 -38.5c-253.333 0 -451.666 68.833 -594.999 206.5s-215 327.834 -215 570.501c0 231.333 72.333 417.833 217 559.5s346.334 212.5 605.001 212.5c98 0 191.333 -8.83301 280 -26.5
s187.334 -52.834 296.001 -105.501v-349h-43l-82 59.5c-36 25.667 -70.667 47.5 -104 65.5c-38.667 21.333 -83.834 39.666 -135.501 54.999s-106.5 23 -164.5 23c-68 0 -129.667 -10 -185 -30s-105 -50.667 -149 -92c-42 -40 -75.167 -90.833 -99.5 -152.5
s-36.5 -132.834 -36.5 -213.501c0 -164.667 43.667 -290.667 131 -378s216.333 -131 387 -131c14.667 0 30.834 0.333008 48.501 1s33.834 1.66699 48.501 3v292h-297v281h687v-735zM1341 1656h-264l-185 219l-184 -219h-260l321 393h251z" />
    <glyph glyph-name="gcircumflex" unicode="&#x11d;" horiz-adv-x="1432" 
d="M1262 129c0 -105.333 -15.002 -194.001 -45.002 -266.001s-72 -128.333 -126 -169c-54 -41.333 -119.167 -71.166 -195.5 -89.499s-162.5 -27.5 -258.5 -27.5c-78 0 -154.833 4.66699 -230.5 14s-141.167 20.666 -196.5 33.999v281h44
c44 -17.333 97.667 -33.166 161 -47.499s120 -21.5 170 -21.5c66.667 0 120.834 6.16699 162.501 18.5s73.5 29.833 95.5 52.5c20.667 21.333 35.667 48.666 45 81.999s14 73.333 14 120v21c-43.333 -35.333 -91.333 -63.333 -144 -84s-111.334 -31 -176.001 -31
c-157.333 0 -278.666 47.333 -363.999 142s-128 238.667 -128 432c0 92.667 13 172.667 39 240s62.667 126 110 176c44 46.667 98.167 83 162.5 109s130.166 39 197.499 39c60.667 0 115.834 -7.16699 165.501 -21.5s94.834 -34.166 135.501 -59.499l13 50h349v-994z
M901.998 353.999v508.999c-20.667 8.66699 -46 15.5 -76 20.5s-57 7.5 -81 7.5c-94.667 0 -165.667 -27.167 -213 -81.5s-71 -130.166 -71 -227.499c0 -108 20.167 -183.333 60.5 -226s100.166 -64 179.499 -64c36 0 71.333 5.66699 106 17s66.334 26.333 95.001 45z
M1176 1283h-264l-185 219l-184 -219h-260l321 393h251z" />
    <glyph glyph-name="Gbreve" unicode="&#x11e;" horiz-adv-x="1661" 
d="M1507 85c-66.667 -26 -155.004 -51.8311 -265.004 -77.498s-219.667 -38.5 -329 -38.5c-253.333 0 -451.666 68.833 -594.999 206.5s-215 327.834 -215 570.501c0 231.333 72.333 417.833 217 559.5s346.334 212.5 605.001 212.5c98 0 191.333 -8.83301 280 -26.5
s187.334 -52.834 296.001 -105.501v-349h-43l-82 59.5c-36 25.667 -70.667 47.5 -104 65.5c-38.667 21.333 -83.834 39.666 -135.501 54.999s-106.5 23 -164.5 23c-68 0 -129.667 -10 -185 -30s-105 -50.667 -149 -92c-42 -40 -75.167 -90.833 -99.5 -152.5
s-36.5 -132.834 -36.5 -213.501c0 -164.667 43.667 -290.667 131 -378s216.333 -131 387 -131c14.667 0 30.834 0.333008 48.501 1s33.834 1.66699 48.501 3v292h-297v281h687v-735zM1271 2009c0 -118.667 -33.666 -211.832 -100.999 -279.499s-162.333 -101.5 -285 -101.5
s-217.834 32.167 -285.501 96.5s-101.5 159.166 -101.5 284.499h223c0 -68.667 13.5 -119.834 40.5 -153.501s68.167 -50.5 123.5 -50.5c52 0 92.167 16.833 120.5 50.5s42.5 84.834 42.5 153.501h223z" />
    <glyph glyph-name="gbreve" unicode="&#x11f;" horiz-adv-x="1432" 
d="M1262 129c0 -105.333 -15.002 -194.001 -45.002 -266.001s-72 -128.333 -126 -169c-54 -41.333 -119.167 -71.166 -195.5 -89.499s-162.5 -27.5 -258.5 -27.5c-78 0 -154.833 4.66699 -230.5 14s-141.167 20.666 -196.5 33.999v281h44
c44 -17.333 97.667 -33.166 161 -47.499s120 -21.5 170 -21.5c66.667 0 120.834 6.16699 162.501 18.5s73.5 29.833 95.5 52.5c20.667 21.333 35.667 48.666 45 81.999s14 73.333 14 120v21c-43.333 -35.333 -91.333 -63.333 -144 -84s-111.334 -31 -176.001 -31
c-157.333 0 -278.666 47.333 -363.999 142s-128 238.667 -128 432c0 92.667 13 172.667 39 240s62.667 126 110 176c44 46.667 98.167 83 162.5 109s130.166 39 197.499 39c60.667 0 115.834 -7.16699 165.501 -21.5s94.834 -34.166 135.501 -59.499l13 50h349v-994z
M901.998 353.999v508.999c-20.667 8.66699 -46 15.5 -76 20.5s-57 7.5 -81 7.5c-94.667 0 -165.667 -27.167 -213 -81.5s-71 -130.166 -71 -227.499c0 -108 20.167 -183.333 60.5 -226s100.166 -64 179.499 -64c36 0 71.333 5.66699 106 17s66.334 26.333 95.001 45z
M1112 1636c0 -118.667 -33.666 -211.832 -100.999 -279.499s-162.333 -101.5 -285 -101.5s-217.834 32.167 -285.501 96.5s-101.5 159.166 -101.5 284.499h223c0 -68.667 13.5 -119.834 40.5 -153.501s68.167 -50.5 123.5 -50.5c52 0 92.167 16.833 120.5 50.5
s42.5 84.834 42.5 153.501h223z" />
    <glyph glyph-name="Gdotaccent" unicode="&#x120;" horiz-adv-x="1661" 
d="M1507 85c-66.667 -26 -155.004 -51.8311 -265.004 -77.498s-219.667 -38.5 -329 -38.5c-253.333 0 -451.666 68.833 -594.999 206.5s-215 327.834 -215 570.501c0 231.333 72.333 417.833 217 559.5s346.334 212.5 605.001 212.5c98 0 191.333 -8.83301 280 -26.5
s187.334 -52.834 296.001 -105.501v-349h-43l-82 59.5c-36 25.667 -70.667 47.5 -104 65.5c-38.667 21.333 -83.834 39.666 -135.501 54.999s-106.5 23 -164.5 23c-68 0 -129.667 -10 -185 -30s-105 -50.667 -149 -92c-42 -40 -75.167 -90.833 -99.5 -152.5
s-36.5 -132.834 -36.5 -213.501c0 -164.667 43.667 -290.667 131 -378s216.333 -131 387 -131c14.667 0 30.834 0.333008 48.501 1s33.834 1.66699 48.501 3v292h-297v281h687v-735zM1074 1656h-370v273h370v-273z" />
    <glyph glyph-name="gdotaccent" unicode="&#x121;" horiz-adv-x="1432" 
d="M1262 129c0 -105.333 -15.002 -194.001 -45.002 -266.001s-72 -128.333 -126 -169c-54 -41.333 -119.167 -71.166 -195.5 -89.499s-162.5 -27.5 -258.5 -27.5c-78 0 -154.833 4.66699 -230.5 14s-141.167 20.666 -196.5 33.999v281h44
c44 -17.333 97.667 -33.166 161 -47.499s120 -21.5 170 -21.5c66.667 0 120.834 6.16699 162.501 18.5s73.5 29.833 95.5 52.5c20.667 21.333 35.667 48.666 45 81.999s14 73.333 14 120v21c-43.333 -35.333 -91.333 -63.333 -144 -84s-111.334 -31 -176.001 -31
c-157.333 0 -278.666 47.333 -363.999 142s-128 238.667 -128 432c0 92.667 13 172.667 39 240s62.667 126 110 176c44 46.667 98.167 83 162.5 109s130.166 39 197.499 39c60.667 0 115.834 -7.16699 165.501 -21.5s94.834 -34.166 135.501 -59.499l13 50h349v-994z
M901.998 353.999v508.999c-20.667 8.66699 -46 15.5 -76 20.5s-57 7.5 -81 7.5c-94.667 0 -165.667 -27.167 -213 -81.5s-71 -130.166 -71 -227.499c0 -108 20.167 -183.333 60.5 -226s100.166 -64 179.499 -64c36 0 71.333 5.66699 106 17s66.334 26.333 95.001 45z
M914.998 1283h-370v273h370v-273z" />
    <glyph glyph-name="Gcommaaccent" unicode="&#x122;" horiz-adv-x="1661" 
d="M915 -74l-0.00390625 31.002c0 5.33301 -0.666992 10 -2 14c-253.333 0 -451.666 68.5 -594.999 205.5s-215 326.833 -215 569.5c0 231.333 72.333 417.833 217 559.5s346.334 212.5 605.001 212.5c98 0 191.333 -8.83301 280 -26.5s187.334 -52.834 296.001 -105.501
v-349h-43l-82 59.5c-36 25.667 -70.667 47.5 -104 65.5c-38.667 21.333 -83.834 39.666 -135.501 54.999s-106.5 23 -164.5 23c-68 0 -129.667 -10 -185 -30s-105 -50.667 -149 -92c-42 -40 -75.167 -90.833 -99.5 -152.5s-36.5 -132.834 -36.5 -213.501
c0 -164.667 43.667 -290.667 131 -378s216.333 -131 387 -131c14.667 0 30.834 0.333008 48.501 1s33.834 1.66699 48.501 3v292h-297v281h687v-735c-44 -16.667 -98.667 -34.167 -164 -52.5s-134 -33.166 -206 -44.499c1.33301 -13.333 2.33301 -24.833 3 -34.5
s1 -22.834 1 -39.501c0 -108 -33.167 -191.167 -99.5 -249.5s-152.833 -87.5 -259.5 -87.5c-23.333 0 -57.166 1.83301 -101.499 5.5s-81.5 9.83398 -111.5 18.501v200h23c16 -7.33301 39.333 -15 70 -23s60 -12 88 -12c53.333 0 94.166 13.833 122.499 41.5
s42.5 67.167 42.5 118.5z" />
    <glyph glyph-name="gcommaaccent" unicode="&#x123;" horiz-adv-x="1432" 
d="M1262 129c0 -105.333 -15.002 -194.001 -45.002 -266.001s-72 -128.333 -126 -169c-54 -41.333 -119.167 -71.166 -195.5 -89.499s-162.5 -27.5 -258.5 -27.5c-78 0 -154.833 4.66699 -230.5 14s-141.167 20.666 -196.5 33.999v281h44
c44 -17.333 97.667 -33.166 161 -47.499s120 -21.5 170 -21.5c66.667 0 120.834 6.16699 162.501 18.5s73.5 29.833 95.5 52.5c20.667 21.333 35.667 48.666 45 81.999s14 73.333 14 120v21c-43.333 -35.333 -91.333 -63.333 -144 -84s-111.334 -31 -176.001 -31
c-157.333 0 -278.666 47.333 -363.999 142s-128 238.667 -128 432c0 92.667 13 172.667 39 240s62.667 126 110 176c44 46.667 98.167 83 162.5 109s130.166 39 197.499 39c60.667 0 115.834 -7.16699 165.501 -21.5s94.834 -34.166 135.501 -59.499l13 50h349v-994z
M901.998 353.999v508.999c-20.667 8.66699 -46 15.5 -76 20.5s-57 7.5 -81 7.5c-94.667 0 -165.667 -27.167 -213 -81.5s-71 -130.166 -71 -227.499c0 -108 20.167 -183.333 60.5 -226s100.166 -64 179.499 -64c36 0 71.333 5.66699 106 17s66.334 26.333 95.001 45z
M1035 1676l-227 -393h-351v20l332 373h246z" />
    <glyph glyph-name="Hcircumflex" unicode="&#x124;" horiz-adv-x="1715" 
d="M1525 0h-384v656h-567v-656h-384v1489h384v-545h567v545h384v-1489zM1304 1656h-264l-185 219l-184 -219h-260l321 393h251z" />
    <glyph glyph-name="hcircumflex" unicode="&#x125;" horiz-adv-x="1459" 
d="M1298 0l-361.998 0.000976562v557c0 45.333 -2.33301 90.5 -7 135.5s-12.667 78.167 -24 99.5c-13.333 24.667 -32.833 42.667 -58.5 54s-61.5 17 -107.5 17c-32.667 0 -65.834 -5.33301 -99.501 -16s-70.167 -27.667 -109.5 -51v-796h-360v1556h360v-557
c64 50 125.5 88.333 184.5 115s124.5 40 196.5 40c121.333 0 216.166 -35.333 284.499 -106s102.5 -176.334 102.5 -317.001v-731zM1202 1656h-264l-185 219l-184 -219h-260l321 393h251z" />
    <glyph glyph-name="Hbar" unicode="&#x126;" horiz-adv-x="1715" 
d="M1661 1104h-136v-1104h-384v656h-567v-656h-384v1104h-133v216h133v169h384v-169h567v169h384v-169h136v-216zM1141 944v160h-567v-160h567z" />
    <glyph glyph-name="hbar" unicode="&#x127;" horiz-adv-x="1459" 
d="M1298 0l-361.998 0.000976562v557c0 45.333 -2.33301 90.5 -7 135.5s-12.667 78.167 -24 99.5c-13.333 24.667 -32.833 42.667 -58.5 54s-61.5 17 -107.5 17c-32.667 0 -65.834 -5.33301 -99.501 -16s-70.167 -27.667 -109.5 -51v-796h-360v1237h-129v207h129v112h360
v-112h326v-207h-326v-238c64 50 125.5 88.333 184.5 115s124.5 40 196.5 40c121.333 0 216.166 -35.333 284.499 -106s102.5 -176.334 102.5 -317.001v-731z" />
    <glyph glyph-name="Itilde" unicode="&#x128;" horiz-adv-x="1118" 
d="M995 0h-872v264h244v961h-244v264h872v-264h-244v-961h244v-264zM1005 1991c-6.66699 -112.667 -34.1689 -196.167 -82.502 -250.5s-115.833 -81.5 -202.5 -81.5c-31.333 0 -61.166 6.16699 -89.499 18.5s-54.166 25.5 -77.499 39.5
c-20.667 12.667 -43.5 25.5 -68.5 38.5s-45.833 19.5 -62.5 19.5c-32.667 0 -54.5 -10.667 -65.5 -32s-17.5 -51.333 -19.5 -90h-219c4 101.333 32 181.833 84 241.5s118.667 89.5 200 89.5c32 0 62.333 -5.83301 91 -17.5s55 -24.5 79 -38.5l69 -37.5
c21.333 -11.667 41 -17.5 59 -17.5c32 0 54 10.667 66 32s18.667 50 20 86h219z" />
    <glyph glyph-name="itilde" unicode="&#x129;" horiz-adv-x="700" 
d="M530 0h-360v1123h360v-1123zM712 1603c-6.66699 -114 -28.167 -194.5 -64.5 -241.5s-92.166 -70.5 -167.499 -70.5c-28 0 -53.833 6.16699 -77.5 18.5s-44.834 25.5 -63.501 39.5c-18 13.333 -36.833 26.333 -56.5 39s-37.167 19 -52.5 19
c-23.333 0 -40.166 -8.33301 -50.499 -25s-16.166 -49 -17.499 -97h-172c3.33301 96.667 24.166 172.667 62.499 228s94.5 83 168.5 83c27.333 0 53 -5.83301 77 -17.5s46.333 -24.5 67 -38.5l57.5 -39c15 -10.667 31.167 -16 48.5 -16c28 0 46.167 10.833 54.5 32.5
s13.166 50.167 14.499 85.5h172z" />
    <glyph glyph-name="Imacron" unicode="&#x12a;" horiz-adv-x="1118" 
d="M995 0h-872v264h244v961h-244v264h872v-264h-244v-961h244v-264zM960 1719h-802v210h802v-210z" />
    <glyph glyph-name="imacron" unicode="&#x12b;" horiz-adv-x="700" 
d="M530 0h-360v1123h360v-1123zM655 1346h-610v210h610v-210z" />
    <glyph glyph-name="Ibreve" unicode="&#x12c;" horiz-adv-x="1118" 
d="M995 0h-872v264h244v961h-244v264h872v-264h-244v-961h244v-264zM948 2009c0 -121.333 -34.167 -215.166 -102.5 -281.499s-162.833 -99.5 -283.5 -99.5c-128 0 -224.5 33.167 -289.5 99.5s-97.5 160.166 -97.5 281.499h223c0 -66 13 -116.5 39 -151.5
s67.667 -52.5 125 -52.5c56 0 97.167 17.5 123.5 52.5s39.5 85.5 39.5 151.5h223z" />
    <glyph glyph-name="ibreve" unicode="&#x12d;" horiz-adv-x="700" 
d="M530 0h-360v1123h360v-1123zM673 1636c0 -120.667 -28.167 -213.333 -84.5 -278s-135.5 -97 -237.5 -97c-107.333 0 -188 32.167 -242 96.5s-81 157.166 -81 278.499h186c0 -68 9.66699 -121.5 29 -160.5s55.333 -58.5 108 -58.5c49.333 0 84.333 19.833 105 59.5
s31 92.834 31 159.501h186z" />
    <glyph glyph-name="Iogonek" unicode="&#x12e;" horiz-adv-x="1118" 
d="M505 0l-382 0.000976562v264h244v961h-244v264h872v-264h-244v-961h244v-264h-275c-0.666992 -11.333 -1.5 -22.666 -2.5 -33.999s-1.5 -28 -1.5 -50c0 -40.667 16 -74.667 48 -102s76.333 -41 133 -41c28 0 57.833 4 89.5 12s54.5 15.333 68.5 22h9v-200
c-32 -8.66699 -69.333 -14.834 -112 -18.501s-75.667 -5.5 -99 -5.5c-114 0 -201.333 27.5 -262 82.5s-91 133.5 -91 235.5c0 20 0.666992 38.667 2 56s2.33301 31.666 3 42.999z" />
    <glyph glyph-name="iogonek" unicode="&#x12f;" horiz-adv-x="700" 
d="M170 119l-0.00195312 1004h360v-1123h-150c-1.33301 -14 -2.5 -27.333 -3.5 -40s-1.5 -27.334 -1.5 -44.001c0 -42 15.167 -76.333 45.5 -103s71.833 -40 124.5 -40c24.667 0 51.167 3.33301 79.5 10s52.5 14.667 72.5 24h9v-200
c-31.333 -8.66699 -67.166 -14.834 -107.499 -18.501s-72.166 -5.5 -95.499 -5.5c-109.333 0 -193.833 27.333 -253.5 82s-89.5 133.334 -89.5 236.001c0 30.667 1.5 66.667 4.5 108s4.83301 78 5.5 110zM539.998 1283h-380v273h380v-273z" />
    <glyph glyph-name="Idotaccent" unicode="&#x130;" horiz-adv-x="1118" 
d="M995 0h-872v264h244v961h-244v264h872v-264h-244v-961h244v-264zM743 1656h-370v273h370v-273z" />
    <glyph glyph-name="dotlessi" unicode="&#x131;" horiz-adv-x="700" 
d="M530 0h-360v1123h360v-1123z" />
    <glyph glyph-name="IJ" unicode="&#x132;" horiz-adv-x="2063" 
d="M995 0h-872v264h244v961h-244v264h872v-264h-244v-961h244v-264zM1892 437c0 -64 -10 -124.668 -30 -182.001s-50 -106 -90 -146c-40.667 -41.333 -91.667 -73.666 -153 -96.999s-134.333 -35 -219 -35c-59.333 0 -113.666 2.5 -162.999 7.5s-94 12.167 -134 21.5v292h32
c24.667 -12.667 50.167 -24 76.5 -34s63.166 -15 110.499 -15c38 0 69.667 9.16699 95 27.5s44.333 42.833 57 73.5c14 34 23.167 71 27.5 111s6.5 87 6.5 141v613h-291v274h675v-1052z" />
    <glyph glyph-name="ij" unicode="&#x133;" horiz-adv-x="1490" 
d="M530 0h-360v1123h360v-1123zM540 1283h-380v273h380v-273zM1321 -20c0 -126.667 -38.998 -225.499 -116.998 -296.499s-178.333 -106.5 -301 -106.5c-65.333 0 -124.833 2.83301 -178.5 8.5s-92.834 11.5 -117.501 17.5v258h28c20 -6.66699 45 -12.334 75 -17.001
s53.667 -7 71 -7c69.333 0 116.666 20.667 141.999 62s38 109.333 38 204v776h-213v244h573v-1143zM1321 1283h-383v273h383v-273z" />
    <glyph glyph-name="Jcircumflex" unicode="&#x134;" horiz-adv-x="1137" 
d="M966 437c0 -65.333 -11.665 -126.5 -34.998 -183.5s-58 -105.167 -104 -144.5c-48.667 -42 -107.334 -74.5 -176.001 -97.5s-153.667 -34.5 -255 -34.5c-68.667 0 -133.334 2.5 -194.001 7.5s-114 12.167 -160 21.5v302h36c32 -12 65.333 -23.167 100 -33.5
s79 -15.5 133 -15.5c70 0 123.833 9.33301 161.5 28s64.5 44.667 80.5 78c15.333 32.667 24 68.5 26 107.5s3 88.833 3 149.5v593h-341v274h725v-1052zM1055 1656h-264l-185 219l-184 -219h-260l321 393h251z" />
    <glyph glyph-name="jcircumflex" unicode="&#x135;" horiz-adv-x="825" 
d="M656 -20c0 -126.667 -38.998 -225.499 -116.998 -296.499s-178.333 -106.5 -301 -106.5c-65.333 0 -124.833 2.83301 -178.5 8.5s-92.834 11.5 -117.501 17.5v258h28c20 -6.66699 45 -12.334 75 -17.001s53.667 -7 71 -7c69.333 0 116.666 20.667 141.999 62
s38 109.333 38 204v776h-213v244h573v-1143zM770.002 1283h-239l-145 213l-144 -213h-235l254 393h255z" />
    <glyph glyph-name="Kcommaaccent" unicode="&#x136;" horiz-adv-x="1579" 
d="M1580 0h-471l-445 596l-90 -109v-487h-384v1489h384v-674l532 674h445l-582 -689zM965 -86c0 -108 -33.167 -191.168 -99.5 -249.501s-152.833 -87.5 -259.5 -87.5c-23.333 0 -57.166 1.83301 -101.499 5.5s-81.5 9.83398 -111.5 18.501v200h23
c16 -7.33301 39.333 -15 70 -23s60 -12 88 -12c53.333 0 94.166 13.833 122.499 41.5s42.5 67.167 42.5 118.5c0 15.333 -0.333008 32.833 -1 52.5s-1 33.5 -1 41.5h223c0.666992 -12 1.66699 -28.5 3 -49.5s2 -39.833 2 -56.5z" />
    <glyph glyph-name="kcommaaccent" unicode="&#x137;" horiz-adv-x="1374" 
d="M1362 0h-419l-315 489l-98 -119v-370h-360v1556h360v-929l388 496h415l-404 -484zM864 -86c0 -108 -33.167 -191.168 -99.5 -249.501s-152.833 -87.5 -259.5 -87.5c-23.333 0 -57.166 1.83301 -101.499 5.5s-81.5 9.83398 -111.5 18.501v200h23
c16 -7.33301 39.333 -15 70 -23s60 -12 88 -12c53.333 0 94.166 13.833 122.499 41.5s42.5 67.167 42.5 118.5c0 15.333 -0.333008 32.833 -1 52.5s-1 33.5 -1 41.5h223c0.666992 -12 1.66699 -28.5 3 -49.5s2 -39.833 2 -56.5z" />
    <glyph glyph-name="kgreenlandic" unicode="&#x138;" horiz-adv-x="1374" 
d="M1362 0h-419l-315 489l-98 -119v-370h-360v1121h360v-494l388 496h415l-404 -484z" />
    <glyph glyph-name="Lacute" unicode="&#x139;" horiz-adv-x="1305" 
d="M1264 0h-1074v1489h384v-1201h690v-288zM933 2049v-20l-352 -373h-246l247 393h351z" />
    <glyph glyph-name="lacute" unicode="&#x13a;" horiz-adv-x="700" 
d="M530 0h-360v1556h360v-1556zM719 2049v-20l-352 -373h-246l247 393h351z" />
    <glyph glyph-name="Lcommaaccent" unicode="&#x13b;" horiz-adv-x="1305" 
d="M741 0l-551 0.000976562v1489h384v-1201h690v-288h-299l2.5 -38c1 -15.333 1.5 -31.333 1.5 -48c0 -108 -33.167 -191.167 -99.5 -249.5s-152.833 -87.5 -259.5 -87.5c-23.333 0 -57.166 1.83301 -101.499 5.5s-81.5 9.83398 -111.5 18.501v200h23
c16 -7.33301 39.333 -15 70 -23s60 -12 88 -12c53.333 0 94.166 13.833 122.499 41.5s42.5 67.167 42.5 118.5c0 15.333 -0.166992 29.666 -0.5 42.999s-0.833008 23.666 -1.5 30.999z" />
    <glyph glyph-name="lcommaaccent" unicode="&#x13c;" horiz-adv-x="700" 
d="M396 0l-226 -0.000976562v1556h360v-1536h89c0.666992 -12 1.66699 -28.5 3 -49.5s2 -39.833 2 -56.5c0 -108 -33.167 -191.167 -99.5 -249.5s-152.833 -87.5 -259.5 -87.5c-23.333 0 -57.166 1.83301 -101.499 5.5s-81.5 9.83398 -111.5 18.501v200h23
c16 -7.33301 39.333 -15 70 -23s60 -12 88 -12c53.333 0 94.166 13.833 122.499 41.5s42.5 67.167 42.5 118.5c0 10.667 -0.166992 23.167 -0.5 37.5s-0.833008 26.5 -1.5 36.5z" />
    <glyph glyph-name="Lcaron" unicode="&#x13d;" horiz-adv-x="1305" 
d="M1264 0h-1074v1489h384v-1201h690v-288zM1291 1556l-291 -589h-234l157 589h368z" />
    <glyph glyph-name="lcaron" unicode="&#x13e;" horiz-adv-x="1070" 
d="M530 0h-360v1556h360v-1556zM1169 1556l-291 -589h-234l157 589h368z" />
    <glyph glyph-name="Ldot" unicode="&#x13f;" horiz-adv-x="1305" 
d="M1264 0h-1074v1489h384v-1201h690v-288zM1222 584h-374v393h374v-393z" />
    <glyph glyph-name="ldot" unicode="&#x140;" horiz-adv-x="1140" 
d="M530 0h-360v1556h360v-1556zM1102 584h-364v393h364v-393z" />
    <glyph glyph-name="Lslash" unicode="&#x141;" horiz-adv-x="1315" 
d="M1269 0h-1074v475l-171 -140v255l171 137v762h384v-486l342 276v-255l-342 -273v-463h690v-288z" />
    <glyph glyph-name="lslash" unicode="&#x142;" horiz-adv-x="720" 
d="M697 881l-157 -126v-755h-360v550l-156 -127v233l156 124v776h360v-570l157 128v-233z" />
    <glyph glyph-name="Nacute" unicode="&#x143;" horiz-adv-x="1734" 
d="M1544 0h-370l-632 1022v-1022h-352v1489h459l543 -853v853h352v-1489zM1251 2049v-20l-352 -373h-246l247 393h351z" />
    <glyph glyph-name="nacute" unicode="&#x144;" horiz-adv-x="1459" 
d="M1298 0l-361.998 0.000976562v557c0 45.333 -2.33301 90.5 -7 135.5s-12.667 78.167 -24 99.5c-13.333 24.667 -32.833 42.667 -58.5 54s-61.5 17 -107.5 17c-32.667 0 -65.834 -5.33301 -99.501 -16s-70.167 -27.667 -109.5 -51v-796h-360v1123h360v-124
c64 50 125.5 88.333 184.5 115s124.5 40 196.5 40c121.333 0 216.166 -35.333 284.499 -106s102.5 -176.334 102.5 -317.001v-731zM1099 1676v-20l-352 -373h-246l247 393h351z" />
    <glyph glyph-name="Ncommaaccent" unicode="&#x145;" horiz-adv-x="1734" 
d="M1544 0h-370l-632 1022v-1022h-352v1489h459l543 -853v853h352v-1489zM1001 -86c0 -108 -33.167 -191.168 -99.5 -249.501s-152.833 -87.5 -259.5 -87.5c-23.333 0 -57.166 1.83301 -101.499 5.5s-81.5 9.83398 -111.5 18.501v200h23c16 -7.33301 39.333 -15 70 -23
s60 -12 88 -12c53.333 0 94.166 13.833 122.499 41.5s42.5 67.167 42.5 118.5c0 15.333 -0.333008 32.833 -1 52.5s-1 33.5 -1 41.5h223c0.666992 -12 1.66699 -28.5 3 -49.5s2 -39.833 2 -56.5z" />
    <glyph glyph-name="ncommaaccent" unicode="&#x146;" horiz-adv-x="1459" 
d="M1298 0l-361.998 0.000976562v557c0 45.333 -2.33301 90.5 -7 135.5s-12.667 78.167 -24 99.5c-13.333 24.667 -32.833 42.667 -58.5 54s-61.5 17 -107.5 17c-32.667 0 -65.834 -5.33301 -99.501 -16s-70.167 -27.667 -109.5 -51v-796h-360v1123h360v-124
c64 50 125.5 88.333 184.5 115s124.5 40 196.5 40c121.333 0 216.166 -35.333 284.499 -106s102.5 -176.334 102.5 -317.001v-731zM865.002 -85.999c0 -108 -33.167 -191.168 -99.5 -249.501s-152.833 -87.5 -259.5 -87.5c-23.333 0 -57.166 1.83301 -101.499 5.5
s-81.5 9.83398 -111.5 18.501v200h23c16 -7.33301 39.333 -15 70 -23s60 -12 88 -12c53.333 0 94.166 13.833 122.499 41.5s42.5 67.167 42.5 118.5c0 15.333 -0.333008 32.833 -1 52.5s-1 33.5 -1 41.5h223c0.666992 -12 1.66699 -28.5 3 -49.5s2 -39.833 2 -56.5z" />
    <glyph glyph-name="Ncaron" unicode="&#x147;" horiz-adv-x="1734" 
d="M1544 0h-370l-632 1022v-1022h-352v1489h459l543 -853v853h352v-1489zM1333 2049l-321 -393h-251l-321 393h264l185 -227l184 227h260z" />
    <glyph glyph-name="ncaron" unicode="&#x148;" horiz-adv-x="1459" 
d="M1298 0l-361.998 0.000976562v557c0 45.333 -2.33301 90.5 -7 135.5s-12.667 78.167 -24 99.5c-13.333 24.667 -32.833 42.667 -58.5 54s-61.5 17 -107.5 17c-32.667 0 -65.834 -5.33301 -99.501 -16s-70.167 -27.667 -109.5 -51v-796h-360v1123h360v-124
c64 50 125.5 88.333 184.5 115s124.5 40 196.5 40c121.333 0 216.166 -35.333 284.499 -106s102.5 -176.334 102.5 -317.001v-731zM1189 1676l-321 -393h-251l-321 393h264l185 -227l184 227h260z" />
    <glyph glyph-name="napostrophe" unicode="&#x149;" horiz-adv-x="1690" 
d="M1529 0l-361.998 0.000976562v557c0 45.333 -2.33301 90.5 -7 135.5s-12.667 78.167 -24 99.5c-13.333 24.667 -32.833 42.667 -58.5 54s-61.5 17 -107.5 17c-32.667 0 -65.834 -5.33301 -99.501 -16s-70.167 -27.667 -109.5 -51v-796h-360v1123h360v-124
c64 50 125.5 88.333 184.5 115s124.5 40 196.5 40c121.333 0 216.166 -35.333 284.499 -106s102.5 -176.334 102.5 -317.001v-731zM498.002 1556l-291 -589h-234l157 589h368z" />
    <glyph glyph-name="Eng" unicode="&#x14a;" horiz-adv-x="1734" 
d="M1183 -3l0.000976562 14.001l-641 1011v-1022h-352v1489h459l543 -841v841h352v-1503c0 -126.667 -38.5 -226.5 -115.5 -299.5s-178.833 -109.5 -305.5 -109.5c-72.667 0 -134.667 3.16699 -186 9.5s-87.333 11.833 -108 16.5v264h27c24 -8 52.667 -14.5 86 -19.5
s58.666 -7.5 75.999 -7.5c16.667 0 36.5 1.66699 59.5 5s40.833 9.66602 53.5 18.999c16.667 12 29.5 26.667 38.5 44s13.5 47 13.5 89z" />
    <glyph glyph-name="eng" unicode="&#x14b;" horiz-adv-x="1459" 
d="M936 100l0.00195312 457.001c0 45.333 -2.33301 90.5 -7 135.5s-12.667 78.167 -24 99.5c-13.333 24.667 -32.833 42.667 -58.5 54s-61.5 17 -107.5 17c-32.667 0 -65.834 -5.33301 -99.501 -16s-70.167 -27.667 -109.5 -51v-796h-360v1123h360v-124
c64 50 125.5 88.333 184.5 115s124.5 40 196.5 40c121.333 0 216.166 -35.333 284.499 -106s102.5 -176.334 102.5 -317.001v-723c0 -130 -39 -234.333 -117 -313s-178 -118 -300 -118c-66 0 -125.833 3 -179.5 9s-89.167 11 -106.5 15v257h28
c16 -5.33301 35.833 -10.5 59.5 -15.5s49.5 -7.5 77.5 -7.5c64 0 109.333 19.167 136 57.5s40 107.5 40 207.5z" />
    <glyph glyph-name="Omacron" unicode="&#x14c;" horiz-adv-x="1741" 
d="M1638 744c0 -237.333 -68.001 -425.833 -204.001 -565.5s-324 -209.5 -564 -209.5c-239.333 0 -427 69.833 -563 209.5s-204 328.167 -204 565.5c0 239.333 68 428.5 204 567.5s323.667 208.5 563 208.5c238.667 0 426.334 -69.5 563.001 -208.5s205 -328.167 205 -567.5
zM1129 367c37.333 45.333 65.001 98.832 83.001 160.499s27 134.167 27 217.5c0 89.333 -10.333 165.333 -31 228s-47.667 113.334 -81 152.001c-34 40 -73.167 69 -117.5 87s-90.5 27 -138.5 27c-48.667 0 -94.5 -8.66699 -137.5 -26s-82.5 -46 -118.5 -86
c-33.333 -37.333 -60.5 -88.833 -81.5 -154.5s-31.5 -141.834 -31.5 -228.501c0 -88.667 10.167 -164.167 30.5 -226.5s47.166 -113.166 80.499 -152.499s72.333 -68.333 117 -87s91.667 -28 141 -28s96.333 9.5 141 28.5s83.667 48.5 117 88.5zM1272 1719h-802v210h802
v-210z" />
    <glyph glyph-name="omacron" unicode="&#x14d;" horiz-adv-x="1406" 
d="M1318 561c0 -184.667 -53.8301 -330.166 -161.497 -436.499s-258.834 -159.5 -453.501 -159.5s-345.834 53.167 -453.501 159.5s-161.5 251.833 -161.5 436.5c0 186 54.167 332 162.5 438s259.166 159 452.499 159c196 0 347.5 -53.333 454.5 -160
s160.5 -252.334 160.5 -437.001zM875.003 288.001c23.333 28.667 40.8311 63.168 52.498 103.501s17.5 96.166 17.5 167.499c0 66 -6 121.333 -18 166s-28.667 80.334 -50 107.001c-21.333 27.333 -47 46.666 -77 57.999s-62.333 17 -97 17s-65.5 -4.66699 -92.5 -14
s-52.833 -28 -77.5 -56c-22 -26 -39.5 -61.667 -52.5 -107s-19.5 -102.333 -19.5 -171c0 -61.333 5.66699 -114.5 17 -159.5s28 -81.167 50 -108.5c21.333 -26 46.833 -45 76.5 -57s63.5 -18 101.5 -18c32.667 0 63.834 5.5 93.501 16.5s54.834 29.5 75.501 55.5zM1104 1346
h-802v210h802v-210z" />
    <glyph glyph-name="Obreve" unicode="&#x14e;" horiz-adv-x="1741" 
d="M1638 744c0 -237.333 -68.001 -425.833 -204.001 -565.5s-324 -209.5 -564 -209.5c-239.333 0 -427 69.833 -563 209.5s-204 328.167 -204 565.5c0 239.333 68 428.5 204 567.5s323.667 208.5 563 208.5c238.667 0 426.334 -69.5 563.001 -208.5s205 -328.167 205 -567.5
zM1129 367c37.333 45.333 65.001 98.832 83.001 160.499s27 134.167 27 217.5c0 89.333 -10.333 165.333 -31 228s-47.667 113.334 -81 152.001c-34 40 -73.167 69 -117.5 87s-90.5 27 -138.5 27c-48.667 0 -94.5 -8.66699 -137.5 -26s-82.5 -46 -118.5 -86
c-33.333 -37.333 -60.5 -88.833 -81.5 -154.5s-31.5 -141.834 -31.5 -228.501c0 -88.667 10.167 -164.167 30.5 -226.5s47.166 -113.166 80.499 -152.499s72.333 -68.333 117 -87s91.667 -28 141 -28s96.333 9.5 141 28.5s83.667 48.5 117 88.5zM1256 2009
c0 -118.667 -33.666 -211.832 -100.999 -279.499s-162.333 -101.5 -285 -101.5s-217.834 32.167 -285.501 96.5s-101.5 159.166 -101.5 284.499h223c0 -68.667 13.5 -119.834 40.5 -153.501s68.167 -50.5 123.5 -50.5c52 0 92.167 16.833 120.5 50.5
s42.5 84.834 42.5 153.501h223z" />
    <glyph glyph-name="obreve" unicode="&#x14f;" horiz-adv-x="1406" 
d="M1318 561c0 -184.667 -53.8301 -330.166 -161.497 -436.499s-258.834 -159.5 -453.501 -159.5s-345.834 53.167 -453.501 159.5s-161.5 251.833 -161.5 436.5c0 186 54.167 332 162.5 438s259.166 159 452.499 159c196 0 347.5 -53.333 454.5 -160
s160.5 -252.334 160.5 -437.001zM875.003 288.001c23.333 28.667 40.8311 63.168 52.498 103.501s17.5 96.166 17.5 167.499c0 66 -6 121.333 -18 166s-28.667 80.334 -50 107.001c-21.333 27.333 -47 46.666 -77 57.999s-62.333 17 -97 17s-65.5 -4.66699 -92.5 -14
s-52.833 -28 -77.5 -56c-22 -26 -39.5 -61.667 -52.5 -107s-19.5 -102.333 -19.5 -171c0 -61.333 5.66699 -114.5 17 -159.5s28 -81.167 50 -108.5c21.333 -26 46.833 -45 76.5 -57s63.5 -18 101.5 -18c32.667 0 63.834 5.5 93.501 16.5s54.834 29.5 75.501 55.5zM1089 1636
c0 -118.667 -33.666 -211.832 -100.999 -279.499s-162.333 -101.5 -285 -101.5s-217.834 32.167 -285.501 96.5s-101.5 159.166 -101.5 284.499h223c0 -68.667 13.5 -119.834 40.5 -153.501s68.167 -50.5 123.5 -50.5c52 0 92.167 16.833 120.5 50.5
s42.5 84.834 42.5 153.501h223z" />
    <glyph glyph-name="Ohungarumlaut" unicode="&#x150;" horiz-adv-x="1741" 
d="M1638 744c0 -237.333 -68.001 -425.833 -204.001 -565.5s-324 -209.5 -564 -209.5c-239.333 0 -427 69.833 -563 209.5s-204 328.167 -204 565.5c0 239.333 68 428.5 204 567.5s323.667 208.5 563 208.5c238.667 0 426.334 -69.5 563.001 -208.5s205 -328.167 205 -567.5
zM1129 367c37.333 45.333 65.001 98.832 83.001 160.499s27 134.167 27 217.5c0 89.333 -10.333 165.333 -31 228s-47.667 113.334 -81 152.001c-34 40 -73.167 69 -117.5 87s-90.5 27 -138.5 27c-48.667 0 -94.5 -8.66699 -137.5 -26s-82.5 -46 -118.5 -86
c-33.333 -37.333 -60.5 -88.833 -81.5 -154.5s-31.5 -141.834 -31.5 -228.501c0 -88.667 10.167 -164.167 30.5 -226.5s47.166 -113.166 80.499 -152.499s72.333 -68.333 117 -87s91.667 -28 141 -28s96.333 9.5 141 28.5s83.667 48.5 117 88.5zM1395 2049l-268 -393h-219
l179 393h308zM971 2049l-268 -393h-219l179 393h308z" />
    <glyph glyph-name="ohungarumlaut" unicode="&#x151;" horiz-adv-x="1406" 
d="M1318 561c0 -184.667 -53.8301 -330.166 -161.497 -436.499s-258.834 -159.5 -453.501 -159.5s-345.834 53.167 -453.501 159.5s-161.5 251.833 -161.5 436.5c0 186 54.167 332 162.5 438s259.166 159 452.499 159c196 0 347.5 -53.333 454.5 -160
s160.5 -252.334 160.5 -437.001zM875.003 288.001c23.333 28.667 40.8311 63.168 52.498 103.501s17.5 96.166 17.5 167.499c0 66 -6 121.333 -18 166s-28.667 80.334 -50 107.001c-21.333 27.333 -47 46.666 -77 57.999s-62.333 17 -97 17s-65.5 -4.66699 -92.5 -14
s-52.833 -28 -77.5 -56c-22 -26 -39.5 -61.667 -52.5 -107s-19.5 -102.333 -19.5 -171c0 -61.333 5.66699 -114.5 17 -159.5s28 -81.167 50 -108.5c21.333 -26 46.833 -45 76.5 -57s63.5 -18 101.5 -18c32.667 0 63.834 5.5 93.501 16.5s54.834 29.5 75.501 55.5zM1234 1676
l-268 -393h-219l179 393h308zM810.001 1676l-268 -393h-219l179 393h308z" />
    <glyph glyph-name="OE" unicode="&#x152;" horiz-adv-x="2325" 
d="M2192 1489l-0.000976562 -288h-695v-257h645v-288h-645v-368h695v-288h-1172c-106.667 0 -209.667 7 -309 21s-190.333 46 -273 96c-104.667 64 -186.667 148.5 -246 253.5s-89 230.167 -89 375.5c0 134.667 30.833 256.667 92.5 366s143.834 195.333 246.501 258
c64 40 139.5 69.833 226.5 89.5s191.167 29.5 312.5 29.5h1211zM898.999 282c30.667 -2.66699 63.999 -4 99.999 -4h118v932h-126.5c-31.667 0 -66.5 -1.66699 -104.5 -5c-38 -4 -69.167 -9.33301 -93.5 -16s-53.166 -19 -86.499 -37c-68 -38 -119.333 -91.333 -154 -160
s-52 -151.667 -52 -249c0 -100.667 18.833 -185.5 56.5 -254.5s94.167 -122.5 169.5 -160.5c26 -12.667 54.167 -23 84.5 -31s59.833 -13 88.5 -15z" />
    <glyph glyph-name="oe" unicode="&#x153;" horiz-adv-x="2187" 
d="M2103 495l-810.997 0.000976562c3.33301 -52.667 15.166 -96.334 35.499 -131.001s46.833 -62.334 79.5 -83.001s70.334 -35.5 113.001 -44.5s89 -13.5 139 -13.5c74 0 145.833 13.333 215.5 40s125.5 56.334 167.5 89.001h40v-289
c-70 -28.667 -140.833 -51.334 -212.5 -68.001s-154.834 -25 -249.501 -25c-104.667 0 -197.167 12.833 -277.5 38.5s-149.833 60.5 -208.5 104.5c-54.667 -47.333 -118 -83.833 -190 -109.5s-152.333 -38.5 -241 -38.5c-192.667 0 -343.334 53 -452.001 159
s-163 251.667 -163 437c0 186 54.167 332 162.5 438s259.166 159 452.499 159c88.667 0 169.5 -13.167 242.5 -39.5s134.833 -61.5 185.5 -105.5c54 44 117.333 79.167 190 105.5s152.667 39.5 240 39.5c180.667 0 316.167 -46.167 406.5 -138.5
s135.5 -225.166 135.5 -398.499v-126zM1745 706.001c-2 74 -20.1689 130.333 -54.502 169s-87.833 58 -160.5 58c-67.333 0 -122.666 -18 -165.999 -54s-67.666 -93.667 -72.999 -173h454zM945.001 559.001c0 66 -6.00195 121.334 -18.002 166.001
s-28.667 80.334 -50 107.001c-21.333 27.333 -47 46.666 -77 57.999s-62.333 17 -97 17s-65.5 -4.66699 -92.5 -14s-52.833 -28 -77.5 -56c-22 -26 -39.5 -61.667 -52.5 -107s-19.5 -102.333 -19.5 -171c0 -61.333 5.66699 -114.5 17 -159.5s28 -81.167 50 -108.5
c21.333 -26 46.833 -45 76.5 -57s63.5 -18 101.5 -18c32.667 0 63.834 5.5 93.501 16.5s54.834 29.5 75.501 55.5c23.333 28.667 40.833 63.167 52.5 103.5s17.5 96.166 17.5 167.499z" />
    <glyph glyph-name="Racute" unicode="&#x154;" horiz-adv-x="1602" 
d="M1025 1033c0 37.333 -7.66699 69.333 -23 96s-41.666 47.667 -78.999 63c-26 10.667 -56.333 17.167 -91 19.5s-75 3.5 -121 3.5h-139v-401h118c61.333 0 112.666 3 153.999 9s76 19.667 104 41c26.667 20.667 46.167 43.5 58.5 68.5s18.5 58.5 18.5 100.5zM1624 0
h-468.999l-406 546h-177v-546h-382v1489h644c88 0 163.667 -5 227 -15s122.666 -31.667 177.999 -65c56 -33.333 100.5 -76.5 133.5 -129.5s49.5 -119.5 49.5 -199.5c0 -110 -25.5 -199.667 -76.5 -269s-123.833 -127 -218.5 -173zM1163 2049v-20l-352 -373h-246l247 393
h351z" />
    <glyph glyph-name="racute" unicode="&#x155;" horiz-adv-x="1018" 
d="M984 780h-32.002c-15.333 5.33301 -40 9.33301 -74 12s-62.333 4 -85 4c-51.333 0 -96.666 -3.33301 -135.999 -10s-81.666 -18 -126.999 -34v-752h-360v1123h360v-165c79.333 68 148.333 113.167 207 135.5s112.667 33.5 162 33.5c12.667 0 27 -0.333008 43 -1
s30 -1.66699 42 -3v-343zM922.998 1676v-20l-352 -373h-246l247 393h351z" />
    <glyph glyph-name="Rcommaaccent" unicode="&#x156;" horiz-adv-x="1602" 
d="M1025 1033c0 37.333 -7.66699 69.333 -23 96s-41.666 47.667 -78.999 63c-26 10.667 -56.333 17.167 -91 19.5s-75 3.5 -121 3.5h-139v-401h118c61.333 0 112.666 3 153.999 9s76 19.667 104 41c26.667 20.667 46.167 43.5 58.5 68.5s18.5 58.5 18.5 100.5zM1624 0
h-468.999l-406 546h-177v-546h-382v1489h644c88 0 163.667 -5 227 -15s122.666 -31.667 177.999 -65c56 -33.333 100.5 -76.5 133.5 -129.5s49.5 -119.5 49.5 -199.5c0 -110 -25.5 -199.667 -76.5 -269s-123.833 -127 -218.5 -173zM984.001 -86
c0 -108 -33.167 -191.168 -99.5 -249.501s-152.833 -87.5 -259.5 -87.5c-23.333 0 -57.166 1.83301 -101.499 5.5s-81.5 9.83398 -111.5 18.501v200h23c16 -7.33301 39.333 -15 70 -23s60 -12 88 -12c53.333 0 94.166 13.833 122.499 41.5s42.5 67.167 42.5 118.5
c0 15.333 -0.333008 32.833 -1 52.5s-1 33.5 -1 41.5h223c0.666992 -12 1.66699 -28.5 3 -49.5s2 -39.833 2 -56.5z" />
    <glyph glyph-name="rcommaaccent" unicode="&#x157;" horiz-adv-x="1018" 
d="M196 -222c30.667 -8 59.998 -12.001 87.998 -12.001c53.333 0 94.166 13.833 122.499 41.5s42.5 67.167 42.5 118.5c0 10.667 -0.166992 23.167 -0.5 37.5s-0.833008 26.5 -1.5 36.5h-277v1123h360v-165c79.333 68 148.333 113.167 207 135.5s112.667 33.5 162 33.5
c12.667 0 27 -0.333008 43 -1s30 -1.66699 42 -3v-343h-32c-15.333 5.33301 -40 9.33301 -74 12s-62.333 4 -85 4c-51.333 0 -96.666 -3.33301 -135.999 -10s-81.666 -18 -126.999 -34v-732h140c0.666992 -12 1.66699 -28.5 3 -49.5s2 -39.833 2 -56.5
c0 -108 -33.167 -191.167 -99.5 -249.5s-152.833 -87.5 -259.5 -87.5c-23.333 0 -57.166 1.83301 -101.499 5.5s-81.5 9.83398 -111.5 18.501v200h23c16 -7.33301 39.333 -15 70 -23z" />
    <glyph glyph-name="Rcaron" unicode="&#x158;" horiz-adv-x="1602" 
d="M1025 1033c0 37.333 -7.66699 69.333 -23 96s-41.666 47.667 -78.999 63c-26 10.667 -56.333 17.167 -91 19.5s-75 3.5 -121 3.5h-139v-401h118c61.333 0 112.666 3 153.999 9s76 19.667 104 41c26.667 20.667 46.167 43.5 58.5 68.5s18.5 58.5 18.5 100.5zM1624 0
h-468.999l-406 546h-177v-546h-382v1489h644c88 0 163.667 -5 227 -15s122.666 -31.667 177.999 -65c56 -33.333 100.5 -76.5 133.5 -129.5s49.5 -119.5 49.5 -199.5c0 -110 -25.5 -199.667 -76.5 -269s-123.833 -127 -218.5 -173zM1233 2049l-321 -393h-251l-321 393h264
l185 -227l184 227h260z" />
    <glyph glyph-name="rcaron" unicode="&#x159;" horiz-adv-x="1018" 
d="M984 780h-32.002c-15.333 5.33301 -40 9.33301 -74 12s-62.333 4 -85 4c-51.333 0 -96.666 -3.33301 -135.999 -10s-81.666 -18 -126.999 -34v-752h-360v1123h360v-165c79.333 68 148.333 113.167 207 135.5s112.667 33.5 162 33.5c12.667 0 27 -0.333008 43 -1
s30 -1.66699 42 -3v-343zM998.998 1676l-321 -393h-251l-321 393h264l185 -227l184 227h260z" />
    <glyph glyph-name="Sacute" unicode="&#x15a;" horiz-adv-x="1455" 
d="M1382 468c0 -146.667 -62.166 -265.837 -186.499 -357.504s-293.166 -137.5 -506.499 -137.5c-123.333 0 -230.833 10.833 -322.5 32.5s-177.5 49.167 -257.5 82.5v357h42c79.333 -63.333 168.166 -112 266.499 -146s192.833 -51 283.5 -51c23.333 0 54 2 92 6
s69 10.667 93 20c29.333 12 53.5 27 72.5 45s28.5 44.667 28.5 80c0 32.667 -13.833 60.834 -41.5 84.501s-68.167 41.834 -121.5 54.501c-56 13.333 -115.167 25.833 -177.5 37.5s-120.833 26.5 -175.5 44.5c-125.333 40.667 -215.5 95.834 -270.5 165.501
s-82.5 156.167 -82.5 259.5c0 138.667 62.167 251.834 186.5 339.501s284.166 131.5 479.499 131.5c98 0 194.833 -9.5 290.5 -28.5s178.5 -42.833 248.5 -71.5v-343h-41c-60 48 -133.5 88.167 -220.5 120.5s-175.833 48.5 -266.5 48.5c-32 0 -63.833 -2.16699 -95.5 -6.5
s-62.167 -12.5 -91.5 -24.5c-26 -10 -48.333 -25.167 -67 -45.5s-28 -43.5 -28 -69.5c0 -39.333 15 -69.5 45 -90.5s86.667 -40.167 170 -57.5l157.5 -33c50.333 -10.667 104.5 -25.334 162.5 -44.001c114 -37.333 198.167 -88.166 252.5 -152.499
s81.5 -147.833 81.5 -250.5zM1151 2049v-20l-352 -373h-246l247 393h351z" />
    <glyph glyph-name="sacute" unicode="&#x15b;" horiz-adv-x="1215" 
d="M1146 356c0 -116 -51.999 -209.5 -155.999 -280.5s-246.333 -106.5 -427 -106.5c-100 0 -190.667 9.33301 -272 28s-146.666 39.334 -195.999 62.001v296h33c18 -12.667 38.833 -26.5 62.5 -41.5s57.167 -31.167 100.5 -48.5c37.333 -15.333 79.666 -28.5 126.999 -39.5
s98 -16.5 152 -16.5c70.667 0 123 7.83301 157 23.5s51 38.834 51 69.501c0 27.333 -10 47.166 -30 59.499s-58 24.166 -114 35.499c-26.667 6 -62.834 12.5 -108.501 19.5s-87.167 15.5 -124.5 25.5c-102 26.667 -177.667 68.167 -227 124.5s-74 126.5 -74 210.5
c0 108 51.167 197.833 153.5 269.5s242.166 107.5 419.499 107.5c84 0 164.5 -8.5 241.5 -25.5s137.167 -35.167 180.5 -54.5v-284h-31c-53.333 36.667 -114.166 66.5 -182.499 89.5s-137.5 34.5 -207.5 34.5c-58 0 -106.833 -8 -146.5 -24s-59.5 -38.667 -59.5 -68
c0 -26.667 9 -47 27 -61s60.333 -28 127 -42c36.667 -7.33301 76.167 -14.5 118.5 -21.5s84.833 -15.833 127.5 -26.5c94.667 -24.667 164.667 -63.5 210 -116.5s68 -119.167 68 -198.5zM1010 1676v-20l-352 -373h-246l247 393h351z" />
    <glyph glyph-name="Scircumflex" unicode="&#x15c;" horiz-adv-x="1455" 
d="M1382 468c0 -146.667 -62.166 -265.837 -186.499 -357.504s-293.166 -137.5 -506.499 -137.5c-123.333 0 -230.833 10.833 -322.5 32.5s-177.5 49.167 -257.5 82.5v357h42c79.333 -63.333 168.166 -112 266.499 -146s192.833 -51 283.5 -51c23.333 0 54 2 92 6
s69 10.667 93 20c29.333 12 53.5 27 72.5 45s28.5 44.667 28.5 80c0 32.667 -13.833 60.834 -41.5 84.501s-68.167 41.834 -121.5 54.501c-56 13.333 -115.167 25.833 -177.5 37.5s-120.833 26.5 -175.5 44.5c-125.333 40.667 -215.5 95.834 -270.5 165.501
s-82.5 156.167 -82.5 259.5c0 138.667 62.167 251.834 186.5 339.501s284.166 131.5 479.499 131.5c98 0 194.833 -9.5 290.5 -28.5s178.5 -42.833 248.5 -71.5v-343h-41c-60 48 -133.5 88.167 -220.5 120.5s-175.833 48.5 -266.5 48.5c-32 0 -63.833 -2.16699 -95.5 -6.5
s-62.167 -12.5 -91.5 -24.5c-26 -10 -48.333 -25.167 -67 -45.5s-28 -43.5 -28 -69.5c0 -39.333 15 -69.5 45 -90.5s86.667 -40.167 170 -57.5l157.5 -33c50.333 -10.667 104.5 -25.334 162.5 -44.001c114 -37.333 198.167 -88.166 252.5 -152.499
s81.5 -147.833 81.5 -250.5zM1218 1656h-264l-185 219l-184 -219h-260l321 393h251z" />
    <glyph glyph-name="scircumflex" unicode="&#x15d;" horiz-adv-x="1215" 
d="M1146 356c0 -116 -51.999 -209.5 -155.999 -280.5s-246.333 -106.5 -427 -106.5c-100 0 -190.667 9.33301 -272 28s-146.666 39.334 -195.999 62.001v296h33c18 -12.667 38.833 -26.5 62.5 -41.5s57.167 -31.167 100.5 -48.5c37.333 -15.333 79.666 -28.5 126.999 -39.5
s98 -16.5 152 -16.5c70.667 0 123 7.83301 157 23.5s51 38.834 51 69.501c0 27.333 -10 47.166 -30 59.499s-58 24.166 -114 35.499c-26.667 6 -62.834 12.5 -108.501 19.5s-87.167 15.5 -124.5 25.5c-102 26.667 -177.667 68.167 -227 124.5s-74 126.5 -74 210.5
c0 108 51.167 197.833 153.5 269.5s242.166 107.5 419.499 107.5c84 0 164.5 -8.5 241.5 -25.5s137.167 -35.167 180.5 -54.5v-284h-31c-53.333 36.667 -114.166 66.5 -182.499 89.5s-137.5 34.5 -207.5 34.5c-58 0 -106.833 -8 -146.5 -24s-59.5 -38.667 -59.5 -68
c0 -26.667 9 -47 27 -61s60.333 -28 127 -42c36.667 -7.33301 76.167 -14.5 118.5 -21.5s84.833 -15.833 127.5 -26.5c94.667 -24.667 164.667 -63.5 210 -116.5s68 -119.167 68 -198.5zM1077 1283h-264l-185 219l-184 -219h-260l321 393h251z" />
    <glyph glyph-name="Scedilla" unicode="&#x15e;" horiz-adv-x="1455" 
d="M793 -21c-16 -1.33301 -32.998 -2.33887 -50.998 -3.00586s-35.667 -1 -53 -1c-123.333 0 -230.833 10.5 -322.5 31.5s-177.5 48.167 -257.5 81.5v357h42c79.333 -63.333 168.166 -112 266.499 -146s192.833 -51 283.5 -51c23.333 0 54 1.83301 92 5.5s69 10.5 93 20.5
c29.333 12 53.5 27 72.5 45s28.5 44.667 28.5 80c0 32.667 -13.833 60.834 -41.5 84.501s-68.167 41.834 -121.5 54.501c-56 13.333 -115.167 25.833 -177.5 37.5s-120.833 26.5 -175.5 44.5c-125.333 40.667 -215.5 95.834 -270.5 165.501s-82.5 156.167 -82.5 259.5
c0 138.667 62.167 251.834 186.5 339.501s284.166 131.5 479.499 131.5c98 0 194.833 -9.5 290.5 -28.5s178.5 -42.833 248.5 -71.5v-343h-41c-60 48 -133.5 88.167 -220.5 120.5s-175.833 48.5 -266.5 48.5c-32 0 -63.833 -2.16699 -95.5 -6.5s-62.167 -12.5 -91.5 -24.5
c-26 -10 -48.333 -25.167 -67 -45.5s-28 -43.5 -28 -69.5c0 -39.333 15 -69.5 45 -90.5s86.667 -40.167 170 -57.5l158 -32.5c50.667 -10.333 104.667 -25.166 162 -44.499c114 -37.333 198.167 -88.166 252.5 -152.499s81.5 -147.833 81.5 -250.5
c0 -104 -31.5 -194.667 -94.5 -272s-154.167 -135.333 -273.5 -174c1.33301 -14 2.5 -31.833 3.5 -53.5s1.5 -39.834 1.5 -54.501c0 -108 -33.167 -191.167 -99.5 -249.5s-152.833 -87.5 -259.5 -87.5c-23.333 0 -57.166 1.83301 -101.499 5.5s-81.5 9.83398 -111.5 18.501
v200h23c16 -7.33301 39.333 -15 70 -23s60 -12 88 -12c53.333 0 94.166 13.833 122.499 41.5s42.5 67.167 42.5 118.5v53z" />
    <glyph glyph-name="scedilla" unicode="&#x15f;" horiz-adv-x="1215" 
d="M665 -25c-16 -1.33301 -32.834 -2.33301 -50.501 -3s-34.834 -1 -51.501 -1c-100 0 -190.667 9 -272 27s-146.666 38.333 -195.999 61v296h33c18 -12.667 38.833 -26.5 62.5 -41.5s57.167 -31.167 100.5 -48.5c37.333 -14.667 79.666 -27.667 126.999 -39s98 -17 152 -17
c70.667 0 123 7.83301 157 23.5s51 38.834 51 69.501c0 27.333 -10 47.166 -30 59.499s-58 24.166 -114 35.499c-27.333 5.33301 -63.666 11.666 -108.999 18.999s-86.666 16 -123.999 26c-102 26.667 -177.667 68.167 -227 124.5s-74 126.5 -74 210.5
c0 108 51.167 197.833 153.5 269.5s242.166 107.5 419.499 107.5c84 0 164.5 -8.5 241.5 -25.5s137.167 -35.167 180.5 -54.5v-284h-31c-53.333 36.667 -114.166 66.5 -182.499 89.5s-137.5 34.5 -207.5 34.5c-58 0 -106.833 -8 -146.5 -24s-59.5 -38.667 -59.5 -68
c0 -26.667 9 -47 27 -61s60.333 -28 127 -42c36.667 -7.33301 76.167 -14.5 118.5 -21.5s84.833 -15.833 127.5 -26.5c94.667 -24.667 164.667 -63.5 210 -116.5s68 -119.167 68 -198.5c0 -75.333 -22.667 -141.666 -68 -198.999s-109.333 -102 -192 -134
c0.666992 -13.333 1.66699 -31 3 -53s2 -40.667 2 -56c0 -108 -33.167 -191.167 -99.5 -249.5s-152.833 -87.5 -259.5 -87.5c-23.333 0 -57.166 1.83301 -101.499 5.5s-81.5 9.83398 -111.5 18.501v200h23c16 -7.33301 39.333 -15 70 -23s60 -12 88 -12
c53.333 0 94.166 13.833 122.499 41.5s42.5 67.167 42.5 118.5v49z" />
    <glyph glyph-name="Scaron" unicode="&#x160;" horiz-adv-x="1455" 
d="M1382 468c0 -146.667 -62.166 -265.837 -186.499 -357.504s-293.166 -137.5 -506.499 -137.5c-123.333 0 -230.833 10.833 -322.5 32.5s-177.5 49.167 -257.5 82.5v357h42c79.333 -63.333 168.166 -112 266.499 -146s192.833 -51 283.5 -51c23.333 0 54 2 92 6
s69 10.667 93 20c29.333 12 53.5 27 72.5 45s28.5 44.667 28.5 80c0 32.667 -13.833 60.834 -41.5 84.501s-68.167 41.834 -121.5 54.501c-56 13.333 -115.167 25.833 -177.5 37.5s-120.833 26.5 -175.5 44.5c-125.333 40.667 -215.5 95.834 -270.5 165.501
s-82.5 156.167 -82.5 259.5c0 138.667 62.167 251.834 186.5 339.501s284.166 131.5 479.499 131.5c98 0 194.833 -9.5 290.5 -28.5s178.5 -42.833 248.5 -71.5v-343h-41c-60 48 -133.5 88.167 -220.5 120.5s-175.833 48.5 -266.5 48.5c-32 0 -63.833 -2.16699 -95.5 -6.5
s-62.167 -12.5 -91.5 -24.5c-26 -10 -48.333 -25.167 -67 -45.5s-28 -43.5 -28 -69.5c0 -39.333 15 -69.5 45 -90.5s86.667 -40.167 170 -57.5l157.5 -33c50.333 -10.667 104.5 -25.334 162.5 -44.001c114 -37.333 198.167 -88.166 252.5 -152.499
s81.5 -147.833 81.5 -250.5zM1196 2049l-321 -393h-251l-321 393h264l185 -227l184 227h260z" />
    <glyph glyph-name="scaron" unicode="&#x161;" horiz-adv-x="1215" 
d="M1146 356c0 -116 -51.999 -209.5 -155.999 -280.5s-246.333 -106.5 -427 -106.5c-100 0 -190.667 9.33301 -272 28s-146.666 39.334 -195.999 62.001v296h33c18 -12.667 38.833 -26.5 62.5 -41.5s57.167 -31.167 100.5 -48.5c37.333 -15.333 79.666 -28.5 126.999 -39.5
s98 -16.5 152 -16.5c70.667 0 123 7.83301 157 23.5s51 38.834 51 69.501c0 27.333 -10 47.166 -30 59.499s-58 24.166 -114 35.499c-26.667 6 -62.834 12.5 -108.501 19.5s-87.167 15.5 -124.5 25.5c-102 26.667 -177.667 68.167 -227 124.5s-74 126.5 -74 210.5
c0 108 51.167 197.833 153.5 269.5s242.166 107.5 419.499 107.5c84 0 164.5 -8.5 241.5 -25.5s137.167 -35.167 180.5 -54.5v-284h-31c-53.333 36.667 -114.166 66.5 -182.499 89.5s-137.5 34.5 -207.5 34.5c-58 0 -106.833 -8 -146.5 -24s-59.5 -38.667 -59.5 -68
c0 -26.667 9 -47 27 -61s60.333 -28 127 -42c36.667 -7.33301 76.167 -14.5 118.5 -21.5s84.833 -15.833 127.5 -26.5c94.667 -24.667 164.667 -63.5 210 -116.5s68 -119.167 68 -198.5zM1078 1676l-321 -393h-251l-321 393h264l185 -227l184 227h260z" />
    <glyph glyph-name="Tcommaaccent" unicode="&#x162;" horiz-adv-x="1396" 
d="M1355 1201l-465 -0.000976562v-1181h89c0.666992 -12 1.66699 -28.5 3 -49.5s2 -39.833 2 -56.5c0 -108 -33.167 -191.167 -99.5 -249.5s-152.833 -87.5 -259.5 -87.5c-23.333 0 -57.166 1.83301 -101.499 5.5s-81.5 9.83398 -111.5 18.501v200h23
c16 -7.33301 39.333 -15 70 -23s60 -12 88 -12c53.333 0 94.166 13.833 122.499 41.5s42.5 67.167 42.5 118.5c0 15.333 -0.166992 30 -0.5 44s-0.833008 24 -1.5 30h-250v1201h-465v288h1314v-288z" />
    <glyph glyph-name="tcommaaccent" unicode="&#x163;" horiz-adv-x="933" 
d="M592 -74c0 7.33301 -0.166992 15.6641 -0.5 24.9971s-0.5 18.333 -0.5 27c-134.667 2 -235 31.667 -301 89s-99 153 -99 287v525h-148v244h148v321h360v-321h337v-244h-337v-398c0 -39.333 0.333008 -73.666 1 -102.999s6 -55.666 16 -78.999
c9.33301 -23.333 25.833 -41.833 49.5 -55.5s58.167 -20.5 103.5 -20.5c18.667 0 43.167 4 73.5 12s51.5 15.333 63.5 22h30v-247l-36.5 -8.5c-12.333 -3 -24.833 -5.5 -37.5 -7.5c0.666992 -12 1.5 -25.5 2.5 -40.5s1.5 -28.167 1.5 -39.5
c0 -108 -33.167 -191.167 -99.5 -249.5s-152.833 -87.5 -259.5 -87.5c-23.333 0 -57.166 1.83301 -101.499 5.5s-81.5 9.83398 -111.5 18.501v200h23c16 -7.33301 39.333 -15 70 -23s60 -12 88 -12c53.333 0 94.166 13.833 122.499 41.5s42.5 67.167 42.5 118.5z" />
    <glyph glyph-name="Tcaron" unicode="&#x164;" horiz-adv-x="1396" 
d="M1355 1201h-465v-1201h-384v1201h-465v288h1314v-288zM1144 2049l-321 -393h-251l-321 393h264l185 -227l184 227h260z" />
    <glyph glyph-name="tcaron" unicode="&#x165;" horiz-adv-x="953" 
d="M888 10c-38.667 -10 -79.667 -17.835 -123 -23.502s-96.333 -8.5 -159 -8.5c-140 0 -244.167 28.333 -312.5 85s-102.5 153.667 -102.5 291v525h-148v244h148v321h360v-321h337v-244h-337v-398c0 -39.333 0.333008 -73.666 1 -102.999s6 -55.666 16 -78.999
c9.33301 -23.333 25.833 -41.833 49.5 -55.5s58.167 -20.5 103.5 -20.5c18.667 0 43.167 4 73.5 12s51.5 15.333 63.5 22h30v-247zM1176 1846l-233 -547h-224l119 547h338z" />
    <glyph glyph-name="Tbar" unicode="&#x166;" horiz-adv-x="1396" 
d="M506 605h-281v229h281v367h-465v288h1314v-288h-465v-367h281v-229h-281v-605h-384v605z" />
    <glyph glyph-name="tbar" unicode="&#x167;" horiz-adv-x="933" 
d="M888 10c-38.667 -10 -79.667 -17.834 -123 -23.501s-96.333 -8.5 -159 -8.5c-140 0 -244.167 28.333 -312.5 85s-102.5 153.667 -102.5 291v114h-138v212h138v199h-148v244h148v321h360v-321h337v-244h-337v-199h229v-212h-229c0 -36.667 0.333008 -68.167 1 -94.5
s6 -51.166 16 -74.499c9.33301 -23.333 25.833 -41.833 49.5 -55.5s58.167 -20.5 103.5 -20.5c18.667 0 43.167 4 73.5 12s51.5 15.333 63.5 22h30v-247z" />
    <glyph glyph-name="Utilde" unicode="&#x168;" horiz-adv-x="1663" 
d="M1494 539c0 -184 -55.999 -325 -167.999 -423s-277 -147 -495 -147s-382.833 49 -494.5 147s-167.5 238.667 -167.5 422v951h386v-929c0 -103.333 21.667 -180.333 65 -231s113.666 -76 210.999 -76c96 0 166.167 24.333 210.5 73s66.5 126.667 66.5 234v929h386v-950z
M1275 1991c-6.66699 -112.667 -34.1689 -196.167 -82.502 -250.5s-115.833 -81.5 -202.5 -81.5c-31.333 0 -61.166 6.16699 -89.499 18.5s-54.166 25.5 -77.499 39.5c-20.667 12.667 -43.5 25.5 -68.5 38.5s-45.833 19.5 -62.5 19.5c-32.667 0 -54.5 -10.667 -65.5 -32
s-17.5 -51.333 -19.5 -90h-219c4 100.667 31.833 181 83.5 241s118.5 90 200.5 90c32 0 62.333 -5.83301 91 -17.5s55 -24.5 79 -38.5l69 -37.5c21.333 -11.667 41 -17.5 59 -17.5c32 0 54 10.667 66 32s18.667 50 20 86h219z" />
    <glyph glyph-name="utilde" unicode="&#x169;" horiz-adv-x="1459" 
d="M1289 0l-360.001 0.00292969v124c-66.667 -50.667 -127.667 -89.167 -183 -115.5s-121.333 -39.5 -198 -39.5c-124 0 -219.5 35.667 -286.5 107s-100.5 176.666 -100.5 315.999v731h362v-557c0 -56.667 1.83301 -103.834 5.5 -141.501s12.167 -68.834 25.5 -93.501
c12.667 -24.667 31.834 -42.667 57.501 -54s61.5 -17 107.5 -17c30.667 0 64.667 5.66699 102 17s73.333 28 108 50v796h360v-1123zM1190 1618c-6.66699 -112.667 -34.1689 -196.167 -82.502 -250.5s-115.833 -81.5 -202.5 -81.5c-31.333 0 -61.166 6.16699 -89.499 18.5
s-54.166 25.5 -77.499 39.5c-20.667 12.667 -43.5 25.5 -68.5 38.5s-45.833 19.5 -62.5 19.5c-32.667 0 -54.5 -10.667 -65.5 -32s-17.5 -51.333 -19.5 -90h-219c4 100.667 31.833 181 83.5 241s118.5 90 200.5 90c32 0 62.333 -5.83301 91 -17.5s55 -24.5 79 -38.5
l69 -37.5c21.333 -11.667 41 -17.5 59 -17.5c32 0 54 10.667 66 32s18.667 50 20 86h219z" />
    <glyph glyph-name="Umacron" unicode="&#x16a;" horiz-adv-x="1663" 
d="M1494 539c0 -184 -55.999 -325 -167.999 -423s-277 -147 -495 -147s-382.833 49 -494.5 147s-167.5 238.667 -167.5 422v951h386v-929c0 -103.333 21.667 -180.333 65 -231s113.666 -76 210.999 -76c96 0 166.167 24.333 210.5 73s66.5 126.667 66.5 234v929h386v-950z
M1233 1719h-802v210h802v-210z" />
    <glyph glyph-name="umacron" unicode="&#x16b;" horiz-adv-x="1459" 
d="M1289 0l-360.001 0.00292969v124c-66.667 -50.667 -127.667 -89.167 -183 -115.5s-121.333 -39.5 -198 -39.5c-124 0 -219.5 35.667 -286.5 107s-100.5 176.666 -100.5 315.999v731h362v-557c0 -56.667 1.83301 -103.834 5.5 -141.501s12.167 -68.834 25.5 -93.501
c12.667 -24.667 31.834 -42.667 57.501 -54s61.5 -17 107.5 -17c30.667 0 64.667 5.66699 102 17s73.333 28 108 50v796h360v-1123zM1133 1346h-802v210h802v-210z" />
    <glyph glyph-name="Ubreve" unicode="&#x16c;" horiz-adv-x="1663" 
d="M1494 539c0 -184 -55.999 -325 -167.999 -423s-277 -147 -495 -147s-382.833 49 -494.5 147s-167.5 238.667 -167.5 422v951h386v-929c0 -103.333 21.667 -180.333 65 -231s113.666 -76 210.999 -76c96 0 166.167 24.333 210.5 73s66.5 126.667 66.5 234v929h386v-950z
M1220 2009c0 -118.667 -33.666 -211.832 -100.999 -279.499s-162.333 -101.5 -285 -101.5s-217.834 32.167 -285.501 96.5s-101.5 159.166 -101.5 284.499h223c0 -68.667 13.5 -119.834 40.5 -153.501s68.167 -50.5 123.5 -50.5c52 0 92.167 16.833 120.5 50.5
s42.5 84.834 42.5 153.501h223z" />
    <glyph glyph-name="ubreve" unicode="&#x16d;" horiz-adv-x="1459" 
d="M1289 0l-360.001 0.00292969v124c-66.667 -50.667 -127.667 -89.167 -183 -115.5s-121.333 -39.5 -198 -39.5c-124 0 -219.5 35.667 -286.5 107s-100.5 176.666 -100.5 315.999v731h362v-557c0 -56.667 1.83301 -103.834 5.5 -141.501s12.167 -68.834 25.5 -93.501
c12.667 -24.667 31.834 -42.667 57.501 -54s61.5 -17 107.5 -17c30.667 0 64.667 5.66699 102 17s73.333 28 108 50v796h360v-1123zM1114 1636c0 -118.667 -33.666 -211.832 -100.999 -279.499s-162.333 -101.5 -285 -101.5s-217.834 32.167 -285.501 96.5
s-101.5 159.166 -101.5 284.499h223c0 -68.667 13.5 -119.834 40.5 -153.501s68.167 -50.5 123.5 -50.5c52 0 92.167 16.833 120.5 50.5s42.5 84.834 42.5 153.501h223z" />
    <glyph glyph-name="Uring" unicode="&#x16e;" horiz-adv-x="1663" 
d="M1494 539c0 -184 -55.999 -325 -167.999 -423s-277 -147 -495 -147s-382.833 49 -494.5 147s-167.5 238.667 -167.5 422v951h386v-929c0 -103.333 21.667 -180.333 65 -231s113.666 -76 210.999 -76c96 0 166.167 24.333 210.5 73s66.5 126.667 66.5 234v929h386v-950z
M1149 1731c0 -85.333 -30.667 -156.833 -92 -214.5s-136.666 -86.5 -225.999 -86.5c-88.667 0 -163.834 28.667 -225.501 86s-92.5 129 -92.5 215s30.833 157.667 92.5 215s136.834 86 225.501 86c89.333 0 164.666 -28.833 225.999 -86.5s92 -129.167 92 -214.5z
M967.001 1730c0 41.333 -12.833 76.333 -38.5 105s-58.167 43 -97.5 43s-71.833 -14.167 -97.5 -42.5s-38.5 -63.5 -38.5 -105.5s12.667 -76.833 38 -104.5s58 -41.5 98 -41.5s72.667 14 98 42s38 62.667 38 104z" />
    <glyph glyph-name="uring" unicode="&#x16f;" horiz-adv-x="1459" 
d="M1289 0l-360.001 0.00292969v124c-66.667 -50.667 -127.667 -89.167 -183 -115.5s-121.333 -39.5 -198 -39.5c-124 0 -219.5 35.667 -286.5 107s-100.5 176.666 -100.5 315.999v731h362v-557c0 -56.667 1.83301 -103.834 5.5 -141.501s12.167 -68.834 25.5 -93.501
c12.667 -24.667 31.834 -42.667 57.501 -54s61.5 -17 107.5 -17c30.667 0 64.667 5.66699 102 17s73.333 28 108 50v796h360v-1123zM1044 1421c0 -85.333 -30.667 -156.833 -92 -214.5s-136.666 -86.5 -225.999 -86.5c-88.667 0 -163.834 28.667 -225.501 86
s-92.5 129 -92.5 215s30.833 157.667 92.5 215s136.834 86 225.501 86c89.333 0 164.666 -28.833 225.999 -86.5s92 -129.167 92 -214.5zM861.999 1420c0 41.333 -12.833 76.333 -38.5 105s-58.167 43 -97.5 43s-71.833 -14.167 -97.5 -42.5s-38.5 -63.5 -38.5 -105.5
s12.667 -76.833 38 -104.5s58 -41.5 98 -41.5s72.667 14 98 42s38 62.667 38 104z" />
    <glyph glyph-name="Uhungarumlaut" unicode="&#x170;" horiz-adv-x="1663" 
d="M1494 539c0 -184 -55.999 -325 -167.999 -423s-277 -147 -495 -147s-382.833 49 -494.5 147s-167.5 238.667 -167.5 422v951h386v-929c0 -103.333 21.667 -180.333 65 -231s113.666 -76 210.999 -76c96 0 166.167 24.333 210.5 73s66.5 126.667 66.5 234v929h386v-950z
M1354 2049l-268 -393h-219l179 393h308zM930.001 2049l-268 -393h-219l179 393h308z" />
    <glyph glyph-name="uhungarumlaut" unicode="&#x171;" horiz-adv-x="1459" 
d="M1289 0l-360.001 0.00292969v124c-66.667 -50.667 -127.667 -89.167 -183 -115.5s-121.333 -39.5 -198 -39.5c-124 0 -219.5 35.667 -286.5 107s-100.5 176.666 -100.5 315.999v731h362v-557c0 -56.667 1.83301 -103.834 5.5 -141.501s12.167 -68.834 25.5 -93.501
c12.667 -24.667 31.834 -42.667 57.501 -54s61.5 -17 107.5 -17c30.667 0 64.667 5.66699 102 17s73.333 28 108 50v796h360v-1123zM1256 1676l-268 -393h-219l179 393h308zM831.999 1676l-268 -393h-219l179 393h308z" />
    <glyph glyph-name="Uogonek" unicode="&#x172;" horiz-adv-x="1663" 
d="M912 -27c-10 0 -21.998 -0.330078 -35.998 -0.99707s-29 -1 -45 -1c-218 0 -382.833 48.667 -494.5 146s-167.5 237.666 -167.5 420.999v951h386v-929c0 -103.333 21.667 -180.333 65 -231s113.666 -76 210.999 -76c96 0 166.167 24.333 210.5 73s66.5 126.667 66.5 234
v929h386v-950c0 -136 -31 -248.5 -93 -337.5s-153 -152.5 -273 -190.5c-0.666992 -16.667 -1.33398 -30.334 -2.00098 -41.001s-1 -28.667 -1 -54c0 -40.667 16 -74.667 48 -102s76.333 -41 133 -41c28 0 57.833 4 89.5 12s54.5 15.333 68.5 22h9v-200
c-32 -8.66699 -69.333 -14.834 -112 -18.501s-75.667 -5.5 -99 -5.5c-114 0 -201.333 27.5 -262 82.5s-91 133.5 -91 235.5c0 16 0.5 30 1.5 42s1.5 22 1.5 30z" />
    <glyph glyph-name="uogonek" unicode="&#x173;" horiz-adv-x="1459" 
d="M922.5 26.5c3.66699 49 5.83203 81.5039 6.49902 97.5039c-66.667 -50.667 -127.667 -89.167 -183 -115.5s-121.333 -39.5 -198 -39.5c-124 0 -219.5 35.667 -286.5 107s-100.5 176.666 -100.5 315.999v731h362v-557c0 -56.667 1.83301 -103.834 5.5 -141.501
s12.167 -68.834 25.5 -93.501c12.667 -24.667 31.834 -42.667 57.501 -54s61.5 -17 107.5 -17c30.667 0 64.667 5.66699 102 17s73.333 28 108 50v796h360v-1123h-151l-3.5 -40c-1 -12 -1.5 -26.667 -1.5 -44c0 -40.667 16 -74.667 48 -102s76.333 -41 133 -41
c28 0 57.833 4 89.5 12s54.5 15.333 68.5 22h9v-200c-32 -8.66699 -69.333 -14.834 -112 -18.501s-75.667 -5.5 -99 -5.5c-114 0 -201.333 27.5 -262 82.5s-91 133.5 -91 235.5c0 34.667 1.83301 76.5 5.5 125.5z" />
    <glyph glyph-name="Wcircumflex" unicode="&#x174;" horiz-adv-x="2311" 
d="M2245 1489l-401 -1489h-425l-267 970l-260 -970h-425l-401 1489h401l229 -1025l274 1025h383l261 -1025l240 1025h391zM1608 1656h-264l-185 219l-184 -219h-260l321 393h251z" />
    <glyph glyph-name="wcircumflex" unicode="&#x175;" horiz-adv-x="2006" 
d="M1961 1123l-348 -1123h-382l-229 757l-225 -757h-387l-345 1123h378l192 -774l240 774h319l228 -774l189 774h370zM1463 1283h-264l-185 219l-184 -219h-260l321 393h251z" />
    <glyph glyph-name="Ycircumflex" unicode="&#x176;" horiz-adv-x="1509" 
d="M1500 1489l-549 -913v-576h-384v558l-558 931h436l322 -576l311 576h422zM1208 1656h-264l-185 219l-184 -219h-260l321 393h251z" />
    <glyph glyph-name="ycircumflex" unicode="&#x177;" horiz-adv-x="1333" 
d="M677 397l256 726h370l-624 -1535h-390l178 420l-437 1115h378zM1116 1283h-264l-185 219l-184 -219h-260l321 393h251z" />
    <glyph glyph-name="Ydieresis" unicode="&#x178;" horiz-adv-x="1509" 
d="M1500 1489l-549 -913v-576h-384v558l-558 931h436l322 -576l311 576h422zM1175 1656h-297v273h297v-273zM638 1656h-297v273h297v-273z" />
    <glyph glyph-name="Zacute" unicode="&#x179;" horiz-adv-x="1417" 
d="M1341 0h-1251v279l742 922h-706v288h1175v-284l-741 -917h781v-288zM1120 2049v-20l-352 -373h-246l247 393h351z" />
    <glyph glyph-name="zacute" unicode="&#x17a;" horiz-adv-x="1222" 
d="M1139 0h-1055v231l592 629h-568v263h1020v-227l-583 -628h594v-268zM1023 1676v-20l-352 -373h-246l247 393h351z" />
    <glyph glyph-name="Zdotaccent" unicode="&#x17b;" horiz-adv-x="1417" 
d="M1341 0h-1251v279l742 922h-706v288h1175v-284l-741 -917h781v-288zM912 1656h-370v273h370v-273z" />
    <glyph glyph-name="zdotaccent" unicode="&#x17c;" horiz-adv-x="1222" 
d="M1139 0h-1055v231l592 629h-568v263h1020v-227l-583 -628h594v-268zM815 1283h-370v273h370v-273z" />
    <glyph glyph-name="Zcaron" unicode="&#x17d;" horiz-adv-x="1417" 
d="M1341 0h-1251v279l742 922h-706v288h1175v-284l-741 -917h781v-288zM1154 2049l-321 -393h-251l-321 393h264l185 -227l184 227h260z" />
    <glyph glyph-name="zcaron" unicode="&#x17e;" horiz-adv-x="1222" 
d="M1139 0h-1055v231l592 629h-568v263h1020v-227l-583 -628h594v-268zM1058 1676l-321 -393h-251l-321 393h264l185 -227l184 227h260z" />
    <glyph glyph-name="longs" unicode="&#x17f;" horiz-adv-x="706" 
d="M871 1292h-26.998c-16 4.66699 -36.833 10 -62.5 16s-53.167 9 -82.5 9c-62.667 0 -106.5 -12.5 -131.5 -37.5s-37.5 -74.167 -37.5 -147.5v-1132h-360v1154c0 137.333 36.5 240.333 109.5 309s183.5 103 331.5 103c53.333 0 101.666 -1.83301 144.999 -5.5
s81.666 -8.5 114.999 -14.5v-254z" />
    <glyph glyph-name="uni018F" unicode="&#x18f;" horiz-adv-x="1649" 
d="M1546 744c0 -234.667 -60.999 -420.668 -182.999 -558.001c-127.333 -144.667 -307 -217 -539 -217c-235.333 0 -411.666 70 -528.999 210c-74.667 89.333 -125 181 -151 275c-27.333 100 -41 254 -41 462h1047c-29.333 154 -95 252.667 -197 296
c-52 22 -111.667 33 -179 33c-88.667 0 -176.334 -23 -263.001 -69c-38.667 -20.667 -91.334 -58.667 -158.001 -114h-39v340c160.667 78.667 330.667 118 510 118c232 0 412 -72.333 540 -217c121.333 -137.333 182 -323.666 182 -558.999zM1157 612.999
l-663.999 -0.000976562c4 -28 10.667 -58.333 20 -91c35.333 -123.333 96 -204.666 182 -243.999c40.667 -18.667 84 -28 130 -28c100 0 179.333 39 238 117c51.333 68.667 82.666 150.667 93.999 246z" />
    <glyph glyph-name="florin" unicode="&#x192;" horiz-adv-x="1456" 
d="M1381 1221l-42.002 0.00390625c-17.333 6 -41 12 -71 18s-59 9 -87 9c-62.667 0 -112.667 -14.5 -150 -43.5s-61.666 -82.833 -72.999 -161.5l-23 -169h285v-217h-318l-64 -410c-15.333 -94 -41.666 -169.833 -78.999 -227.5s-82 -102.834 -134 -135.501
c-50 -30.667 -103.5 -52.334 -160.5 -65.001s-117.833 -19 -182.5 -19c-31.333 0 -67.166 1.66699 -107.499 5s-75.833 7.66602 -106.5 12.999v281h32c19.333 -6.66699 43.5 -12.834 72.5 -18.501s57.5 -8.5 85.5 -8.5c65.333 0 116.5 16.167 153.5 48.5
s61.167 87.5 72.5 165.5l56 371h-179v217h210l32 209c14 92.667 40.667 167.334 80 224.001s85 100.667 137 132c50 31.333 106.5 52.666 169.5 63.999s122.167 17 177.5 17c35.333 0 70.666 -1.5 105.999 -4.5s71.333 -7.5 108 -13.5v-281z" />
    <glyph glyph-name="Ohorn" unicode="&#x1a0;" horiz-adv-x="1871" 
d="M1638 744c0 -237.333 -68.001 -425.834 -204.001 -565.501s-324 -209.5 -564 -209.5c-239.333 0 -427 69.833 -563 209.5s-204 328.167 -204 565.5c0 239.333 68 428.5 204 567.5s323.667 208.5 563 208.5c148.667 0 277 -26.833 385 -80.5s194.333 -129.5 259 -227.5h21
c54 0 92.5 12.167 115.5 36.5s34.5 58.5 34.5 102.5c0 26.667 -4 54.334 -12 83.001s-15.667 51 -23 67v19h232c6.66699 -22.667 12.334 -54.5 17.001 -95.5s7 -73.5 7 -97.5c0 -106 -29.5 -181.667 -88.5 -227s-131.5 -71 -217.5 -77c12.667 -42 22.167 -86.5 28.5 -133.5
s9.5 -95.5 9.5 -145.5zM1129 366.999c37.333 45.333 65.001 98.832 83.001 160.499s27 134.167 27 217.5c0 89.333 -10.333 165.333 -31 228s-47.667 113.334 -81 152.001c-34 40 -73.167 69 -117.5 87s-90.5 27 -138.5 27c-48.667 0 -94.5 -8.66699 -137.5 -26
s-82.5 -46 -118.5 -86c-33.333 -37.333 -60.5 -88.833 -81.5 -154.5s-31.5 -141.834 -31.5 -228.501c0 -88.667 10.167 -164.167 30.5 -226.5s47.166 -113.166 80.499 -152.499s72.333 -68.333 117 -87s91.667 -28 141 -28s96.333 9.5 141 28.5s83.667 48.5 117 88.5z" />
    <glyph glyph-name="ohorn" unicode="&#x1a1;" horiz-adv-x="1406" 
d="M1318 561c0 -184.667 -53.8271 -330.167 -161.494 -436.5s-258.834 -159.5 -453.501 -159.5s-345.834 53.167 -453.501 159.5s-161.5 251.833 -161.5 436.5c0 186 54.167 332 162.5 438s259.166 159 452.499 159c45.333 0 88.666 -3 129.999 -9
s79.666 -14.667 114.999 -26h104c54 0 92.5 13 115.5 39s34.5 61 34.5 105c0 26.667 -4 54.334 -12 83.001s-15.667 51 -23 67v19h232c6.66699 -22.667 12.334 -54.5 17.001 -95.5s7 -73.5 7 -97.5c0 -98 -23.833 -169 -71.5 -213s-97.834 -71.333 -150.501 -82
c39.333 -50 68.666 -107.833 87.999 -173.5s29 -136.834 29 -213.501zM945.006 559c0 66 -6.00195 121.334 -18.002 166.001s-28.667 80.334 -50 107.001c-21.333 27.333 -47 46.666 -77 57.999s-62.333 17 -97 17s-65.5 -4.66699 -92.5 -14s-52.833 -28 -77.5 -56
c-22 -26 -39.5 -61.667 -52.5 -107s-19.5 -102.333 -19.5 -171c0 -61.333 5.66699 -114.5 17 -159.5s28 -81.167 50 -108.5c21.333 -26 46.833 -45 76.5 -57s63.5 -18 101.5 -18c32.667 0 63.834 5.5 93.501 16.5s54.834 29.5 75.501 55.5
c23.333 28.667 40.833 63.167 52.5 103.5s17.5 96.166 17.5 167.499z" />
    <glyph glyph-name="Uhorn" unicode="&#x1af;" horiz-adv-x="1733" 
d="M1494 539c0 -184 -56 -325.001 -168 -423.001s-277 -147 -495 -147s-382.833 49 -494.5 147s-167.5 238.667 -167.5 422v951h386v-929c0 -103.333 21.667 -180.333 65 -231s113.666 -76 210.999 -76c96 0 166.167 24.333 210.5 73s66.5 126.667 66.5 234v929h321
c54 0 92.5 13 115.5 39s34.5 61 34.5 105c0 26.667 -4 54.334 -12 83.001s-15.667 51 -23 67v19h232c6.66699 -22.667 12.334 -54.5 17.001 -95.5s7 -73.5 7 -97.5c0 -106 -29.5 -182.5 -88.5 -229.5s-131.5 -73.5 -217.5 -79.5v-761z" />
    <glyph glyph-name="uhorn" unicode="&#x1b0;" horiz-adv-x="1519" 
d="M1289 0l-360.002 0.00195312v124c-66.667 -50.667 -127.667 -89.167 -183 -115.5s-121.333 -39.5 -198 -39.5c-124 0 -219.5 35.667 -286.5 107s-100.5 176.666 -100.5 315.999v731h362v-557c0 -56.667 1.83301 -103.834 5.5 -141.501s12.167 -68.834 25.5 -93.501
c12.667 -24.667 31.834 -42.667 57.501 -54s61.5 -17 107.5 -17c30.667 0 64.667 5.66699 102 17s73.333 28 108 50v796h295c54 0 92.5 13 115.5 39s34.5 61 34.5 105c0 26.667 -4 54.334 -12 83.001s-15.667 51 -23 67v19h232c6.66699 -22.667 12.334 -54.5 17.001 -95.5
s7 -73.5 7 -97.5c0 -106 -29.5 -182.5 -88.5 -229.5s-131.5 -73.5 -217.5 -79.5v-934z" />
    <glyph glyph-name="Aringacute" unicode="&#x1fa;" horiz-adv-x="1590" 
d="M1566 0h-397l-123 301h-522l-113 -301h-387l524 1299c-28 26.667 -50.833 58 -68.5 94s-26.5 74 -26.5 114c0 61.333 18.333 116.666 55 165.999s84.667 86 144 110l189 265h337v-20l-270 -234c66 -20 120.667 -56 164 -108s65 -111.667 65 -179
c0 -41.333 -9.16699 -80.166 -27.5 -116.499s-40.833 -66.833 -67.5 -91.5zM953 574l-163 434l-173 -434h336zM931 1515c0 42 -12.833 76.667 -38.5 104s-58.167 41 -97.5 41s-71.833 -13.667 -97.5 -41s-38.5 -62 -38.5 -104s12.667 -76.833 38 -104.5s58 -41.5 98 -41.5
s72.667 14 98 42s38 62.667 38 104z" />
    <glyph glyph-name="aringacute" unicode="&#x1fb;" horiz-adv-x="1368" 
d="M850 293l0.00292969 233.999c-48.667 -4 -101.334 -9.5 -158.001 -16.5s-99.667 -15.167 -129 -24.5c-36 -11.333 -63.5 -27.833 -82.5 -49.5s-28.5 -50.167 -28.5 -85.5c0 -23.333 2 -42.333 6 -57s14 -28.667 30 -42c15.333 -13.333 33.666 -23.166 54.999 -29.499
s54.666 -9.5 99.999 -9.5c36 0 72.5 7.33301 109.5 22s69.5 34 97.5 58zM850.003 118.999l-72.002 -52.999c-28.667 -20.667 -55.667 -37 -81 -49c-35.333 -16 -72 -27.833 -110 -35.5s-79.667 -11.5 -125 -11.5c-106.667 0 -196 33 -268 99s-108 150.333 -108 253
c0 82 18.333 149 55 201s88.667 93 156 123c66.667 30 149.334 51.333 248.001 64s201 22 307 28v6c0 62 -25.333 104.833 -76 128.5s-125.334 35.5 -224.001 35.5c-59.333 0 -122.666 -10.5 -189.999 -31.5s-115.666 -37.167 -144.999 -48.5h-33v271
c36 9.33301 82.167 19 138.5 29s127.5 17.333 213.5 22c-52.667 24 -95.167 59 -127.5 105s-48.5 99.333 -48.5 160c0 63.333 17.333 119 52 167s79.667 83 135 105l187 291h334v-20l-291 -259c64 -18 116.5 -52.5 157.5 -103.5s61.5 -111.167 61.5 -180.5
c0 -63.333 -17.5 -119 -52.5 -167s-80.833 -82.667 -137.5 -104c133.333 -15.333 233.5 -52.833 300.5 -112.5s100.5 -148.834 100.5 -267.501v-764h-357v119zM814.001 1405c0 41.333 -12.833 77.166 -38.5 107.499s-58.167 45.5 -97.5 45.5s-71.833 -15 -97.5 -45
s-38.5 -66 -38.5 -108s12.667 -76 38 -102s58 -39 98 -39c40.667 0 73.5 13.333 98.5 40s37.5 60.334 37.5 101.001z" />
    <glyph glyph-name="AEacute" unicode="&#x1fc;" horiz-adv-x="2240" 
d="M679 688h355v527h-144zM1034 404h-469l-162 -404h-399l611 1489h1493v-288h-695v-257h645v-288h-645v-368h695v-288h-1074v404zM1688 2049v-20l-352 -373h-246l247 393h351z" />
    <glyph glyph-name="aeacute" unicode="&#x1fd;" horiz-adv-x="2085" 
d="M2001 495l-811.002 0.00292969c3.33301 -52.667 15.166 -96.334 35.499 -131.001s46.833 -62.334 79.5 -83.001s70.334 -35.5 113.001 -44.5s89 -13.5 139 -13.5c74 0 145.833 13.333 215.5 40s125.5 56.334 167.5 89.001h40v-289
c-70 -28.667 -140.833 -51.334 -212.5 -68.001s-154.834 -25 -249.501 -25c-102 0 -199.667 14.833 -293 44.5s-176 76.167 -248 139.5l-84.5 -60c-35.667 -24.667 -70.167 -44.667 -103.5 -60c-43.333 -19.333 -89.166 -34.833 -137.499 -46.5
s-109.166 -17.5 -182.499 -17.5c-113.333 0 -205.5 32.833 -276.5 98.5s-106.5 150.167 -106.5 253.5c0 84 18.667 151.5 56 202.5s89 91.5 155 121.5c64 28.667 144.167 49.667 240.5 63s197.833 23 304.5 29v6c0 62 -23.5 104.833 -70.5 128.5s-120.167 35.5 -219.5 35.5
c-59.333 0 -122.666 -10.5 -189.999 -31.5s-115.666 -37.167 -144.999 -48.5h-33v271c38 10 99.833 21.833 185.5 35.5s171.5 20.5 257.5 20.5c102 0 188.5 -9.83301 259.5 -29.5s130.5 -46.834 178.5 -81.501c51.333 33.333 110.666 60.666 177.999 81.999
s139.333 32 216 32c180.667 0 316.167 -46.167 406.5 -138.5s135.5 -225.166 135.5 -398.499v-126zM1643 706.003c-2 74 -20.1689 130.333 -54.502 169s-87.833 58 -160.5 58c-67.333 0 -122.666 -18 -165.999 -54s-67.666 -93.667 -72.999 -173h454zM876.996 306.003
c-17.333 42.667 -28.5 84.499 -33.5 125.499s-7.5 72.5 -7.5 94.5c-55.333 -4.66699 -105.833 -9.66699 -151.5 -15s-86.5 -14 -122.5 -26c-34 -10.667 -60.833 -26.834 -80.5 -48.501s-29.5 -50.167 -29.5 -85.5c0 -19.333 2.33301 -37.666 7 -54.999s14 -32 28 -44
c14 -13.333 33.833 -23.166 59.5 -29.499s56.5 -9.5 92.5 -9.5c40 0 80.5 8.5 121.5 25.5s79.833 39.5 116.5 67.5zM1493 1676v-20l-352 -373h-246l247 393h351z" />
    <glyph glyph-name="Oslashacute" unicode="&#x1fe;" horiz-adv-x="1741" 
d="M1192 1049l-541.001 -732.999c30 -24 63.667 -42.333 101 -55s77 -19 119 -19c48 0 95.833 9.83301 143.5 29.5s87.834 49.5 120.501 89.5c38 45.333 66.167 99.666 84.5 162.999s27.5 137 27.5 221c0 56 -5.16699 112 -15.5 168s-23.5 101.333 -39.5 136z
M546.999 445.001l537.999 732.001c-31.333 24 -65.166 41.667 -101.499 53s-73.833 17 -112.5 17c-52 0 -99 -8.33301 -141 -25s-82 -46.334 -120 -89.001c-34.667 -38 -62.667 -89.5 -84 -154.5s-32 -143.167 -32 -234.5c0 -60 4.66699 -115.5 14 -166.5
s22.333 -95.167 39 -132.5zM328.998 162.002c-72 68 -127.666 151.5 -166.999 250.5s-59 209.5 -59 331.5c0 239.333 68 428.5 204 567.5s323.667 208.5 563 208.5c79.333 0 151.833 -7.66699 217.5 -23s127.167 -38.333 184.5 -69l123 164h210l-196 -261
c72.667 -66.667 129 -149.834 169 -249.501s60 -212.167 60 -337.5c0 -237.333 -68 -425.833 -204 -565.5s-324 -209.5 -564 -209.5c-76.667 0 -149.834 8.33301 -219.501 25s-132.167 40.334 -187.5 71.001l-155 -207h-207zM1224 2049v-20l-352 -373h-246l247 393h351z" />
    <glyph glyph-name="oslashacute" unicode="&#x1ff;" horiz-adv-x="1406" 
d="M933 745l-366.001 -498.001c18.667 -12.667 39.5 -22 62.5 -28s48.5 -9 76.5 -9c32.667 0 64.834 5.83301 96.501 17.5s57.834 30.167 78.501 55.5c23.333 29.333 41.166 64.5 53.499 105.5s18.5 97.833 18.5 170.5c0 32.667 -1.83301 66.334 -5.5 101.001
s-8.5 63 -14.5 85zM478.999 355.999l375 508.996c-20 16.667 -42.5 28.834 -67.5 36.501s-52.833 11.5 -83.5 11.5c-35.333 0 -67.166 -4.83301 -95.499 -14.5s-54.5 -28.5 -78.5 -56.5c-22.667 -25.333 -40.834 -61.666 -54.501 -108.999s-20.5 -105.333 -20.5 -174
c0 -41.333 2.33301 -79.166 7 -113.499s10.667 -64.166 18 -89.499zM283.999 99.9951c-63.333 53.333 -111.831 119.332 -145.498 197.999s-50.5 166.334 -50.5 263.001c0 186 54.167 332 162.5 438s259.166 159 452.499 159c62.667 0 120 -6.16699 172 -18.5
s101 -29.833 147 -52.5l121 166h175l-182 -242c58 -51.333 102.833 -115.333 134.5 -192s47.5 -162.667 47.5 -258c0 -184.667 -53.833 -330.167 -161.5 -436.5s-258.834 -159.5 -453.501 -159.5c-57.333 0 -111.5 5.5 -162.5 16.5s-97.5 26.5 -139.5 46.5l-139 -190h-174z
M1058 1675.99v-20l-352 -373h-246l247 393h351z" />
    <glyph glyph-name="Scommaaccent" unicode="&#x218;" horiz-adv-x="1455" 
d="M1382 468c0 -146.667 -62.166 -265.837 -186.499 -357.504s-293.166 -137.5 -506.499 -137.5c-123.333 0 -230.833 10.833 -322.5 32.5s-177.5 49.167 -257.5 82.5v357h42c79.333 -63.333 168.166 -112 266.499 -146s192.833 -51 283.5 -51c23.333 0 54 2 92 6
s69 10.667 93 20c29.333 12 53.5 27 72.5 45s28.5 44.667 28.5 80c0 32.667 -13.833 60.834 -41.5 84.501s-68.167 41.834 -121.5 54.501c-56 13.333 -115.167 25.833 -177.5 37.5s-120.833 26.5 -175.5 44.5c-125.333 40.667 -215.5 95.834 -270.5 165.501
s-82.5 156.167 -82.5 259.5c0 138.667 62.167 251.834 186.5 339.501s284.166 131.5 479.499 131.5c98 0 194.833 -9.5 290.5 -28.5s178.5 -42.833 248.5 -71.5v-343h-41c-60 48 -133.5 88.167 -220.5 120.5s-175.833 48.5 -266.5 48.5c-32 0 -63.833 -2.16699 -95.5 -6.5
s-62.167 -12.5 -91.5 -24.5c-26 -10 -48.333 -25.167 -67 -45.5s-28 -43.5 -28 -69.5c0 -39.333 15 -69.5 45 -90.5s86.667 -40.167 170 -57.5l157.5 -33c50.333 -10.667 104.5 -25.334 162.5 -44.001c114 -37.333 198.167 -88.166 252.5 -152.499
s81.5 -147.833 81.5 -250.5zM915.001 -115.003l-215 -308h-216l140 308h291z" />
    <glyph glyph-name="scommaaccent" unicode="&#x219;" horiz-adv-x="1215" 
d="M1146 356c0 -116 -51.999 -209.5 -155.999 -280.5s-246.333 -106.5 -427 -106.5c-100 0 -190.667 9.33301 -272 28s-146.666 39.334 -195.999 62.001v296h33c18 -12.667 38.833 -26.5 62.5 -41.5s57.167 -31.167 100.5 -48.5c37.333 -15.333 79.666 -28.5 126.999 -39.5
s98 -16.5 152 -16.5c70.667 0 123 7.83301 157 23.5s51 38.834 51 69.501c0 27.333 -10 47.166 -30 59.499s-58 24.166 -114 35.499c-26.667 6 -62.834 12.5 -108.501 19.5s-87.167 15.5 -124.5 25.5c-102 26.667 -177.667 68.167 -227 124.5s-74 126.5 -74 210.5
c0 108 51.167 197.833 153.5 269.5s242.166 107.5 419.499 107.5c84 0 164.5 -8.5 241.5 -25.5s137.167 -35.167 180.5 -54.5v-284h-31c-53.333 36.667 -114.166 66.5 -182.499 89.5s-137.5 34.5 -207.5 34.5c-58 0 -106.833 -8 -146.5 -24s-59.5 -38.667 -59.5 -68
c0 -26.667 9 -47 27 -61s60.333 -28 127 -42c36.667 -7.33301 76.167 -14.5 118.5 -21.5s84.833 -15.833 127.5 -26.5c94.667 -24.667 164.667 -63.5 210 -116.5s68 -119.167 68 -198.5zM815.001 -115l-215 -308h-216l140 308h291z" />
    <glyph glyph-name="uni021A" unicode="&#x21a;" horiz-adv-x="1396" 
d="M1355 1201h-465v-1201h-384v1201h-465v288h1314v-288zM892 -115l-215 -308h-216l140 308h291z" />
    <glyph glyph-name="uni021B" unicode="&#x21b;" horiz-adv-x="933" 
d="M888 10c-38.667 -10 -79.667 -17.835 -123 -23.502s-96.333 -8.5 -159 -8.5c-140 0 -244.167 28.333 -312.5 85s-102.5 153.667 -102.5 291v525h-148v244h148v321h360v-321h337v-244h-337v-398c0 -39.333 0.333008 -73.666 1 -102.999s6 -55.666 16 -78.999
c9.33301 -23.333 25.833 -41.833 49.5 -55.5s58.167 -20.5 103.5 -20.5c18.667 0 43.167 4 73.5 12s51.5 15.333 63.5 22h30v-247zM670 -115.002l-215 -308h-216l140 308h291z" />
    <glyph glyph-name="uni0237" unicode="&#x237;" horiz-adv-x="825" 
d="M656 -20c0 -127.333 -39.332 -226.333 -117.999 -297s-178.667 -106 -300 -106c-120 0 -218.667 8.66699 -296 26v258h28l49 -12c36.667 -8 69 -12 97 -12c69.333 0 116.666 20.667 141.999 62s38 109.333 38 204v776h-213v244h573v-1143z" />
    <glyph glyph-name="uni0259" unicode="&#x259;" horiz-adv-x="1360" 
d="M1272 573c0 -190.667 -59 -340 -177 -448c-114 -103.333 -267.667 -155 -461 -155c-366.667 0 -550 179 -550 537v126h824c-10.667 181.333 -135 272 -373 272c-146.667 0 -276.667 -43 -390 -129h-40v289c154.667 62 311 93 469 93c209.333 0 374 -44.333 494 -133
c136 -100 204 -250.667 204 -452zM909 422h-467c4 -151.333 77.667 -227 221 -227c154 0 236 75.667 246 227z" />
    <glyph glyph-name="circumflex" unicode="&#x2c6;" horiz-adv-x="1456" 
d="M1175 1283h-264l-185 219l-184 -219h-260l321 393h251z" />
    <glyph glyph-name="caron" unicode="&#x2c7;" horiz-adv-x="1456" 
d="M1176 1676l-321 -393h-251l-321 393h264l185 -227l184 227h260z" />
    <glyph glyph-name="uni02C9" unicode="&#x2c9;" horiz-adv-x="1456" 
d="M1129 1346h-802v210h802v-210z" />
    <glyph glyph-name="breve" unicode="&#x2d8;" horiz-adv-x="1456" 
d="M1115 1636c0 -118.667 -33.666 -211.832 -100.999 -279.499s-162.333 -101.5 -285 -101.5s-217.834 32.167 -285.501 96.5s-101.5 159.166 -101.5 284.499h223c0 -68.667 13.5 -119.834 40.5 -153.501s68.167 -50.5 123.5 -50.5c52 0 92.167 16.833 120.5 50.5
s42.5 84.834 42.5 153.501h223z" />
    <glyph glyph-name="dotaccent" unicode="&#x2d9;" horiz-adv-x="1456" 
d="M913 1283h-370v273h370v-273z" />
    <glyph glyph-name="ring" unicode="&#x2da;" horiz-adv-x="1456" 
d="M1046 1421c0 -85.333 -30.667 -156.833 -92 -214.5s-136.666 -86.5 -225.999 -86.5c-88.667 0 -163.834 28.667 -225.501 86s-92.5 129 -92.5 215s30.833 157.667 92.5 215s136.834 86 225.501 86c89.333 0 164.666 -28.833 225.999 -86.5s92 -129.167 92 -214.5z
M864 1420c0 41.333 -12.833 76.333 -38.5 105s-58.167 43 -97.5 43s-71.833 -14.167 -97.5 -42.5s-38.5 -63.5 -38.5 -105.5s12.667 -76.833 38 -104.5s58 -41.5 98 -41.5s72.667 14 98 42s38 62.667 38 104z" />
    <glyph glyph-name="ogonek" unicode="&#x2db;" horiz-adv-x="1456" 
d="M1012 -393c-32 -8.66699 -69.334 -14.834 -112.001 -18.501s-75.667 -5.5 -99 -5.5c-114 0 -201.333 27.5 -262 82.5s-91 133.5 -91 235.5c0 23.333 0.833008 44.5 2.5 63.5s2.83398 34.167 3.50098 45.5h214c-0.666992 -16.667 -1.5 -30.167 -2.5 -40.5
s-1.5 -28.166 -1.5 -53.499c0 -40.667 16 -74.667 48 -102s76.333 -41 133 -41c28 0 57.833 4 89.5 12s54.5 15.333 68.5 22h9v-200z" />
    <glyph glyph-name="tilde" unicode="&#x2dc;" horiz-adv-x="1456" 
d="M1172 1618c-6.66699 -112.667 -34.1689 -196.167 -82.502 -250.5s-115.833 -81.5 -202.5 -81.5c-31.333 0 -61.166 6.16699 -89.499 18.5s-54.166 25.5 -77.499 39.5c-20.667 12.667 -43.5 25.5 -68.5 38.5s-45.833 19.5 -62.5 19.5c-32.667 0 -54.5 -10.667 -65.5 -32
s-17.5 -51.333 -19.5 -90h-219c4 100.667 31.833 181 83.5 241s118.5 90 200.5 90c32 0 62.333 -5.83301 91 -17.5s55 -24.5 79 -38.5l69 -37.5c21.333 -11.667 41 -17.5 59 -17.5c32 0 54 10.667 66 32s18.667 50 20 86h219z" />
    <glyph glyph-name="hungarumlaut" unicode="&#x2dd;" horiz-adv-x="1456" 
d="M1245 1676l-268 -393h-219l179 393h308zM821 1676l-268 -393h-219l179 393h308z" />
    <glyph glyph-name="gravecomb" unicode="&#x300;" 
d="M-428 1283h-246l-352 373v20h351z" />
    <glyph glyph-name="acutecomb" unicode="&#x301;" 
d="M-317 1676v-20l-352 -373h-246l247 393h351z" />
    <glyph glyph-name="uni0302" unicode="&#x302;" horiz-adv-x="1456" 
d="M1175 1656h-264l-185 219l-184 -219h-260l321 393h251z" />
    <glyph glyph-name="tildecomb" unicode="&#x303;" 
d="M-228 1618c-6.66699 -112.667 -34.1689 -196.167 -82.502 -250.5s-115.833 -81.5 -202.5 -81.5c-31.333 0 -61.166 6.16699 -89.499 18.5s-54.166 25.5 -77.499 39.5c-20.667 12.667 -43.5 25.5 -68.5 38.5s-45.833 19.5 -62.5 19.5c-32.667 0 -54.5 -10.667 -65.5 -32
s-17.5 -51.333 -19.5 -90h-219c4 100.667 31.833 181 83.5 241s118.5 90 200.5 90c32 0 62.333 -5.83301 91 -17.5s55 -24.5 79 -38.5l69 -37.5c21.333 -11.667 41 -17.5 59 -17.5c32 0 54 10.667 66 32s18.667 50 20 86h219z" />
    <glyph glyph-name="uni0306" unicode="&#x306;" horiz-adv-x="1456" 
d="M1115 2009c0 -118.667 -33.666 -211.832 -100.999 -279.499s-162.333 -101.5 -285 -101.5s-217.834 32.167 -285.501 96.5s-101.5 159.166 -101.5 284.499h223c0 -68.667 13.5 -119.834 40.5 -153.501s68.167 -50.5 123.5 -50.5c52 0 92.167 16.833 120.5 50.5
s42.5 84.834 42.5 153.501h223z" />
    <glyph glyph-name="uni0308" unicode="&#x308;" horiz-adv-x="1456" 
d="M1145 1656h-297v273h297v-273zM608 1656h-297v273h297v-273z" />
    <glyph glyph-name="hookabovecomb" unicode="&#x309;" 
d="M-407 1522c0 -48.667 -12.5 -85.168 -37.5 -109.501s-56.5 -43.166 -94.5 -56.499v-59h-178v112c31.333 8 55 20 71 36s24 37 24 63c0 16 -6.33301 28.833 -19 38.5s-30 14.5 -52 14.5c-20.667 0 -37.167 -1.5 -49.5 -4.5s-26.5 -7.5 -42.5 -13.5h-3v115
c12.667 4 32 8 58 12s53.333 6 82 6c80 0 140.167 -15.333 180.5 -46s60.5 -66.667 60.5 -108z" />
    <glyph glyph-name="uni030B" unicode="&#x30b;" horiz-adv-x="1456" 
d="M1245 2049l-268 -393h-219l179 393h308zM821 2049l-268 -393h-219l179 393h308z" />
    <glyph glyph-name="uni030C" unicode="&#x30c;" horiz-adv-x="1456" 
d="M1176 2049l-321 -393h-251l-321 393h264l185 -227l184 227h260z" />
    <glyph glyph-name="dotbelowcomb" unicode="&#x323;" 
d="M-473 -423h-370v273h370v-273z" />
    <glyph glyph-name="uni0326" unicode="&#x326;" horiz-adv-x="745" 
d="M572 -115l-215 -308h-216l140 308h291z" />
    <glyph glyph-name="uni0333" unicode="&#x333;" 
d="M655 -190h-1310v120h1310v-120zM655 -430h-1310v120h1310v-120z" />
    <glyph glyph-name="uni0347" unicode="&#x347;" 
d="M639 -190h-1278v120h1278v-120zM639 -430h-1278v120h1278v-120z" />
    <glyph glyph-name="tonos" unicode="&#x384;" horiz-adv-x="1456" 
d="M919 1676l-73 -393h-236l-73 393h382z" />
    <glyph glyph-name="dieresistonos" unicode="&#x385;" horiz-adv-x="1456" 
d="M898 1676l-73 -393h-195l-73 393h341zM1257 1283h-267v273h267v-273zM466 1283h-267v273h267v-273z" />
    <glyph glyph-name="Alphatonos" unicode="&#x386;" horiz-adv-x="1633" 
d="M1609 0h-397l-103 301h-552l-103 -301h-387l550 1489h442zM1016 574l-183 534l-183 -534h366zM361 1489l-73 -393h-236l-73 393h382z" />
    <glyph glyph-name="anoteleia" unicode="&#x387;" horiz-adv-x="824" 
d="M599 730h-374v393h374v-393z" />
    <glyph glyph-name="Epsilontonos" unicode="&#x388;" horiz-adv-x="1736" 
d="M1603 0h-1077v1489h1077v-288h-695v-257h645v-288h-645v-368h695v-288zM361 1489l-73 -393h-236l-73 393h382z" />
    <glyph glyph-name="Etatonos" unicode="&#x389;" horiz-adv-x="2050" 
d="M1860 0h-384v656h-567v-656h-384v1489h384v-545h567v545h384v-1489zM361 1489l-73 -393h-236l-73 393h382z" />
    <glyph glyph-name="Iotatonos" unicode="&#x38a;" horiz-adv-x="1444" 
d="M1321 0h-872v264h244v961h-244v264h872v-264h-244v-961h244v-264zM361 1489l-73 -393h-236l-73 393h382z" />
    <glyph glyph-name="Omicrontonos" unicode="&#x38c;" horiz-adv-x="1983" 
d="M1880 744c0 -237.333 -68.001 -425.833 -204.001 -565.5s-324 -209.5 -564 -209.5c-239.333 0 -427 69.833 -563 209.5s-204 328.167 -204 565.5c0 239.333 68 428.5 204 567.5s323.667 208.5 563 208.5c238.667 0 426.334 -69.5 563.001 -208.5s205 -328.167 205 -567.5
zM1371 367c37.333 45.333 65.001 98.832 83.001 160.499s27 134.167 27 217.5c0 89.333 -10.333 165.333 -31 228s-47.667 113.334 -81 152.001c-34 40 -73.167 69 -117.5 87s-90.5 27 -138.5 27c-48.667 0 -94.5 -8.66699 -137.5 -26s-82.5 -46 -118.5 -86
c-33.333 -37.333 -60.5 -88.833 -81.5 -154.5s-31.5 -141.834 -31.5 -228.501c0 -88.667 10.167 -164.167 30.5 -226.5s47.166 -113.166 80.499 -152.499s72.333 -68.333 117 -87s91.667 -28 141 -28s96.333 9.5 141 28.5s83.667 48.5 117 88.5zM361 1489l-73 -393h-236
l-73 393h382z" />
    <glyph glyph-name="Upsilontonos" unicode="&#x38e;" horiz-adv-x="1924" 
d="M1915 1489l-549 -913v-576h-384v558l-558 931h436l322 -576l311 576h422zM361 1489l-73 -393h-236l-73 393h382z" />
    <glyph glyph-name="Omegatonos" unicode="&#x38f;" horiz-adv-x="1987" 
d="M1934 0l-715.998 0.00292969v488c40.667 24.667 74.167 45.667 100.5 63s52.166 43.333 77.499 78c24 31.333 42.167 65.166 54.5 101.499s18.5 85.5 18.5 147.5c0 112 -31 200.167 -93 264.5s-146.333 96.5 -253 96.5s-191 -32.167 -253 -96.5s-93 -152.5 -93 -264.5
c0 -58 6.5 -107 19.5 -147s30.833 -74.667 53.5 -104c22.667 -28.667 50.167 -54.334 82.5 -77.001s64.166 -43.334 95.499 -62.001v-488h-716v288h474v63c-136 54 -238 128.667 -306 224s-102 209.666 -102 342.999c0 174.667 68 318.667 204 432s316.333 170 541 170
s405 -56.667 541 -170s204 -257.333 204 -432c0 -133.333 -34 -247.666 -102 -342.999s-170 -170 -306 -224v-63h474v-288zM361.002 1489l-73 -393h-236l-73 393h382z" />
    <glyph glyph-name="iotadieresistonos" unicode="&#x390;" horiz-adv-x="700" 
d="M530 0h-360v1123h360v-1123zM486 1676l-59 -393h-155l-59 393h273zM799 1283h-227v273h227v-273zM128 1283h-227v273h227v-273z" />
    <glyph glyph-name="Alpha" unicode="&#x391;" horiz-adv-x="1590" 
d="M1566 0h-397l-103 301h-552l-103 -301h-387l550 1489h442zM973 574l-183 534l-183 -534h366z" />
    <glyph glyph-name="Beta" unicode="&#x392;" horiz-adv-x="1560" 
d="M1464 456c0 -72 -14.502 -136.333 -43.502 -193s-68.833 -103.667 -119.5 -141c-58.667 -44 -123.167 -75.333 -193.5 -94s-159.5 -28 -267.5 -28h-650v1489h578c120 0 207.833 -4 263.5 -12s110.834 -25.667 165.501 -53c56.667 -28.667 98.834 -67.167 126.501 -115.5
s41.5 -103.5 41.5 -165.5c0 -72 -19 -135.5 -57 -190.5s-91.667 -97.833 -161 -128.5v-8c97.333 -19.333 174.5 -59.333 231.5 -120s85.5 -140.667 85.5 -240zM971.998 1068c0 24.667 -6.1709 49.334 -18.5039 74.001s-34.166 43 -65.499 55
c-28 10.667 -62.833 16.5 -104.5 17.5s-100.167 1.5 -175.5 1.5h-36v-315h60c60.667 0 112.334 1 155.001 3s76.334 8.66699 101.001 20c34.667 15.333 57.334 35.166 68.001 59.499s16 52.5 16 84.5zM1065.99 462c0 47.333 -9.16699 83.8291 -27.5 109.496
s-49.5 44.834 -93.5 57.501c-30 8.66699 -71.333 13.334 -124 14.001s-107.667 1 -165 1h-84v-371h28c108 0 185.333 0.333008 232 1s89.667 9.33398 129 26.001c40 16.667 67.5 38.834 82.5 66.501s22.5 59.5 22.5 95.5z" />
    <glyph glyph-name="Gamma" unicode="&#x393;" horiz-adv-x="1305" 
d="M1264 1201h-690v-1201h-384v1489h1074v-288z" />
    <glyph glyph-name="Delta" unicode="&#x394;" horiz-adv-x="1650" 
d="M1616 0h-1582l570 1489h442zM1122 286l-302 822l-302 -822h604z" />
    <glyph glyph-name="Epsilon" unicode="&#x395;" horiz-adv-x="1399" 
d="M1267 0h-1077v1489h1077v-288h-695v-257h645v-288h-645v-368h695v-288z" />
    <glyph glyph-name="Zeta" unicode="&#x396;" horiz-adv-x="1417" 
d="M1341 0h-1251v279l742 922h-706v288h1175v-284l-741 -917h781v-288z" />
    <glyph glyph-name="Eta" unicode="&#x397;" horiz-adv-x="1715" 
d="M1525 0h-384v656h-567v-656h-384v1489h384v-545h567v545h384v-1489z" />
    <glyph glyph-name="Theta" unicode="&#x398;" horiz-adv-x="1741" 
d="M1638 744c0 -237.333 -68.001 -425.833 -204.001 -565.5s-324 -209.5 -564 -209.5c-239.333 0 -427 69.833 -563 209.5s-204 328.167 -204 565.5c0 239.333 68 428.5 204 567.5s323.667 208.5 563 208.5c238.667 0 426.334 -69.5 563.001 -208.5s205 -328.167 205 -567.5
zM1129 367c37.333 45.333 65.001 98.832 83.001 160.499s27 134.167 27 217.5c0 89.333 -10.333 165.333 -31 228s-47.667 113.334 -81 152.001c-34 40 -73.167 69 -117.5 87s-90.5 27 -138.5 27c-48.667 0 -94.5 -8.66699 -137.5 -26s-82.5 -46 -118.5 -86
c-33.333 -37.333 -60.5 -88.833 -81.5 -154.5s-31.5 -141.834 -31.5 -228.501c0 -88.667 10.167 -164.167 30.5 -226.5s47.166 -113.166 80.499 -152.499s72.333 -68.333 117 -87s91.667 -28 141 -28s96.333 9.5 141 28.5s83.667 48.5 117 88.5zM1108 610.999h-475v308h475
v-308z" />
    <glyph glyph-name="Iota" unicode="&#x399;" horiz-adv-x="1118" 
d="M995 0h-872v264h244v961h-244v264h872v-264h-244v-961h244v-264z" />
    <glyph glyph-name="Kappa" unicode="&#x39a;" horiz-adv-x="1579" 
d="M1580 0h-471l-445 596l-90 -109v-487h-384v1489h384v-674l532 674h445l-582 -689z" />
    <glyph glyph-name="Lambda" unicode="&#x39b;" horiz-adv-x="1590" 
d="M1566 0h-400l-376 1077l-376 -1077h-390l559 1489h424z" />
    <glyph glyph-name="Mu" unicode="&#x39c;" horiz-adv-x="1941" 
d="M1751 0h-382v997l-276 -647h-265l-276 647v-997h-362v1489h446l335 -747l334 747h446v-1489z" />
    <glyph glyph-name="Nu" unicode="&#x39d;" horiz-adv-x="1734" 
d="M1544 0h-370l-632 1022v-1022h-352v1489h459l543 -853v853h352v-1489z" />
    <glyph glyph-name="Xi" unicode="&#x39e;" horiz-adv-x="1464" 
d="M1327 1181h-1190v308h1190v-308zM1277 618h-1090v308h1090v-308zM1327 0h-1190v308h1190v-308z" />
    </font>
</defs>
</svg>
